osu file format v14

[General]
AudioFilename: audio.mp3
AudioLeadIn: 0
PreviewTime: 58652
Countdown: 0
SampleSet: Normal
StackLeniency: 0.7
Mode: 1
LetterboxInBreaks: 0
WidescreenStoryboard: 0

[Editor]
Bookmarks: 7671,19823,31975,44127,71469
DistanceSpacing: 1.1
BeatDivisor: 4
GridSize: 32
TimelineZoom: 0.8999999

[Metadata]
Title:Gotoubun no Katachi (TV Size)
TitleUnicode:五等分のカタチ (TV Size)
Artist:Nakanoke no Itsutsugo
ArtistUnicode:中野家の五つ子
Creator:BlackBq
Version:Fapu's Nakano Futsuu
Source:五等分の花嫁∬
Tags:Anime op opening season 2 season2 2nd japanese pop jpop j-pop The Quintessential Quintuplets Go-Toubun 5-toubun 5toubun 上杉 風太郎 Uesugi Futaro 松岡禎丞 Matsuoka Yoshitsugu 一花 Ichika 花澤香菜 Hanazawa Kana 二乃 Nino 竹達彩奈 Taketatsu Ayana 三玖 Miku 伊藤美来 Ito 四葉 Yotsuba 佐倉綾音 Sakura Ayane 五月 Itsuki 水瀬いのり Minase Inori Hanayome romantic comedy harem faputa
BeatmapID:2797006
BeatmapSetID:1350472

[Difficulty]
HPDrainRate:7
CircleSize:2
OverallDifficulty:4
ApproachRate:10
SliderMultiplier:1.4
SliderTickRate:1

[Events]
//Background and Video events
Video,-222,"gotoubun_2.mp4"
0,0,"Futsuu.jpg",0,120
//Break Periods
//Storyboard Layer 0 (Background)
//Storyboard Layer 1 (Fail)
//Storyboard Layer 2 (Pass)
//Storyboard Layer 3 (Foreground)
//Storyboard Layer 4 (Overlay)
//Storyboard Sound Samples

[TimingPoints]
77,379.746835443038,4,1,0,35,1,0
77,-100,4,1,0,35,0,0
6532,-100,4,1,0,42,0,0
7292,-100,4,1,0,50,0,0
13652,-100,4,1,0,60,0,0
16311,-100,4,1,0,70,0,0
19064,-100,4,1,0,73,0,0
19728,-100,4,1,0,75,0,0
31880,-100,4,1,0,65,0,0
36247,-100,4,1,0,70,0,0
44032,-100,4,1,0,65,0,0
56184,-100,4,1,0,75,0,0
58083,-100,4,1,0,55,0,0
58842,-100,4,1,0,65,0,0
59222,-100,4,1,0,80,0,0
59317,-100,4,1,0,80,0,1
70709,-100,4,1,0,80,0,0
71469,-100,4,1,0,80,0,1
86564,-100,4,1,0,70,0,1
86659,-100,4,1,0,70,0,0
86754,-100,4,1,0,60,0,0

[HitObjects]
256,192,77,5,0,0:0:0:0:
256,192,3114,1,8,0:0:0:0:
256,192,5963,8,0,7292,0:0:0:0:
256,192,7671,5,8,0:0:0:0:
256,192,8431,1,8,0:0:0:0:
256,192,9190,1,0,0:0:0:0:
256,192,9950,1,8,0:0:0:0:
256,192,10709,1,0,0:0:0:0:
256,192,11469,1,8,0:0:0:0:
256,192,12228,1,0,0:0:0:0:
256,192,12988,1,8,0:0:0:0:
256,192,13558,1,0,0:0:0:0:
256,192,13747,1,0,0:0:0:0:
256,192,14127,1,0,0:0:0:0:
256,192,14507,1,8,0:0:0:0:
256,192,15077,1,0,0:0:0:0:
256,192,15266,1,0,0:0:0:0:
256,192,15646,1,0,0:0:0:0:
256,192,16026,1,8,0:0:0:0:
256,192,16216,1,0,0:0:0:0:
256,192,16595,1,0,0:0:0:0:
256,192,16785,1,8,0:0:0:0:
256,192,17355,1,8,0:0:0:0:
256,192,17735,1,0,0:0:0:0:
256,192,17925,1,0,0:0:0:0:
256,192,18114,1,8,0:0:0:0:
256,192,18874,1,0,0:0:0:0:
256,192,19254,1,8,0:0:0:0:
256,192,19444,1,0,0:0:0:0:
256,192,19633,1,8,0:0:0:0:
256,192,19823,1,4,0:0:0:0:
256,192,20203,1,8,0:0:0:0:
256,192,20583,1,8,0:0:0:0:
256,192,21152,1,0,0:0:0:0:
256,192,21722,1,8,0:0:0:0:
256,192,22102,1,0,0:0:0:0:
256,192,22292,1,8,0:0:0:0:
256,192,22482,1,0,0:0:0:0:
256,192,22861,1,8,0:0:0:0:
256,192,23431,1,0,0:0:0:0:
256,192,23811,1,0,0:0:0:0:
256,192,24190,1,12,0:0:0:0:
256,192,24950,1,0,0:0:0:0:
256,192,25330,1,8,0:0:0:0:
256,192,25899,1,4,0:0:0:0:
256,192,26279,1,8,0:0:0:0:
256,192,26659,1,0,0:0:0:0:
256,192,27228,1,8,0:0:0:0:
256,192,27608,1,0,0:0:0:0:
256,192,27798,1,8,0:0:0:0:
256,192,28178,1,0,0:0:0:0:
256,192,28368,1,0,0:0:0:0:
256,192,28558,1,8,0:0:0:0:
256,192,28937,1,4,0:0:0:0:
256,192,29507,1,8,0:0:0:0:
256,192,29697,1,0,0:0:0:0:
256,192,30077,1,0,0:0:0:0:
256,192,30266,1,8,0:0:0:0:
256,192,30646,1,0,0:0:0:0:
256,192,30836,1,8,0:0:0:0:
256,192,31026,1,0,0:0:0:0:
256,192,31216,1,8,0:0:0:0:
256,192,31595,1,8,0:0:0:0:
256,192,31975,1,0,0:0:0:0:
256,192,32925,1,8,0:0:0:0:
256,192,33114,1,8,0:0:0:0:
256,192,33304,1,0,0:0:0:0:
256,192,34633,1,8,0:0:0:0:
256,192,35013,1,0,0:0:0:0:
256,192,35963,1,0,0:0:0:0:
256,192,36152,1,0,0:0:0:0:
256,192,36342,1,8,0:0:0:0:
256,192,36722,1,0,0:0:0:0:
256,192,36912,1,8,0:0:0:0:
256,192,37102,1,0,0:0:0:0:
256,192,37671,1,8,0:0:0:0:
256,192,37861,1,8,0:0:0:0:
256,192,38051,1,4,0:0:0:0:
256,192,38431,1,8,0:0:0:0:
256,192,38811,1,0,0:0:0:0:
256,192,39380,1,8,0:0:0:0:
256,192,39760,1,0,0:0:0:0:
256,192,40140,1,8,0:0:0:0:
256,192,40330,1,0,0:0:0:0:
256,192,40709,1,8,0:0:0:0:
256,192,40899,1,8,0:0:0:0:
256,192,41089,1,4,0:0:0:0:
256,192,41469,1,8,0:0:0:0:
256,192,41849,1,8,0:0:0:0:
256,192,42039,1,0,0:0:0:0:
256,192,42228,1,8,0:0:0:0:
256,192,42418,1,0,0:0:0:0:
256,192,42988,1,8,0:0:0:0:
256,192,43368,1,0,0:0:0:0:
256,192,43558,1,8,0:0:0:0:
256,192,43747,1,0,0:0:0:0:
256,192,44127,1,4,0:0:0:0:
256,192,44887,1,8,0:0:0:0:
256,192,45456,1,0,0:0:0:0:
256,192,45646,1,0,0:0:0:0:
256,192,46216,1,0,0:0:0:0:
256,192,46406,1,8,0:0:0:0:
256,192,46785,1,0,0:0:0:0:
256,192,47165,1,0,0:0:0:0:
256,192,47735,1,0,0:0:0:0:
256,192,47925,1,8,0:0:0:0:
256,192,48684,1,0,0:0:0:0:
256,192,49254,1,0,0:0:0:0:
256,192,49444,1,8,0:0:0:0:
256,192,49633,1,4,0:0:0:0:
256,192,50203,1,4,0:0:0:0:
256,192,50583,1,8,0:0:0:0:
256,192,50963,1,0,0:0:0:0:
256,192,51342,1,8,0:0:0:0:
256,192,51532,1,8,0:0:0:0:
256,192,52102,1,8,0:0:0:0:
256,192,52482,1,0,0:0:0:0:
256,192,52671,1,8,0:0:0:0:
256,192,52861,1,0,0:0:0:0:
256,192,53241,1,8,0:0:0:0:
256,192,53621,1,8,0:0:0:0:
256,192,53811,1,0,0:0:0:0:
256,192,54380,1,8,0:0:0:0:
256,192,54760,1,0,0:0:0:0:
256,192,54950,1,0,0:0:0:0:
256,192,55140,1,8,0:0:0:0:
256,192,55520,1,0,0:0:0:0:
256,192,56279,1,12,0:0:0:0:
256,192,56659,1,0,0:0:0:0:
256,192,57039,1,0,0:0:0:0:
256,192,57228,1,0,0:0:0:0:
256,192,57418,1,0,0:0:0:0:
256,192,57608,1,8,0:0:0:0:
256,192,58937,1,8,0:0:0:0:
256,192,59317,1,12,0:0:0:0:
256,192,59697,1,0,0:0:0:0:
256,192,60077,1,8,0:0:0:0:
256,192,60456,1,0,0:0:0:0:
256,192,60646,1,8,0:0:0:0:
256,192,61026,1,0,0:0:0:0:
256,192,61216,1,8,0:0:0:0:
256,192,61406,1,8,0:0:0:0:
256,192,61595,1,0,0:0:0:0:
256,192,61975,1,8,0:0:0:0:
256,192,62355,1,0,0:0:0:0:
256,192,62735,1,0,0:0:0:0:
256,192,63114,1,8,0:0:0:0:
256,192,63494,1,8,0:0:0:0:
256,192,63684,1,0,0:0:0:0:
256,192,64064,1,0,0:0:0:0:
256,192,64254,1,8,0:0:0:0:
256,192,64444,1,0,0:0:0:0:
256,192,64633,1,8,0:0:0:0:
256,192,65393,1,8,0:0:0:0:
256,192,65773,1,0,0:0:0:0:
256,192,66152,1,8,0:0:0:0:
256,192,66532,1,0,0:0:0:0:
256,192,66722,1,8,0:0:0:0:
256,192,67102,1,8,0:0:0:0:
256,192,67292,1,8,0:0:0:0:
256,192,67482,1,8,0:0:0:0:
256,192,67671,1,0,0:0:0:0:
256,192,68051,1,8,0:0:0:0:
256,192,68241,1,0,0:0:0:0:
256,192,68431,1,8,0:0:0:0:
256,192,69001,1,0,0:0:0:0:
256,192,69380,1,0,0:0:0:0:
256,192,69760,1,12,0:0:0:0:
256,192,70330,1,8,0:0:0:0:
256,192,70709,1,8,0:0:0:0:
256,192,70899,1,0,0:0:0:0:
256,192,71089,1,8,0:0:0:0:
256,192,71279,1,0,0:0:0:0:
256,192,71469,1,12,0:0:0:0:
256,192,71849,1,0,0:0:0:0:
256,192,72228,1,8,0:0:0:0:
256,192,72608,1,0,0:0:0:0:
256,192,72798,1,8,0:0:0:0:
256,192,73178,1,8,0:0:0:0:
256,192,73368,1,0,0:0:0:0:
256,192,73558,1,8,0:0:0:0:
256,192,73747,1,0,0:0:0:0:
256,192,74127,1,8,0:0:0:0:
256,192,74507,1,0,0:0:0:0:
256,192,74887,1,0,0:0:0:0:
256,192,75266,1,8,0:0:0:0:
256,192,75646,1,8,0:0:0:0:
256,192,75836,1,0,0:0:0:0:
256,192,76216,1,0,0:0:0:0:
256,192,76406,1,8,0:0:0:0:
256,192,76595,1,0,0:0:0:0:
256,192,77355,1,0,0:0:0:0:
256,192,77545,1,8,0:0:0:0:
256,192,77925,1,0,0:0:0:0:
256,192,78304,1,8,0:0:0:0:
256,192,78684,1,8,0:0:0:0:
256,192,78874,1,8,0:0:0:0:
256,192,79254,1,0,0:0:0:0:
256,192,79444,1,0,0:0:0:0:
256,192,79633,1,8,0:0:0:0:
256,192,80013,1,0,0:0:0:0:
256,192,80203,1,8,0:0:0:0:
256,192,80393,1,0,0:0:0:0:
256,192,80583,1,8,0:0:0:0:
256,192,81152,1,0,0:0:0:0:
256,192,81532,1,8,0:0:0:0:
256,192,81912,1,4,0:0:0:0:
256,192,82482,1,8,0:0:0:0:
256,192,82861,1,8,0:0:0:0:
256,192,83051,1,0,0:0:0:0:
256,192,83241,1,8,0:0:0:0:
256,192,83431,1,8,0:0:0:0:
256,192,83621,1,0,0:0:0:0:
256,192,84190,1,8,0:0:0:0:
256,192,84570,1,8,0:0:0:0:
256,192,84950,1,4,0:0:0:0:
256,192,85520,1,8,0:0:0:0:
256,192,85899,1,0,0:0:0:0:
256,192,86089,1,0,0:0:0:0:
256,192,86279,1,8,0:0:0:0:
256,192,86469,1,0,0:0:0:0:
256,192,86659,1,12,0:0:0:0:
256,192,86849,8,0,88368,0:0:0:0:
