osu file format v14

[General]
AudioFilename: audio.mp3
AudioLeadIn: 0
PreviewTime: 52360
Countdown: 0
SampleSet: Soft
StackLeniency: 0.7
Mode: 2
LetterboxInBreaks: 0
WidescreenStoryboard: 0

[Editor]
DistanceSpacing: 1.5
BeatDivisor: 8
GridSize: 8
TimelineZoom: 1.6

[Metadata]
Title:Gotoubun no Kimochi (TV Size)
TitleUnicode:五等分の気持ち (TV Size)
Artist:Nakanoka no Itsutsuko
ArtistUnicode:中野家の五つ子
Creator:Yumeno Himiko
Version:Rain
Source:五等分の花嫁
Tags:Go-toubun no Hanayome Gotoubun 花澤香菜 Hanazawa Kana 竹達彩奈 Taketatsu Ayana 伊藤美来 Itou Miku 佐倉綾音 Sakura Ayane 水瀬いのり Minase Inori
BeatmapID:1905500
BeatmapSetID:912149

[Difficulty]
HPDrainRate:6
CircleSize:4
OverallDifficulty:9
ApproachRate:9
SliderMultiplier:1.9
SliderTickRate:2

[Events]
//Background and Video events
0,0,"bg.jpg",0,0
//Break Periods
//Storyboard Layer 0 (Background)
//Storyboard Layer 1 (Fail)
//Storyboard Layer 2 (Pass)
//Storyboard Layer 3 (Foreground)
//Storyboard Sound Samples

[TimingPoints]
289,342.857142857143,4,2,0,60,1,0
16746,-83.3333333333333,4,2,0,60,0,0
27717,-100,4,2,0,60,0,0
52403,-83.3333333333333,4,2,0,60,0,1
57889,-100,4,2,0,60,0,0
63374,-83.3333333333333,4,2,0,60,0,1
68860,-100,4,2,0,60,0,1
71603,-83.3333333333333,4,2,0,60,0,1
74517,-100,4,2,0,60,0,1
75717,-83.3333333333333,4,2,0,60,0,0

[Colours]
Combo1 : 236,90,79
Combo2 : 240,142,238
Combo3 : 255,0,128
Combo4 : 168,17,70
Combo5 : 233,167,69

[HitObjects]
72,296,289,5,0,0:0:0:0:
472,168,974,1,0,0:0:0:0:
56,96,1660,5,0,0:0:0:0:
400,336,2346,1,0,0:0:0:0:
200,264,2689,1,0,0:0:0:0:
448,216,3031,5,0,0:0:0:0:
72,168,3717,1,0,0:0:0:0:
320,120,4060,1,0,0:0:0:0:
64,128,4403,5,0,0:0:0:0:
33,170,4489,1,0,0:0:0:0:
44,220,4574,1,0,0:0:0:0:
92,240,4660,1,0,0:0:0:0:
144,233,4746,1,0,0:0:0:0:
184,265,4831,1,0,0:0:0:0:
178,317,4917,1,0,0:0:0:0:
135,347,5003,1,0,0:0:0:0:
84,331,5089,5,0,0:0:0:0:
65,282,5174,1,0,0:0:0:0:
92,237,5260,1,0,0:0:0:0:
144,233,5346,1,0,0:0:0:0:
211,228,5431,1,0,0:0:0:0:
251,195,5517,1,0,0:0:0:0:
262,143,5603,1,0,0:0:0:0:
223,107,5689,1,0,0:0:0:0:
72,112,5774,6,0,P|32:184|112:232,1,190
248,264,6289,2,0,L|40:288,2,190
480,240,7146,6,0,P|480:168|376:112,1,190
248,104,7660,2,0,L|456:88,1,190
312,160,8174,2,0,L|304:48,1,95
72,320,8517,6,0,L|88:128,1,190
232,120,9031,2,0,P|288:152|224:240,1,190
96,264,9546,2,0,L|224:272,1,95
432,272,9889,6,0,L|440:160,1,95
296,184,10231,2,0,L|280:64,1,95
344,56,10489,1,0,0:0:0:0:
408,72,10574,1,0,0:0:0:0:
432,136,10660,1,0,0:0:0:0:
408,200,10746,1,0,0:0:0:0:
344,232,10831,1,0,0:0:0:0:
256,240,10917,1,0,0:0:0:0:
200,280,11003,1,0,0:0:0:0:
216,344,11089,1,0,0:0:0:0:
280,360,11174,1,0,0:0:0:0:
456,296,11260,6,0,L|440:88,1,190
296,120,11774,2,0,L|96:128,1,190
240,192,12289,2,0,L|352:200,1,95
104,304,12631,6,0,L|0:320,2,95
248,280,13146,2,0,L|256:176,1,95
112,168,13489,1,0,0:0:0:0:
368,112,13660,2,0,L|248:96,1,95
40,72,14003,6,0,L|48:192,1,95
304,192,14346,2,0,L|296:312,1,95
64,320,14689,2,0,L|160:304,1,95
408,160,15031,2,0,L|288:144,1,95
64,96,15374,5,0,0:0:0:0:
352,88,15717,2,0,L|344:192,1,95
112,272,16060,2,0,L|0:248,2,95
240,304,16574,1,0,0:0:0:0:
488,80,16746,6,0,L|368:96,2,113.999996520996
256,80,17260,2,0,P|176:88|96:216,1,227.999993041992
264,200,17774,1,0,0:0:0:0:
120,296,17946,6,0,P|56:288|88:160,1,227.999993041992
248,152,18460,2,0,L|256:32,1,113.999996520996
88,48,18803,1,0,0:0:0:0:
352,48,18974,2,0,L|480:48,1,113.999996520996
312,120,19317,2,0,L|248:120,1,56.9999982604981
432,120,19489,6,0,L|448:256,1,113.999996520996
272,240,19831,1,0,0:0:0:0:
104,240,20003,2,0,L|336:240,1,227.999993041992
160,240,20517,1,0,0:0:0:0:
432,240,20689,6,0,P|456:184|328:104,1,227.999993041992
480,64,21203,1,0,0:0:0:0:
192,64,21374,2,0,P|128:88|208:184,1,227.999993041992
368,184,21889,1,0,0:0:0:0:
304,208,21974,1,0,0:0:0:0:
240,232,22060,1,0,0:0:0:0:
304,272,22146,1,0,0:0:0:0:
464,320,22231,6,0,L|480:184,1,113.999996520996
312,160,22574,2,0,L|192:120,1,113.999996520996
368,72,22917,1,0,0:0:0:0:
240,184,23089,2,0,L|384:176,1,113.999996520996
104,192,23431,1,0,0:0:0:0:
240,184,23603,6,0,L|248:328,1,113.999996520996
72,304,23946,2,0,L|56:160,1,113.999996520996
224,144,24289,2,0,L|368:120,1,113.999996520996
168,104,24631,1,0,0:0:0:0:
123,134,24716,1,0,0:0:0:0:
133,187,24802,1,0,0:0:0:0:
186,199,24888,1,0,0:0:0:0:
360,312,24974,6,0,L|376:184,1,113.999996520996
200,224,25317,2,0,L|184:80,1,113.999996520996
392,80,25660,1,0,0:0:0:0:
104,320,25831,1,0,0:0:0:0:
98,263,25916,1,0,0:0:0:0:
92,206,26002,1,0,0:0:0:0:
424,176,26174,1,0,0:0:0:0:
256,184,26517,6,0,L|248:112,1,56.9999982604981
416,72,26689,2,0,P|480:128|320:280,1,341.999989562989
184,256,27374,1,0,0:0:0:0:
336,192,27546,2,0,L|344:112,1,56.9999982604981
88,88,27717,5,0,0:0:0:0:
200,176,27889,2,0,L|64:192,2,95
88,264,28403,2,0,L|80:144,1,95
224,152,28746,2,0,L|232:32,1,95
56,312,29089,6,0,L|264:320,1,190
392,328,29603,1,0,0:0:0:0:
264,272,29774,2,0,L|256:168,1,95
408,104,30117,2,0,L|416:224,1,95
224,288,30460,5,0,0:0:0:0:
368,288,30631,1,0,0:0:0:0:
208,288,30803,2,0,P|160:240|208:200,1,142.5
304,192,31146,2,0,P|368:128|304:72,1,190
136,88,31660,6,0,L|344:80,1,190
208,160,32174,1,0,0:0:0:0:
352,160,32346,2,0,P|408:200|336:280,1,190
280,304,32774,1,0,0:0:0:0:
208,320,32860,1,0,0:0:0:0:
352,344,33031,1,0,0:0:0:0:
208,320,33203,5,0,0:0:0:0:
376,320,33374,2,0,L|384:192,1,95
240,208,33717,1,0,0:0:0:0:
64,184,33889,1,0,0:0:0:0:
208,160,34060,1,0,0:0:0:0:
64,152,34231,1,0,0:0:0:0:
208,128,34403,6,0,L|416:120,1,190
264,176,34917,1,0,0:0:0:0:
408,176,35089,2,0,P|448:224|352:288,1,190
232,288,35603,2,0,L|224:168,1,95
360,152,35946,6,0,L|480:128,1,95
312,112,36289,2,0,L|200:96,1,95
360,80,36631,1,0,0:0:0:0:
216,80,36803,1,0,0:0:0:0:
192,144,36889,1,0,0:0:0:0:
168,208,36974,1,0,0:0:0:0:
312,208,37146,6,0,P|368:224|312:312,1,190
184,312,37660,1,0,0:0:0:0:
328,312,37831,2,0,L|96:288,1,190
280,264,38346,1,0,0:0:0:0:
336,224,38431,1,0,0:0:0:0:
344,152,38517,1,0,0:0:0:0:
288,104,38603,1,0,0:0:0:0:
128,104,38689,6,0,P|72:128|136:208,1,190
272,192,39203,1,0,0:0:0:0:
136,320,39374,2,0,L|128:208,1,95
272,208,39717,2,0,L|136:224,1,95
352,232,40060,6,0,L|360:120,1,95
216,112,40403,1,0,0:0:0:0:
392,72,40574,2,0,P|440:96|368:192,1,190
248,200,41089,2,0,L|368:208,1,95
112,320,41431,6,0,P|40:304|64:192,1,190
176,152,41946,1,0,0:0:0:0:
360,112,42117,2,0,L|256:104,1,95
400,64,42460,2,0,L|496:56,1,95
248,64,42803,6,0,P|200:88|264:184,1,190
392,208,43317,2,0,L|184:240,1,190
344,280,43831,2,0,L|360:160,1,95
112,256,44174,6,0,P|64:224|136:104,1,190
376,104,44860,2,0,L|152:128,1,190
312,160,45374,1,0,0:0:0:0:
472,184,45546,6,0,L|336:200,2,95
192,216,46231,1,0,0:0:0:0:
472,184,46574,2,0,L|496:64,1,95
224,72,46917,6,0,L|112:64,1,95
272,80,47260,2,0,L|256:192,1,95
104,272,47603,2,0,L|208:256,2,95
248,296,48117,1,0,0:0:0:0:
480,296,48289,6,0,L|496:184,1,95
352,168,48631,2,0,L|224:144,1,95
392,96,48974,1,0,0:0:0:0:
256,248,49146,2,0,L|376:232,1,95
216,192,49489,1,0,0:0:0:0:
376,152,49660,5,0,0:0:0:0:
424,200,49746,1,0,0:0:0:0:
408,272,49831,1,0,0:0:0:0:
336,288,49917,1,0,0:0:0:0:
256,288,50003,1,0,0:0:0:0:
208,232,50089,1,0,0:0:0:0:
224,160,50174,1,0,0:0:0:0:
296,144,50260,1,0,0:0:0:0:
368,136,50346,5,0,0:0:0:0:
296,120,50431,1,0,0:0:0:0:
224,104,50517,1,0,0:0:0:0:
296,96,50603,1,0,0:0:0:0:
368,88,50689,1,0,0:0:0:0:
296,72,50774,1,0,0:0:0:0:
144,40,50860,1,0,0:0:0:0:
368,296,51374,6,0,P|400:224|328:192,1,142.5
216,184,51717,2,0,L|184:80,1,95
368,80,52060,5,0,0:0:0:0:
388,93,52089,1,0,0:0:0:0:
407,106,52117,1,0,0:0:0:0:
420,126,52146,1,0,0:0:0:0:
426,148,52174,1,0,0:0:0:0:
424,172,52203,1,0,0:0:0:0:
411,191,52231,1,0,0:0:0:0:
391,205,52260,1,0,0:0:0:0:
368,213,52289,1,0,0:0:0:0:
344,214,52317,1,0,0:0:0:0:
120,208,52403,6,0,P|48:240|120:328,1,227.999993041992
288,328,52917,2,0,P|328:272|200:216,1,227.999993041992
368,176,53431,2,0,L|464:112,1,113.999996520996
200,64,53774,6,0,L|64:56,2,113.999996520996
368,96,54289,2,0,L|128:120,1,227.999993041992
312,208,54803,1,0,0:0:0:0:
192,248,54974,2,0,L|136:224,1,56.9999982604981
352,128,55146,6,0,P|408:152|336:280,1,227.999993041992
200,240,55660,2,0,P|136:288|248:360,1,227.999993041992
384,360,56174,1,0,0:0:0:0:
200,232,56346,1,0,0:0:0:0:
472,112,56517,6,0,L|336:128,2,113.999996520996
280,88,57031,2,0,L|40:72,1,227.999993041992
208,144,57546,1,0,0:0:0:0:
336,184,57717,2,0,L|272:192,1,56.9999982604981
88,192,57889,6,0,P|32:256|112:312,1,190
216,304,58403,1,0,0:0:0:0:
392,280,58574,2,0,L|400:176,1,95
248,160,58917,2,0,L|120:144,1,95
400,64,59260,6,0,L|504:56,2,95
256,80,59774,1,0,0:0:0:0:
384,264,59946,2,0,L|392:136,1,95
216,144,60289,2,0,L|112:128,1,95
440,64,60631,6,0,P|480:96|400:184,1,190
272,216,61146,1,0,0:0:0:0:
128,240,61317,1,0,0:0:0:0:
280,264,61489,1,0,0:0:0:0:
327,267,61574,1,0,0:0:0:0:
374,271,61660,1,0,0:0:0:0:
208,288,61831,1,0,0:0:0:0:
448,232,62003,6,0,L|456:96,1,95
208,120,62346,2,0,L|96:96,1,95
184,88,62603,1,0,0:0:0:0:
376,64,62689,2,0,L|488:48,1,95
400,40,62946,1,0,0:0:0:0:
232,48,63031,1,0,0:0:0:0:
176,96,63117,1,0,0:0:0:0:
200,168,63203,1,0,0:0:0:0:
272,176,63289,1,0,0:0:0:0:
472,272,63374,6,0,L|232:296,1,227.999993041992
416,320,63889,1,0,0:0:0:0:
264,328,64060,2,0,L|248:184,1,113.999996520996
408,208,64403,2,0,L|424:80,1,113.999996520996
160,80,64746,6,0,P|56:104|24:224,1,227.999993041992
192,200,65260,2,0,P|272:224|200:312,1,227.999993041992
40,304,65774,2,0,L|32:168,1,113.999996520996
104,184,66031,1,0,0:0:0:0:
280,176,66117,6,0,P|344:160|272:72,1,227.999993041992
104,88,66631,2,0,L|336:72,1,227.999993041992
184,160,67146,2,0,L|176:32,1,113.999996520996
440,272,67489,6,0,L|320:280,2,113.999996520996
296,248,68003,2,0,P|224:192|320:128,1,227.999993041992
472,120,68517,2,0,L|480:0,1,113.999996520996
408,8,68774,1,0,0:0:0:0:
224,24,68860,6,0,P|168:56|232:144,1,190
360,160,69374,1,0,0:0:0:0:
216,168,69546,2,0,L|80:176,1,95
264,200,69889,2,0,L|368:208,1,95
120,304,70231,6,0,P|56:264|128:192,1,190
256,176,70746,1,0,0:0:0:0:
136,160,70917,2,0,L|128:48,1,95
272,56,71260,2,0,L|160:72,1,95
440,272,71603,6,0,L|312:264,2,113.999996520996
72,272,72117,6,0,L|200:264,2,113.999996520996
464,120,72631,6,0,L|328:120,2,113.999996520996
48,120,73146,6,0,L|184:120,2,113.999996520996
472,312,73660,6,0,L|336:312,1,113.999996520996
424,264,73917,1,0,0:0:0:0:
496,216,74003,1,0,0:0:0:0:
256,192,74174,1,0,0:0:0:0:
408,192,74517,6,0,L|416:64,1,95
272,104,74860,1,0,0:0:0:0:
416,112,75031,1,0,0:0:0:0:
464,168,75117,1,0,0:0:0:0:
440,240,75203,1,0,0:0:0:0:
368,256,75289,1,0,0:0:0:0:
200,248,75374,2,0,P|160:200|224:144,1,142.5
400,72,75717,6,0,L|272:88,1,113.999996520996
120,104,76060,1,0,0:0:0:0:
288,144,76231,2,0,P|392:160|456:272,1,227.999993041992
296,328,76746,1,0,0:0:0:0:
48,320,76917,6,0,P|40:240|176:184,1,227.999993041992
440,128,77431,1,0,0:0:0:0:
304,128,77603,2,0,P|376:144|336:264,1,227.999993041992
176,272,78117,2,0,P|136:216|160:168,1,113.999996520996
208,128,78374,1,0,0:0:0:0:
384,104,78460,6,0,L|504:88,1,113.999996520996
216,312,78803,2,0,L|72:304,1,113.999996520996
184,272,79060,1,0,0:0:0:0:
336,224,79146,2,0,L|464:200,2,113.999996520996
80,104,79660,6,0,P|56:168|176:256,1,227.999993041992
440,224,80174,1,0,0:0:0:0:
304,216,80346,2,0,P|448:168|464:104,1,227.999993041992
128,104,80860,2,0,P|104:176|136:208,1,113.999996520996
192,232,81117,1,0,0:0:0:0:
384,304,81203,6,0,L|400:176,1,113.999996520996
224,168,81546,2,0,L|200:32,1,113.999996520996
288,48,81803,1,0,0:0:0:0:
440,64,81889,2,0,L|304:88,1,113.999996520996
160,112,82231,1,0,0:0:0:0:
304,200,82403,2,0,L|384:224,1,56.9999982604981
176,264,82574,6,0,L|24:288,2,113.999996520996
344,240,83089,2,0,P|336:168|176:120,1,227.999993041992
376,88,83603,2,0,L|496:72,1,113.999996520996
128,328,83946,6,0,L|120:192,1,113.999996520996
384,136,84289,1,0,0:0:0:0:
216,160,84460,1,0,0:0:0:0:
448,304,84631,2,0,L|456:168,1,113.999996520996
368,176,84889,1,0,0:0:0:0:
96,128,84974,2,0,L|224:120,1,113.999996520996
472,104,85489,5,0,0:0:0:0:
152,272,85660,1,0,0:0:0:0:
288,272,85831,2,0,P|192:248|144:136,1,227.999993041992
400,80,86346,2,0,P|432:128|400:184,1,113.999996520996
344,232,86603,1,0,0:0:0:0:
128,240,86689,5,0,0:0:0:0:
81,210,86774,1,0,0:0:0:0:
75,155,86860,1,0,0:0:0:0:
114,115,86946,1,0,0:0:0:0:
344,88,87031,1,0,0:0:0:0:
256,192,87203,12,0,87889,0:0:0:0:
