osu file format v14

[General]
AudioFilename: audio.mp3
AudioLeadIn: 0
PreviewTime: 61083
Countdown: 0
SampleSet: Soft
StackLeniency: 0.7
Mode: 2
LetterboxInBreaks: 0
WidescreenStoryboard: 1

[Editor]
Bookmarks: 2006,16775,31544,46313,61083,75852
DistanceSpacing: 1.2
BeatDivisor: 4
GridSize: 4
TimelineZoom: 2.3

[Metadata]
Title:Honeyginger (osu! edit)
TitleUnicode:Honeyginger (osu! edit)
Artist:Nakanojojo
ArtistUnicode:中野ジョジョ
Creator:JBHyperion
Version:Sweet Spice
Source:osu!
Tags:Yunomi electronic electro house instrumental short cut version featured artist mappers guild jbh hyperion
BeatmapID:2191450
BeatmapSetID:1048445

[Difficulty]
HPDrainRate:7
CircleSize:2
OverallDifficulty:9.5
ApproachRate:9.5
SliderMultiplier:2.6
SliderTickRate:2

[Events]
//Background and Video events
0,0,"bg.jpg",0,0
//Break Periods
//Storyboard Layer 0 (Background)
//Storyboard Layer 1 (Fail)
//Storyboard Layer 2 (Pass)
//Storyboard Layer 3 (Foreground)
//Storyboard Layer 4 (Overlay)
//Storyboard Sound Samples

[TimingPoints]
160,461.538461538462,4,2,77,100,1,0
1544,-29.4117647058824,4,2,77,100,0,0
1775,-29.4117647058824,4,2,77,30,0,0
1890,-100,4,2,77,100,0,0
2006,-80,4,2,1,100,0,1
2236,-80,4,3,1,80,0,1
2467,-80,4,2,1,100,0,1
2583,-80,4,3,1,100,0,1
2929,-80,4,2,1,100,0,1
3160,-80,4,3,1,100,0,1
3390,-40,4,2,1,100,0,1
3621,-80,4,2,1,100,0,1
4083,-80,4,3,1,80,0,1
4314,-80,4,2,1,100,0,1
4429,-80,4,3,1,100,0,1
4775,-80,4,2,1,100,0,1
5006,-80,4,3,1,100,0,1
5236,-80,4,2,1,100,0,1
5929,-80,4,3,1,80,0,1
6160,-80,4,2,1,100,0,1
6275,-80,4,3,1,100,0,1
6621,-80,4,2,1,100,0,1
6852,-80,4,3,1,100,0,1
7083,-40,4,2,1,100,0,1
7313,-80,4,2,1,100,0,1
7775,-80,4,3,1,100,0,1
7890,-80,4,2,1,100,0,1
8121,-80,4,3,1,100,0,1
8236,-80,4,2,1,100,0,1
8352,-100,4,3,1,80,0,1
8467,-100,4,2,1,100,0,1
8929,-80,4,3,1,60,0,1
9390,-80,4,2,1,100,0,1
9621,-80,4,3,1,80,0,1
9736,-80,4,2,1,100,0,1
9967,-80,4,3,1,100,0,1
10313,-80,4,2,1,100,0,1
10544,-80,4,3,1,100,0,1
10775,-33.3333333333333,4,2,1,100,0,1
11006,-80,4,2,1,100,0,1
11467,-80,4,3,1,80,0,1
11698,-80,4,2,1,100,0,1
11813,-80,4,3,1,100,0,1
11929,-40,4,2,1,100,0,1
12390,-80,4,3,1,100,0,1
12621,-80,4,2,1,100,0,1
13313,-80,4,3,1,80,0,1
13544,-80,4,2,1,100,0,1
13660,-57.1428571428571,4,3,1,100,0,1
14006,-80,4,2,1,100,0,1
14236,-80,4,3,1,100,0,1
14467,-33.3333333333333,4,2,1,100,0,1
14698,-80,4,2,1,100,0,1
15160,-80,4,3,1,100,0,1
15390,-80,4,2,1,100,0,1
15506,-80,4,3,1,100,0,1
15852,-80,4,2,1,100,0,1
16083,-80,4,3,1,70,0,1
16313,-80,4,3,1,70,0,1
16775,-100,4,2,1,80,0,0
17813,-100,4,3,1,50,0,0
18160,-100,4,2,1,80,0,0
19544,-100,4,3,1,30,0,0
19660,-100,4,3,1,40,0,0
19775,-100,4,3,1,50,0,0
20006,-100,4,2,1,80,0,0
20236,-100,4,3,1,80,0,0
20352,-100,4,2,1,80,0,0
20467,-50,4,2,1,80,0,0
20698,-100,4,2,1,80,0,0
21506,-100,4,3,1,50,0,0
21852,-100,4,2,1,80,0,0
22313,-100,4,2,1,70,0,0
22775,-41.6666666666667,4,2,1,80,0,0
23236,-26.3157894736842,4,2,1,90,0,0
23698,-100,4,3,1,70,0,0
23929,-100,4,2,1,70,0,0
24390,-100,4,3,1,40,0,0
24621,-100,4,2,1,70,0,0
24852,-100,4,3,1,40,0,0
25083,-100,4,2,1,70,0,0
25198,-100,4,3,1,50,0,0
25544,-100,4,2,1,70,0,0
26236,-100,4,3,1,30,0,0
26467,-100,4,2,1,70,0,0
26698,-100,4,3,1,30,0,0
26929,-100,4,3,1,50,0,0
27160,-100,4,3,1,40,0,0
27275,-100,4,2,1,70,0,0
27506,-100,4,3,1,50,0,0
27852,-100,4,2,1,70,0,0
28083,-100,4,3,1,40,0,0
28313,-100,4,2,1,70,0,0
28544,-100,4,3,1,40,0,0
28774,-100,4,2,1,70,0,0
28890,-100,4,3,1,50,0,0
29236,-100,4,2,1,70,0,0
29929,-100,4,3,1,50,0,0
30159,-100,4,2,1,70,0,0
30390,-66.6666666666667,4,3,1,60,0,0
30621,-66.6666666666667,4,2,1,80,0,0
30852,-100,4,3,1,60,0,0
31313,-100,4,3,1,50,0,0
31544,-100,4,2,2,60,0,0
32006,-66.6666666666667,4,2,2,70,0,0
32467,-100,4,2,2,80,0,0
32698,-100,4,3,1,40,0,0
32929,-100,4,2,2,80,0,0
33044,-100,4,3,1,40,0,0
33390,-100,4,2,2,80,0,0
33852,-100,4,2,2,60,0,0
34083,-100,4,2,2,80,0,0
34544,-100,4,3,1,40,0,0
34775,-100,4,2,2,80,0,0
35006,-100,4,3,1,40,0,0
35236,-100,4,2,2,80,0,0
36390,-100,4,3,1,50,0,0
36621,-100,4,2,2,80,0,0
36852,-100,4,3,1,50,0,0
37083,-100,4,2,2,80,0,0
37544,-100,4,2,2,60,0,0
37775,-100,4,2,2,80,0,0
38698,-100,4,3,1,50,0,0
38929,-100,4,2,2,60,0,0
39160,-100,4,2,2,80,0,0
39390,-66.6666666666667,4,2,1,80,0,0
39621,-100,4,2,1,80,0,0
40083,-100,4,3,1,50,0,0
40313,-100,4,2,1,80,0,0
41929,-100,4,3,1,60,0,0
42160,-100,4,2,1,80,0,0
44698,-100,4,2,3,70,0,0
45160,-100,4,2,3,60,0,0
45390,-100,4,2,1,40,0,0
45852,-33.3333333333333,4,2,77,80,0,0
46313,-100,4,2,1,60,0,0
46544,-100,4,2,1,80,0,0
47006,-100,4,3,1,60,0,0
47236,-100,4,2,1,80,0,0
47352,-100,4,3,1,70,0,0
47467,-100,4,2,1,80,0,0
47929,-100,4,3,1,60,0,0
48160,-100,4,2,1,80,0,0
48852,-66.6666666666667,4,3,1,60,0,0
49083,-100,4,2,1,80,0,0
49198,-100,4,3,1,60,0,0
49544,-100,4,2,1,80,0,0
49660,-100,4,3,1,60,0,0
50006,-40,4,2,1,80,0,0
50467,-66.6666666666667,4,2,1,80,0,0
50698,-66.6666666666667,4,3,1,60,0,0
50928,-100,4,2,1,80,0,0
51044,-66.6666666666667,4,3,1,70,0,0
51160,-66.6666666666667,4,2,1,80,0,0
51275,-100,4,2,1,80,0,0
51506,-100,4,3,1,60,0,0
51852,-75.187969924812,4,2,1,80,0,0
52083,-100,4,2,1,80,0,0
52429,-100,4,3,1,60,0,0
52775,-100,4,2,1,80,0,0
53236,-100,4,3,1,50,0,0
53467,-100,4,3,1,40,0,0
53698,-75.187969924812,4,2,1,60,0,0
53929,-100,4,2,1,80,0,0
54390,-100,4,3,1,60,0,0
54620,-100,4,2,1,80,0,0
54736,-100,4,3,1,70,0,0
54852,-100,4,2,1,80,0,0
55198,-100,4,3,1,60,0,0
55544,-100,4,2,1,80,0,0
56352,-100,4,3,1,60,0,0
56467,-100,4,2,1,80,0,0
56583,-100,4,3,1,60,0,0
56929,-100,4,2,1,80,0,0
57044,-100,4,3,1,60,0,0
57390,-40,4,2,1,80,0,0
57736,-100,4,2,1,80,0,0
58083,-100,4,3,1,70,0,0
58313,-100,4,2,1,80,0,0
58429,-100,4,3,1,60,0,0
58775,-100,4,2,1,80,0,0
58890,-100,4,3,1,60,0,0
59236,-100,4,2,1,80,0,0
59929,-100,4,3,1,60,0,0
61083,-66.6666666666667,4,2,1,100,0,1
61313,-66.6666666666667,4,3,1,80,0,1
61544,-66.6666666666667,4,2,1,100,0,1
61660,-66.6666666666667,4,3,1,80,0,1
62006,-66.6666666666667,4,2,1,100,0,1
62236,-66.6666666666667,4,3,1,80,0,1
62467,-33.3333333333333,4,2,1,100,0,1
62698,-66.6666666666667,4,2,1,100,0,1
63160,-66.6666666666667,4,3,1,80,0,1
63391,-66.6666666666667,4,2,1,100,0,1
63506,-66.6666666666667,4,3,1,80,0,1
63621,-66.6666666666667,4,2,1,100,0,1
63736,-66.6666666666667,4,3,1,80,0,1
63852,-66.6666666666667,4,2,1,100,0,1
64083,-66.6666666666667,4,3,1,80,0,1
64313,-57.1428571428571,4,2,1,100,0,1
64544,-66.6666666666667,4,2,1,100,0,1
65006,-66.6666666666667,4,3,1,80,0,1
65236,-66.6666666666667,4,2,1,100,0,1
65352,-66.6666666666667,4,3,1,80,0,1
65698,-66.6666666666667,4,2,1,100,0,1
65929,-66.6666666666667,4,3,1,80,0,1
66160,-33.3333333333333,4,2,1,100,0,1
66390,-66.6666666666667,4,2,1,100,0,1
66852,-66.6666666666667,4,3,1,80,0,1
67082,-66.6666666666667,4,2,1,100,0,1
67198,-66.6666666666667,4,3,1,80,0,1
67428,-66.6666666666667,4,2,1,100,0,1
67775,-66.6666666666667,4,3,1,80,0,1
68006,-66.6666666666667,4,3,1,60,0,1
68467,-33.3333333333333,4,2,1,100,0,1
68698,-66.6666666666667,4,2,1,100,0,1
69044,-66.6666666666667,4,3,1,80,0,1
69390,-66.6666666666667,4,2,1,100,0,1
69621,-66.6666666666667,4,3,1,80,0,1
69852,-33.3333333333333,4,2,1,100,0,1
70083,-66.6666666666667,4,2,1,100,0,1
70544,-66.6666666666667,4,3,1,80,0,1
70774,-66.6666666666667,4,2,1,100,0,1
70890,-66.6666666666667,4,3,1,80,0,1
71120,-66.6666666666667,4,2,1,100,0,1
71467,-66.6666666666667,4,3,1,80,0,1
71697,-66.6666666666667,4,2,1,100,0,1
71929,-66.6666666666667,4,3,1,80,0,1
72159,-66.6666666666667,4,2,1,100,0,1
72390,-66.6666666666667,4,3,1,80,0,1
72620,-66.6666666666667,4,2,1,100,0,1
72736,-66.6666666666667,4,3,1,80,0,1
73083,-66.6666666666667,4,2,1,100,0,1
73313,-66.6666666666667,4,3,1,80,0,1
73544,-28.5714285714286,4,2,1,100,0,1
73775,-66.6666666666667,4,2,1,100,0,1
74236,-66.6666666666667,4,3,1,80,0,1
74352,-66.6666666666667,4,2,1,100,0,1
74698,-66.6666666666667,4,3,1,80,0,1
74928,-66.6666666666667,4,2,1,100,0,1
75160,-66.6666666666667,4,3,1,100,0,1
75390,-66.6666666666667,4,2,1,100,0,1
75794,-66.6666666666667,4,3,1,60,0,0
76775,-100,4,2,77,50,0,0
77236,-100,4,2,1,45,0,0
77698,-100,4,2,1,42,0,0
78159,-100,4,2,1,39,0,0
78621,-100,4,2,1,36,0,0
79082,-100,4,2,1,33,0,0
79544,-100,4,2,1,30,0,0
80006,-100,4,2,1,27,0,0
80467,-100,4,2,1,24,0,0
80929,-100,4,2,1,21,0,0
81390,-100,4,2,1,18,0,0
81852,-100,4,2,1,16,0,0
82313,-100,4,2,1,14,0,0
82775,-100,4,2,1,12,0,0
83236,-100,4,2,1,10,0,0
84160,-100,4,2,1,8,0,0
85083,-100,4,2,1,7,0,0
86006,-100,4,2,1,6,0,0
86929,-100,4,2,1,5,0,0

[Colours]
Combo1 : 255,220,130
Combo2 : 55,55,255
Combo3 : 255,200,55
Combo4 : 140,140,255

[HitObjects]
484,288,1544,6,0,B|292:288|292:288|44:288|44:288|44:64,1,663.000012645722,4|0,0:0|0:0,0:0:0:0:
304,64,2006,6,0,L|468:64,1,162.5,6|2,0:0|0:0,0:0:0:0:
140,64,2467,1,8,0:0:0:0:
372,64,2583,2,0,P|424:120|372:172,1,162.5,2|2,0:0|0:0,0:0:0:0:
128,172,2929,2,0,L|124:264,1,81.25,2|0,0:0|0:0,0:0:0:0:
272,256,3160,2,0,L|356:256,1,81.25,2|0,0:0|0:0,0:0:0:0:
112,172,3390,2,0,L|440:172,1,325,8|2,0:0|0:0,0:0:0:0:
44,172,3852,6,0,L|40:8,1,162.5,2|2,0:0|0:0,0:0:0:0:
368,8,4313,1,8,0:0:0:0:
144,8,4429,2,0,P|92:64|144:116,1,162.5,2|2,0:0|0:0,0:0:0:0:
388,116,4775,1,2,0:0:0:0:
140,115,4890,1,8,0:0:0:0:
264,116,5006,1,2,0:0:0:0:
388,116,5121,1,2,0:0:0:0:
96,116,5236,2,0,L|96:280,1,162.5,8|2,0:0|0:0,0:0:0:0:
424,280,5698,5,2,0:0:0:0:
48,280,5929,1,2,0:0:0:0:
48,280,6160,1,8,0:0:0:0:
293,280,6275,2,0,P|345:224|293:172,1,162.5,2|2,0:0|0:0,0:0:0:0:
52,172,6621,2,0,L|48:80,1,81.25,2|0,0:0|0:0,0:0:0:0:
193,88,6852,2,0,L|112:88,1,81.25,2|2,0:0|0:0,0:0:0:0:
354,90,7083,2,0,L|26:90,1,325,8|2,0:0|0:0,0:0:0:0:
436,88,7544,6,0,L|440:176,1,81.25,8|0,0:0|0:0,0:0:0:0:
196,192,7775,2,0,L|192:284,1,81.25,2|0,0:0|0:0,0:0:0:0:
440,168,8006,1,8,0:0:0:0:
112,192,8121,1,2,0:0:0:0:
112,96,8236,1,0,0:0:0:0:
212,96,8352,1,2,0:0:0:0:
456,96,8467,2,0,L|348:96,1,81.25,8|2,0:0|0:0,0:0:0:0:
224,96,8698,2,0,L|308:96,1,81.25,2|0,0:0|0:0,0:0:0:0:
112,96,8929,1,8,0:0:0:0:
305,96,9044,1,8,0:0:0:0:
496,96,9160,1,8,0:0:0:0:
304,96,9275,1,8,0:0:0:0:
60,96,9390,6,0,L|52:264,1,162.5,6|2,0:0|0:0,0:0:0:0:
152,260,9736,1,0,0:0:0:0:
384,260,9852,1,8,0:0:0:0:
140,260,9967,2,0,P|96:184|144:156,1,162.5,2|2,0:0|0:0,0:0:0:0:
384,152,10313,2,0,L|468:152,1,81.25,2|0,0:0|0:0,0:0:0:0:
316,32,10544,2,0,L|312:116,1,81.25,2|2,0:0|0:0,0:0:0:0:
59,152,10775,2,0,L|452:152,1,390.00001487732,8|2,0:0|0:0,0:0:0:0:
73,28,11236,6,0,L|70:196,1,162.5,2|2,0:0|0:0,0:0:0:0:
430,192,11698,1,8,0:0:0:0:
206,192,11813,2,0,L|202:108,1,81.25,2|0,0:0|0:0,0:0:0:0:
430,192,12044,1,8,0:0:0:0:
236,192,12160,1,0,0:0:0:0:
430,192,12275,1,8,0:0:0:0:
236,192,12390,1,2,0:0:0:0:
40,196,12506,1,2,0:0:0:0:
268,192,12621,2,0,L|448:192,1,162.5,8|2,0:0|0:0,0:0:0:0:
88,192,13083,5,2,0:0:0:0:
431,192,13313,1,2,0:0:0:0:
431,192,13544,1,8,0:0:0:0:
186,192,13660,2,0,P|104:136|186:84,1,227.500002169609,2|2,0:0|0:0,0:0:0:0:
427,84,14006,2,0,L|343:84,1,81.25,2|2,0:0|0:0,0:0:0:0:
199,84,14236,2,0,L|280:84,1,81.25,2|2,0:0|0:0,0:0:0:0:
37,86,14467,2,0,L|426:84,1,390.00001487732,8|2,0:0|0:0,0:0:0:0:
84,84,14929,6,0,L|252:84,1,162.5,8|2,0:0|0:0,0:0:0:0:
344,84,15275,1,0,0:0:0:0:
100,84,15390,1,8,0:0:0:0:
328,84,15506,2,0,L|332:172,1,81.25,2|0,0:0|0:0,0:0:0:0:
192,168,15736,1,2,0:0:0:0:
428,164,15852,2,0,L|432:252,1,81.25,8|0,0:0|0:0,0:0:0:0:
204,288,16083,2,0,L|116:288,1,81.25,2|2,0:0|0:0,0:0:0:0:
364,244,16313,1,8,0:0:0:0:
240,244,16429,1,8,0:0:0:0:
352,244,16544,2,0,L|356:344,1,81.25,2|0,0:0|0:0,0:0:0:0:
81,40,16775,6,0,B|17:40|17:40|85:40,1,130,6|0,0:0|0:0,0:0:0:0:
161,40,17121,1,0,0:0:0:0:
357,40,17236,2,0,L|361:172,1,130,8|0,0:0|0:0,0:0:0:0:
228,192,17698,1,2,0:0:0:0:
358,192,17813,1,2,0:0:0:0:
488,192,17929,1,2,0:0:0:0:
152,192,18160,1,8,0:0:0:0:
284,192,18390,2,0,L|288:256,1,65
52,256,18621,6,0,L|184:256,1,130,2|0,0:0|0:0,0:0:0:0:
260,256,18967,1,0,0:0:0:0:
456,256,19083,1,8,0:0:0:0:
220,256,19313,1,0,0:0:0:0:
352,192,19544,1,2,0:0:0:0:
228,192,19660,1,2,0:0:0:0:
104,192,19775,1,2,0:0:0:0:
472,192,20006,1,8,0:0:0:0:
352,192,20236,1,2,0:0:0:0:
472,192,20352,1,8,0:0:0:0:
228,192,20467,6,0,B|100:192|100:192|100:60,1,260,2|0,0:0|0:0,0:0:0:0:
192,60,20813,1,0,0:0:0:0:
400,60,20929,1,8,0:0:0:0:
180,60,21160,1,0,0:0:0:0:
336,160,21390,2,0,L|272:160,1,65,2|2,0:0|0:0,0:0:0:0:
368,256,21621,2,0,L|440:256,1,65,2|0,0:0|0:0,0:0:0:0:
160,256,21852,1,8,0:0:0:0:
348,192,22083,2,0,L|352:116,1,65
132,96,22313,6,0,L|0:96,1,130,8|2,0:0|0:0,0:0:0:0:
380,96,22775,2,0,L|68:96,1,311.999990478516,8|2,0:0|0:0,0:0:0:0:
496,96,23236,2,0,L|0:96,1,493.999986808777,8|2,0:0|0:0,0:0:0:0:
496,226,23698,2,0,L|496:90,1,130,8|0,0:0|0:0,0:0:0:0:
156,96,24160,5,2,0:0:0:0:
384,100,24390,2,0,L|388:152,1,32.5,4|0,0:0|0:0,0:0:0:0:
112,96,24621,1,8,0:0:0:0:
320,100,24852,2,0,L|352:100,1,32.5,4|0,0:0|0:0,0:0:0:0:
156,96,25083,2,0,L|148:160,2,65,2|2|2,0:0|0:0|0:0,0:0:0:0:
496,100,25544,2,0,B|498:169|498:169|440:192,1,130,8|0,0:0|0:0,0:0:0:0:
364,192,25890,1,0,0:0:0:0:
168,192,26006,6,0,L|104:192,1,65,2|0,0:0|0:0,0:0:0:0:
304,192,26236,2,0,L|308:156,1,32.5,4|0,0:0|0:0,0:0:0:0:
44,192,26467,2,0,L|40:56,1,130,8|4,0:0|0:0,0:0:0:0:
192,68,26929,1,2,0:0:0:0:
316,68,27044,1,2,0:0:0:0:
96,68,27160,2,0,L|92:120,1,32.5,4|0,0:0|0:0,0:0:0:0:
268,68,27390,1,8,0:0:0:0:
356,68,27506,1,2,0:0:0:0:
444,68,27621,1,2,0:0:0:0:
356,68,27736,1,8,0:0:0:0:
144,176,27852,5,2,0:0:0:0:
372,176,28083,2,0,L|376:224,1,32.5,4|0,0:0|0:0,0:0:0:0:
100,68,28313,2,0,L|240:68,1,130,8|4,0:0|0:0,0:0:0:0:
352,172,28775,1,2,0:0:0:0:
228,172,28890,1,2,0:0:0:0:
104,172,29006,1,2,0:0:0:0:
456,176,29236,2,0,P|488:116|456:72,1,130,8|0,0:0|0:0,0:0:0:0:
364,72,29583,1,0,0:0:0:0:
136,72,29698,5,2,0:0:0:0:
356,72,29929,2,0,L|360:104,1,32.5,4|0,0:0|0:0,0:0:0:0:
48,72,30160,2,0,L|44:28,1,32.5,8|0,0:0|0:0,0:0:0:0:
180,72,30390,2,0,L|288:72,1,97.50000371933,2|0,0:0|0:0,0:0:0:0:
336,72,30563,1,8,0:0:0:0:
96,72,30621,2,0,P|36:140|100:196,1,195.00000743866,8|2,0:0|0:0,0:0:0:0:
196,196,30967,1,0,0:0:0:0:
428,196,31083,1,4,0:0:0:0:
504,248,31198,1,0,0:0:0:0:
476,336,31313,1,8,0:0:0:0:
384,336,31429,1,8,0:0:0:0:
112,336,31544,6,0,L|108:204,1,130,6|0,0:0|0:0,0:0:0:0:
452,192,32006,2,0,L|256:192,2,195.00000743866,8|0|2,0:0|0:0|0:0,0:0:0:0:
228,88,32698,1,2,0:0:0:0:
360,88,32813,1,2,0:0:0:0:
228,88,32929,1,2,0:0:0:0:
360,88,33044,1,2,0:0:0:0:
492,88,33160,1,2,0:0:0:0:
360,88,33275,1,2,0:0:0:0:
88,88,33390,6,0,L|84:232,1,130,2|0,0:0|0:0,0:0:0:0:
424,216,33852,1,4,0:0:0:0:
228,216,34083,1,0,0:0:0:0:
32,216,34313,1,2,0:0:0:0:
196,216,34544,1,2,0:0:0:0:
328,216,34660,1,2,0:0:0:0:
196,216,34775,1,2,0:0:0:0:
328,216,34890,1,0,0:0:0:0:
196,216,35006,1,2,0:0:0:0:
64,216,35121,1,2,0:0:0:0:
352,216,35236,6,0,L|360:360,1,130,2|0,0:0|0:0,0:0:0:0:
32,216,35698,2,0,L|28:80,1,130,8|0,0:0|0:0,0:0:0:0:
256,88,36160,1,2,0:0:0:0:
104,88,36390,1,8,0:0:0:0:
212,88,36506,1,0,0:0:0:0:
320,88,36621,1,2,0:0:0:0:
212,88,36736,1,0,0:0:0:0:
80,88,36852,1,8,0:0:0:0:
188,88,36967,1,0,0:0:0:0:
456,88,37083,6,0,L|460:224,1,130,2|0,0:0|0:0,0:0:0:0:
244,216,37544,1,4,0:0:0:0:
400,216,37775,1,0,0:0:0:0:
88,212,38006,1,2,0:0:0:0:
328,216,38236,1,0,0:0:0:0:
16,212,38467,1,2,0:0:0:0:
172,216,38698,2,0,L|176:140,1,65,8|8,0:0|0:0,0:0:0:0:
460,216,38929,6,0,L|464:72,1,130,4|0,0:0|0:0,0:0:0:0:
128,88,39390,2,0,L|324:88,1,195.00000743866,8|0,0:0|0:0,0:0:0:0:
16,88,39852,1,8,0:0:0:0:
224,88,40083,1,2,0:0:0:0:
92,88,40198,1,2,0:0:0:0:
356,88,40313,1,8,0:0:0:0:
356,88,40429,1,0,0:0:0:0:
84,192,40544,1,8,0:0:0:0:
84,192,40660,1,0,0:0:0:0:
376,192,40775,6,0,L|380:336,1,130,8|0,0:0|0:0,0:0:0:0:
28,320,41236,2,0,L|160:320,1,130,8|0,0:0|0:0,0:0:0:0:
472,320,41698,1,8,0:0:0:0:
264,320,41929,1,2,0:0:0:0:
396,320,42044,1,2,0:0:0:0:
132,320,42160,1,8,0:0:0:0:
264,320,42275,1,0,0:0:0:0:
484,216,42390,1,8,0:0:0:0:
352,216,42506,1,0,0:0:0:0:
136,216,42621,5,8,0:0:0:0:
364,216,42852,1,8,0:0:0:0:
52,216,43083,1,8,0:0:0:0:
376,216,43313,1,8,0:0:0:0:
36,216,43544,1,8,0:0:0:0:
348,216,43775,1,8,0:0:0:0:
224,216,43890,1,0,0:0:0:0:
448,216,44006,1,8,0:0:0:0:
240,216,44121,1,0,0:0:0:0:
36,216,44236,1,8,0:0:0:0:
448,216,44467,5,2,0:0:0:0:
240,216,44698,1,8,0:0:0:0:
460,216,44929,1,8,0:0:0:0:
304,216,45160,2,0,L|288:168,2,43.3333333333333,2|2|2,0:0|0:0|0:0,0:0:0:0:
416,216,45390,2,0,L|416:76,1,130,2|2,0:0|0:0,0:0:0:0:
28,88,45852,2,0,B|28:368|28:368|28:168|204:168,1,585.00002231598,4|0,0:0|0:0,0:0:0:0:
412,168,46313,6,0,B|508:168|508:168|408:168,1,195,4|0,0:0|0:0,0:0:0:0:
264,168,46775,2,0,L|260:96,1,65,8|0,0:0|0:0,0:0:0:0:
496,60,47006,2,0,L|360:60,1,130,2|2,0:0|0:0,0:0:0:0:
456,60,47352,1,2,0:0:0:0:
192,60,47467,2,0,L|128:60,1,65,2|0,0:0|0:0,0:0:0:0:
272,60,47698,2,0,L|276:136,1,65,8|0,0:0|0:0,0:0:0:0:
48,120,47929,2,0,L|120:120,1,65,2|2,0:0|0:0,0:0:0:0:
388,128,48160,6,0,L|256:128,1,130,2|0,0:0|0:0,0:0:0:0:
180,128,48506,1,0,0:0:0:0:
432,128,48621,2,0,L|436:208,1,65,8|0,0:0|0:0,0:0:0:0:
160,200,48852,2,0,B|60:200|60:200|164:200,1,195,2|2,0:0|0:0,0:0:0:0:
248,200,49198,1,2,0:0:0:0:
20,288,49313,2,0,L|88:288,1,65,2|0,0:0|0:0,0:0:0:0:
228,288,49544,2,0,L|240:224,1,65,8|2,0:0|0:0,0:0:0:0:
476,224,49775,2,0,L|408:224,1,65,2|0,0:0|0:0,0:0:0:0:
116,128,50006,6,0,B|440:128|440:128|440:292,1,487.5,2|0,0:0|0:0,0:0:0:0:
168,292,50467,2,0,L|64:292,1,97.50000371933,8|0,0:0|0:0,0:0:0:0:
364,292,50698,2,0,P|424:252|352:192,1,195.00000743866,2|2,0:0|0:0,0:0:0:0:
260,192,51044,1,2,0:0:0:0:
496,88,51160,2,0,L|384:88,1,97.50000371933,2|0,0:0|0:0,0:0:0:0:
256,88,51390,2,0,L|252:20,1,65,8|2,0:0|0:0,0:0:0:0:
492,152,51621,2,0,L|496:88,1,65,2|0,0:0|0:0,0:0:0:0:
200,192,51852,6,0,L|28:192,1,172.89999287674,8|0,0:0|0:0,0:0:0:0:
368,192,52313,1,8,0:0:0:0:
236,192,52429,1,2,0:0:0:0:
104,192,52544,1,0,0:0:0:0:
416,192,52775,1,8,0:0:0:0:
76,192,53006,1,0,0:0:0:0:
492,192,53236,2,0,L|500:120,1,65,8|8,0:0|0:0,0:0:0:0:
300,36,53467,2,0,L|236:36,1,65,8|8,0:0|0:0,0:0:0:0:
36,36,53698,6,0,P|124:88|32:164,1,259.34998931511,6|0,0:0|0:0,0:0:0:0:
184,36,54160,2,0,L|248:36,1,65,8|0,0:0|0:0,0:0:0:0:
16,128,54390,2,0,L|148:128,1,130,2|2,0:0|0:0,0:0:0:0:
224,128,54736,1,2,0:0:0:0:
460,128,54852,2,0,L|328:128,1,130,2|8,0:0|0:0,0:0:0:0:
252,128,55198,1,2,0:0:0:0:
396,128,55313,2,0,L|400:200,1,65,2|0,0:0|0:0,0:0:0:0:
124,192,55544,6,0,L|256:192,1,130,2|0,0:0|0:0,0:0:0:0:
332,192,55890,1,0,0:0:0:0:
84,192,56006,2,0,L|80:264,1,65,8|0,0:0|0:0,0:0:0:0:
352,192,56236,1,0,0:0:0:0:
240,192,56352,1,8,0:0:0:0:
372,192,56467,1,2,0:0:0:0:
260,192,56583,1,8,0:0:0:0:
15,256,56698,2,0,L|91:256,1,65,2|2,0:0|0:0,0:0:0:0:
400,192,56929,2,0,L|404:264,1,65,8|2,0:0|0:0,0:0:0:0:
173,256,57160,2,0,L|93:256,1,65,2|0,0:0|0:0,0:0:0:0:
432,256,57390,6,0,P|317:82|228:256,1,487.5,2|0,0:0|0:0,0:0:0:0:
476,256,57852,2,0,L|392:256,1,65,8|0,0:0|0:0,0:0:0:0:
148,256,58083,2,0,L|16:256,1,130,2|2,0:0|0:0,0:0:0:0:
108,256,58429,1,2,0:0:0:0:
352,320,58544,2,0,L|284:320,1,65,2|0,0:0|0:0,0:0:0:0:
144,320,58775,2,0,L|148:248,1,65,8|8,0:0|0:0,0:0:0:0:
396,320,59006,2,0,L|400:244,1,65
76,256,59236,6,0,P|16:192|72:116,1,195,2|2,0:0|0:0,0:0:0:0:
212,116,59698,1,8,0:0:0:0:
120,116,59813,1,2,0:0:0:0:
356,16,59929,1,2,0:0:0:0:
264,16,60044,1,8,0:0:0:0:
448,120,60275,1,8,0:0:0:0:
356,120,60390,1,2,0:0:0:0:
32,116,60621,1,8,0:0:0:0:
30,180,60736,1,8,0:0:0:0:
28,245,60852,1,2,0:0:0:0:
420,244,61083,6,0,L|424:40,1,195.00000743866,6|2,0:0|0:0,0:0:0:0:
72,48,61544,1,8,0:0:0:0:
304,48,61660,2,0,L|108:48,1,195.00000743866,2|2,0:0|0:0,0:0:0:0:
364,48,62006,2,0,L|464:48,1,97.50000371933,2|2,0:0|0:0,0:0:0:0:
256,48,62236,2,0,L|252:156,1,97.50000371933,2|2,0:0|0:0,0:0:0:0:
40,148,62467,2,0,L|432:148,1,390.00001487732,8|2,0:0|0:0,0:0:0:0:
122,248,62929,6,0,L|118:149,1,97.50000371933,2|0,0:0|0:0,0:0:0:0:
430,148,63160,1,2,0:0:0:0:
236,148,63390,1,8,0:0:0:0:
471,148,63506,2,0,L|371:148,1,97.50000371933,2|0,0:0|0:0,0:0:0:0:
481,148,63736,1,2,0:0:0:0:
216,148,63852,1,2,0:0:0:0:
450,148,63967,1,8,0:0:0:0:
252,148,64083,1,2,0:0:0:0:
56,148,64198,1,2,0:0:0:0:
300,148,64313,2,0,B|452:148|452:148|452:64,1,227.500002169609,8|2,0:0|0:0,0:0:0:0:
144,148,64775,6,0,L|36:148,1,97.50000371933,2|0,0:0|0:0,0:0:0:0:
336,148,65006,1,2,0:0:0:0:
336,148,65236,1,8,0:0:0:0:
91,148,65352,2,0,P|24:200|91:256,1,195.00000743866,2|2,0:0|0:0,0:0:0:0:
400,260,65698,2,0,L|300:260,1,97.50000371933,2|2,0:0|0:0,0:0:0:0:
156,340,65929,2,0,L|261:340,1,97.50000371933,2|2,0:0|0:0,0:0:0:0:
16,340,66160,2,0,L|408:340,1,390.00001487732,8|2,0:0|0:0,0:0:0:0:
504,340,66506,1,0,0:0:0:0:
260,260,66621,6,0,L|256:160,1,97.50000371933,8|0,0:0|0:0,0:0:0:0:
16,160,66852,2,0,L|128:160,1,97.50000371933,2|0,0:0|0:0,0:0:0:0:
384,160,67083,1,8,0:0:0:0:
92,160,67198,1,2,0:0:0:0:
200,160,67313,1,0,0:0:0:0:
100,160,67429,1,0,0:0:0:0:
400,160,67544,1,8,0:0:0:0:
486,129,67660,1,2,0:0:0:0:
486,38,67775,1,2,0:0:0:0:
400,7,67890,1,2,0:0:0:0:
156,8,68006,1,8,0:0:0:0:
292,8,68121,1,8,0:0:0:0:
147,8,68236,1,8,0:0:0:0:
283,8,68352,1,8,0:0:0:0:
40,112,68467,6,0,L|432:112,1,390.00001487732,6|0,0:0|0:0,0:0:0:0:
84,112,68929,1,8,0:0:0:0:
316,112,69044,2,0,L|116:112,1,195.00000743866,2|2,0:0|0:0,0:0:0:0:
376,200,69390,2,0,L|276:200,1,97.50000371933,2|2,0:0|0:0,0:0:0:0:
127,200,69621,2,0,L|131:308,1,97.50000371933,2|2,0:0|0:0,0:0:0:0:
480,296,69852,2,0,L|88:296,1,390.00001487732,8|2,0:0|0:0,0:0:0:0:
440,296,70313,6,0,L|444:197,1,97.50000371933,2|0,0:0|0:0,0:0:0:0:
127,200,70544,1,2,0:0:0:0:
328,200,70775,1,8,0:0:0:0:
93,200,70890,2,0,L|193:200,1,97.50000371933,2|0,0:0|0:0,0:0:0:0:
455,200,71121,1,8,0:0:0:0:
240,200,71236,1,2,0:0:0:0:
28,200,71352,1,8,0:0:0:0:
240,200,71467,1,2,0:0:0:0:
455,200,71583,1,2,0:0:0:0:
190,200,71698,2,0,B|288:200,1,97.50000371933,8|0,0:0|0:0,0:0:0:0:
424,304,71929,2,0,B|324:304,1,97.50000371933,2|2,0:0|0:0,0:0:0:0:
80,304,72160,5,2,0:0:0:0:
284,304,72275,1,0,0:0:0:0:
492,304,72390,1,2,0:0:0:0:
179,304,72621,1,8,0:0:0:0:
424,304,72736,2,0,B|508:304|508:304|396:304,1,195.00000743866,2|2,0:0|0:0,0:0:0:0:
179,304,73083,2,0,L|81:304,1,97.50000371933,2|2,0:0|0:0,0:0:0:0:
240,304,73313,2,0,L|245:204,1,97.50000371933,2|2,0:0|0:0,0:0:0:0:
20,208,73544,2,0,L|476:208,1,455.000004339218,8|2,0:0|0:0,0:0:0:0:
245,207,73890,1,2,0:0:0:0:
20,208,74006,6,0,L|16:108,1,97.50000371933,8|0,0:0|0:0,0:0:0:0:
132,104,74236,1,2,0:0:0:0:
348,104,74352,1,2,0:0:0:0:
80,104,74467,2,0,L|170:52,2,97.50000371933,8|0|2,0:0|0:0|0:0,0:0:0:0:
288,104,74813,1,2,0:0:0:0:
496,104,74929,2,0,L|500:220,1,97.50000371933,8|0,0:0|0:0,0:0:0:0:
248,200,75160,2,0,L|352:200,1,97.50000371933,2|0,0:0|0:0,0:0:0:0:
72,200,75390,2,0,L|68:152,2,48.750001859665,8|0|0,0:0|0:0|0:0,0:0:0:0:
368,108,75621,2,0,L|420:108,2,48.750001859665,2|0|0,0:0|0:0|0:0,0:0:0:0:
124,108,75794,5,2,0:0:0:0:
256,192,76775,5,2,0:0:0:0:
256,192,76890,12,0,86929,0:0:0:0:
