osu file format v14

[General]
AudioFilename: audio.mp3
AudioLeadIn: 0
PreviewTime: 61083
Countdown: 0
SampleSet: Soft
StackLeniency: 0.7
Mode: 2
LetterboxInBreaks: 0
WidescreenStoryboard: 1

[Editor]
Bookmarks: 2006,31544,46313,61083,75852
DistanceSpacing: 1.4
BeatDivisor: 4
GridSize: 4
TimelineZoom: 1.5

[Metadata]
Title:Honeyginger (osu! edit)
TitleUnicode:Honeyginger (osu! edit)
Artist:Nakanojojo
ArtistUnicode:中野ジョジョ
Creator:JBHyperion
Version:Salad
Source:osu!
Tags:Yunomi electronic electro house instrumental short cut version featured artist mappers guild jbh hyperion
BeatmapID:2191449
BeatmapSetID:1048445

[Difficulty]
HPDrainRate:4
CircleSize:2.2
OverallDifficulty:6.8
ApproachRate:6.8
SliderMultiplier:1.8
SliderTickRate:1

[Events]
//Background and Video events
0,0,"bg.jpg",0,0
//Break Periods
//Storyboard Layer 0 (Background)
//Storyboard Layer 1 (Fail)
//Storyboard Layer 2 (Pass)
//Storyboard Layer 3 (Foreground)
//Storyboard Layer 4 (Overlay)
//Storyboard Sound Samples

[TimingPoints]
160,461.538461538462,4,2,77,100,1,0
2006,-100,4,2,1,100,0,1
2236,-100,4,3,1,80,0,1
2467,-100,4,2,1,100,0,1
2583,-100,4,3,1,100,0,1
3390,-100,4,2,1,100,0,1
4083,-100,4,3,1,80,0,1
4314,-100,4,2,1,100,0,1
4429,-100,4,3,1,100,0,1
4775,-100,4,2,1,100,0,1
5006,-100,4,3,1,100,0,1
5236,-100,4,2,1,100,0,1
5929,-100,4,3,1,80,0,1
6160,-100,4,2,1,100,0,1
6275,-100,4,3,1,100,0,1
6506,-100,4,3,1,80,0,1
6852,-100,4,3,1,100,0,1
7083,-100,4,2,1,100,0,1
7775,-100,4,3,1,100,0,1
7890,-100,4,2,1,100,0,1
8929,-100,4,3,1,60,0,1
9390,-100,4,2,1,100,0,1
9621,-100,4,3,1,80,0,1
9736,-100,4,2,1,100,0,1
9967,-100,4,3,1,100,0,1
10198,-100,4,3,1,80,0,1
10775,-100,4,2,1,100,0,1
11467,-100,4,3,1,80,0,1
11698,-100,4,2,1,100,0,1
11813,-100,4,3,1,100,0,1
12044,-100,4,3,1,80,0,1
12160,-100,4,2,1,100,0,1
12390,-100,4,3,1,100,0,1
12621,-100,4,2,1,100,0,1
13313,-100,4,3,1,80,0,1
13544,-100,4,2,1,100,0,1
13660,-100,4,3,1,100,0,1
13890,-100,4,3,1,80,0,1
14236,-100,4,3,1,100,0,1
14467,-100,4,2,1,100,0,1
15160,-100,4,3,1,100,0,1
15390,-100,4,2,1,100,0,1
15506,-100,4,3,1,100,0,1
15736,-80,4,3,1,100,0,1
16083,-100,4,3,1,70,0,1
16775,-100,4,2,1,80,0,0
17813,-100,4,3,1,50,0,0
18160,-100,4,2,1,80,0,0
19544,-100,4,3,1,30,0,0
19775,-100,4,3,1,50,0,0
20006,-100,4,2,1,80,0,0
21506,-100,4,3,1,50,0,0
21852,-100,4,2,1,80,0,0
22313,-100,4,2,1,70,0,0
22775,-100,4,2,1,80,0,0
23236,-100,4,2,1,90,0,0
23698,-100,4,3,1,70,0,0
23929,-100,4,2,1,70,0,0
24390,-100,4,3,1,40,0,0
24621,-100,4,2,1,70,0,0
24852,-100,4,3,1,40,0,0
25198,-100,4,3,1,50,0,0
25544,-100,4,2,1,70,0,0
26236,-100,4,3,1,30,0,0
26467,-100,4,2,1,70,0,0
26698,-100,4,3,1,30,0,0
27160,-100,4,3,1,40,0,0
27275,-100,4,2,1,70,0,0
27506,-100,4,3,1,50,0,0
27852,-100,4,2,1,70,0,0
28083,-100,4,3,1,40,0,0
28313,-100,4,2,1,70,0,0
28544,-100,4,3,1,40,0,0
28890,-100,4,3,1,50,0,0
29236,-100,4,2,1,70,0,0
29929,-100,4,3,1,50,0,0
30159,-100,4,2,1,70,0,0
30390,-100,4,3,1,60,0,0
30621,-100,4,2,1,80,0,0
30852,-100,4,3,1,60,0,0
31313,-100,4,3,1,50,0,0
31544,-100,4,2,2,60,0,0
32006,-100,4,2,2,70,0,0
32467,-100,4,2,2,80,0,0
33044,-100,4,3,1,40,0,0
33390,-100,4,2,2,80,0,0
33852,-100,4,2,2,60,0,0
34083,-100,4,2,2,80,0,0
35006,-100,4,3,1,40,0,0
35236,-100,4,2,2,80,0,0
36390,-100,4,3,1,50,0,0
36621,-100,4,2,2,80,0,0
36852,-100,4,3,1,50,0,0
37083,-100,4,2,2,80,0,0
37544,-100,4,2,2,60,0,0
37775,-100,4,2,2,80,0,0
38698,-100,4,3,1,50,0,0
38929,-100,4,2,2,60,0,0
39390,-100,4,2,1,80,0,0
40083,-100,4,3,1,50,0,0
40313,-100,4,2,1,80,0,0
41929,-100,4,3,1,60,0,0
42160,-100,4,2,1,80,0,0
44698,-100,4,2,3,70,0,0
45390,-100,4,2,1,40,0,0
45852,-100,4,2,77,80,0,0
46313,-100,4,2,1,60,0,0
46544,-100,4,2,1,80,0,0
47006,-100,4,3,1,60,0,0
47236,-100,4,2,1,80,0,0
47929,-100,4,3,1,60,0,0
48160,-100,4,2,1,80,0,0
48852,-100,4,3,1,60,0,0
49083,-100,4,2,1,80,0,0
49198,-100,4,3,1,60,0,0
49544,-100,4,2,1,80,0,0
49660,-100,4,3,1,60,0,0
50006,-100,4,2,1,80,0,0
50698,-100,4,3,1,60,0,0
50928,-100,4,2,1,80,0,0
51275,-100,4,2,1,80,0,0
51506,-100,4,3,1,60,0,0
51852,-100,4,2,1,80,0,0
52429,-100,4,3,1,60,0,0
52775,-100,4,2,1,80,0,0
53467,-100,4,3,1,40,0,0
53698,-100,4,2,1,60,0,0
53929,-100,4,2,1,80,0,0
54390,-100,4,3,1,60,0,0
54620,-100,4,2,1,80,0,0
55198,-100,4,3,1,60,0,0
55544,-100,4,2,1,80,0,0
56583,-100,4,3,1,60,0,0
56929,-100,4,2,1,80,0,0
57044,-100,4,3,1,60,0,0
57390,-100,4,2,1,80,0,0
58083,-100,4,3,1,70,0,0
58313,-100,4,2,1,80,0,0
58429,-100,4,3,1,60,0,0
58775,-100,4,2,1,80,0,0
58890,-100,4,3,1,60,0,0
59236,-100,4,2,1,80,0,0
59583,-100,4,2,1,100,0,0
59929,-100,4,3,1,60,0,0
60390,-100,4,2,1,100,0,0
61083,-100,4,2,1,100,0,1
61313,-100,4,3,1,80,0,1
61544,-100,4,2,1,100,0,1
61660,-100,4,3,1,80,0,1
62006,-100,4,2,1,100,0,1
62236,-100,4,3,1,80,0,1
62467,-100,4,2,1,100,0,1
62698,-100,4,2,1,100,0,1
63160,-100,4,3,1,80,0,1
63391,-100,4,2,1,100,0,1
63506,-100,4,3,1,80,0,1
63852,-100,4,2,1,100,0,1
64083,-100,4,3,1,80,0,1
64313,-100,4,2,1,100,0,1
64544,-100,4,2,1,100,0,1
65006,-100,4,3,1,80,0,1
65236,-100,4,2,1,100,0,1
65352,-100,4,3,1,80,0,1
65698,-100,4,2,1,100,0,1
65929,-100,4,3,1,80,0,1
66160,-100,4,2,1,100,0,1
66390,-100,4,2,1,100,0,1
66852,-100,4,3,1,80,0,1
67082,-100,4,2,1,100,0,1
67198,-100,4,3,1,80,0,1
67428,-100,4,2,1,100,0,1
67775,-100,4,3,1,80,0,1
68006,-100,4,3,1,60,0,1
68467,-100,4,2,1,100,0,1
69044,-100,4,3,1,80,0,1
69852,-100,4,2,1,100,0,1
70544,-100,4,3,1,80,0,1
70774,-100,4,2,1,100,0,1
70890,-100,4,3,1,80,0,1
71120,-100,4,2,1,100,0,1
71467,-100,4,3,1,80,0,1
71697,-100,4,2,1,100,0,1
71929,-100,4,3,1,80,0,1
72159,-100,4,2,1,100,0,1
72390,-100,4,3,1,80,0,1
72620,-100,4,2,1,100,0,1
72736,-100,4,3,1,80,0,1
73083,-100,4,2,1,100,0,1
73313,-100,4,3,1,80,0,1
73429,-100,4,2,1,100,0,1
73544,-100,4,2,1,100,0,1
73775,-100,4,2,1,100,0,1
74006,-100,4,2,1,100,0,1
74236,-100,4,3,1,80,0,1
74352,-100,4,2,1,100,0,1
74698,-100,4,3,1,80,0,1
74928,-100,4,2,1,100,0,1
75160,-100,4,3,1,100,0,1
75390,-100,4,2,1,100,0,1
75736,-100,4,2,1,100,0,0
76775,-100,4,2,77,50,0,0
77236,-100,4,2,1,45,0,0
77698,-100,4,2,1,42,0,0
78159,-100,4,2,1,39,0,0
78621,-100,4,2,1,36,0,0
79082,-100,4,2,1,33,0,0
79544,-100,4,2,1,30,0,0
80006,-100,4,2,1,27,0,0
80467,-100,4,2,1,24,0,0
80929,-100,4,2,1,21,0,0
81390,-100,4,2,1,18,0,0
81852,-100,4,2,1,16,0,0
82313,-100,4,2,1,14,0,0
82775,-100,4,2,1,12,0,0
83236,-100,4,2,1,10,0,0
84160,-100,4,2,1,8,0,0
85083,-100,4,2,1,7,0,0
86006,-100,4,2,1,6,0,0
86929,-100,4,2,1,5,0,0

[Colours]
Combo1 : 255,220,130
Combo2 : 55,55,255
Combo3 : 255,200,55
Combo4 : 140,140,255

[HitObjects]
424,192,1544,5,4,0:0:0:0:
72,192,2006,6,0,L|68:84,1,90,6|2,0:0|0:0,0:0:0:0:
276,112,2467,2,0,L|280:64,1,45,8|2,0:0|0:0,0:0:0:0:
176,64,2813,2,0,P|136:116|176:160,1,135,2|2,0:0|0:0,0:0:0:0:
288,160,3390,2,0,L|188:160,1,90,8|2,0:0|0:0,0:0:0:0:
88,160,3852,6,0,L|84:268,1,90,2|2,0:0|0:0,0:0:0:0:
300,244,4313,2,0,L|364:244,1,45,8|2,0:0|0:0,0:0:0:0:
184,244,4775,2,0,L|180:304,2,45,2|8|2,0:0|0:0|0:0,0:0:0:0:
312,244,5236,2,0,L|408:244,1,90,8|2,0:0|0:0,0:0:0:0:
184,244,5698,6,0,L|88:244,1,90,2|2,0:0|0:0,0:0:0:0:
312,244,6160,2,0,L|316:300,1,45,8|2,0:0|0:0,0:0:0:0:
196,292,6506,2,0,B|128:292|128:292|128:220,1,135,2|2,0:0|0:0,0:0:0:0:
240,192,7083,2,0,L|244:96,1,90,8|2,0:0|0:0,0:0:0:0:
28,100,7544,6,0,L|24:8,1,90,8|2,0:0|0:0,0:0:0:0:
136,192,8006,2,0,L|132:100,1,90,8|0,0:0|0:0,0:0:0:0:
244,284,8467,2,0,L|240:192,1,90,8|2,0:0|0:0,0:0:0:0:
172,192,8813,1,0,0:0:0:0:
104,192,8929,2,0,L|100:132,2,45,8|8|8,0:0|0:0|0:0,0:0:0:0:
328,192,9390,6,0,L|432:192,1,90,6|2,0:0|0:0,0:0:0:0:
200,192,9852,2,0,L|196:136,1,45,8|2,0:0|0:0,0:0:0:0:
323,193,10198,2,0,L|187:143,1,135,2|2,0:0|0:0,0:0:0:0:
80,144,10775,2,0,L|172:144,1,90,8|2,0:0|0:0,0:0:0:0:
288,144,11236,6,0,L|384:144,1,90,2|2,0:0|0:0,0:0:0:0:
160,144,11698,2,0,L|156:80,1,45,8|2,0:0|0:0,0:0:0:0:
276,96,12044,2,0,L|280:164,2,45,2|8|8,0:0|0:0|0:0,0:0:0:0:
120,100,12621,2,0,L|220:100,1,90,8|2,0:0|0:0,0:0:0:0:
428,100,13083,6,0,L|432:212,1,90,2|2,0:0|0:0,0:0:0:0:
216,192,13544,2,0,L|148:192,1,45,8|2,0:0|0:0,0:0:0:0:
288,192,13890,2,0,B|408:260,1,135,2|2,0:0|0:0,0:0:0:0:
288,192,14467,2,0,L|384:192,1,90,8|2,0:0|0:0,0:0:0:0:
260,192,14929,6,0,L|256:284,1,90,8|2,0:0|0:0,0:0:0:0:
468,192,15390,2,0,L|472:140,1,45,8|2,0:0|0:0,0:0:0:0:
263,104,15736,2,0,P|204:152|263:192,1,168.75,2|2,0:0|0:0,0:0:0:0:
324,192,16198,1,2,0:0:0:0:
388,192,16313,2,0,L|488:192,1,90,8|2,0:0|0:0,0:0:0:0:
260,192,16775,5,6,0:0:0:0:
116,192,17236,2,0,L|208:192,1,90,8|0,0:0|0:0,0:0:0:0:
304,192,17698,2,0,L|308:92,1,90,2|2,0:0|0:0,0:0:0:0:
208,104,18160,1,8,0:0:0:0:
320,104,18390,1,0,0:0:0:0:
108,104,18621,6,0,L|104:204,1,90,2|0,0:0|0:0,0:0:0:0:
220,192,19083,2,0,L|312:192,2,90,8|0|2,0:0|0:0|0:0,0:0:0:0:
120,192,19775,1,2,0:0:0:0:
328,192,20006,1,8,0:0:0:0:
416,192,20467,5,2,0:0:0:0:
228,192,20929,2,0,L|224:288,1,90,8|0,0:0|0:0,0:0:0:0:
324,280,21390,2,0,L|416:280,1,90,2|2,0:0|0:0,0:0:0:0:
316,280,21852,1,8,0:0:0:0:
424,280,22083,1,0,0:0:0:0:
208,280,22313,6,0,L|116:280,1,90,8|2,0:0|0:0,0:0:0:0:
220,196,22775,2,0,L|128:196,1,90,8|2,0:0|0:0,0:0:0:0:
232,112,23236,2,0,L|136:112,1,90,8|2,0:0|0:0,0:0:0:0:
344,112,23698,2,0,L|348:16,1,90,8|0,0:0|0:0,0:0:0:0:
140,20,24160,5,2,0:0:0:0:
248,20,24390,2,0,L|344:20,1,90,4|8,0:0|0:0,0:0:0:0:
228,20,24852,2,0,L|68:104,1,180,4|2,0:0|0:0,0:0:0:0:
276,104,25544,1,8,0:0:0:0:
456,104,26006,5,2,0:0:0:0:
356,104,26236,2,0,L|352:200,1,90,4|8,0:0|0:0,0:0:0:0:
456,104,26698,2,0,L|464:288,1,180,4|4,0:0|0:0,0:0:0:0:
356,284,27390,1,8,0:0:0:0:
400,284,27506,1,2,0:0:0:0:
444,284,27621,1,2,0:0:0:0:
236,284,27852,5,2,0:0:0:0:
136,284,28083,2,0,L|132:188,1,90,4|8,0:0|0:0,0:0:0:0:
232,192,28544,2,0,L|412:152,1,180,4|2,0:0|0:0,0:0:0:0:
200,148,29236,1,8,0:0:0:0:
388,148,29698,5,2,0:0:0:0:
288,148,29929,1,4,0:0:0:0:
396,148,30160,2,0,L|400:52,1,90,8|2,0:0|0:0,0:0:0:0:
292,56,30621,2,0,L|192:56,1,90,8|2,0:0|0:0,0:0:0:0:
412,60,31083,2,0,L|508:60,1,90,4|8,0:0|0:0,0:0:0:0:
272,56,31544,6,0,P|220:112|272:184,1,180,6|8,0:0|0:0,0:0:0:0:
372,192,32236,1,0,0:0:0:0:
472,192,32467,1,2,0:0:0:0:
272,192,32929,1,2,0:0:0:0:
232,224,33044,1,2,0:0:0:0:
220,272,33160,1,2,0:0:0:0:
232,320,33275,1,0,0:0:0:0:
276,344,33390,6,0,L|440:272,1,180,2|4,0:0|0:0,0:0:0:0:
340,276,34083,1,0,0:0:0:0:
440,272,34313,1,2,0:0:0:0:
240,276,34775,1,2,0:0:0:0:
196,271,34890,1,0,0:0:0:0:
158,249,35006,1,2,0:0:0:0:
132,212,35121,1,0,0:0:0:0:
124,168,35236,6,0,L|132:364,1,180,2|8,0:0|0:0,0:0:0:0:
328,348,36160,2,0,L|332:244,1,90,2|8,0:0|0:0,0:0:0:0:
440,256,36621,1,2,0:0:0:0:
480,224,36736,1,0,0:0:0:0:
492,176,36852,1,8,0:0:0:0:
480,128,36967,1,0,0:0:0:0:
436,104,37083,6,0,L|272:176,1,180,2|4,0:0|0:0,0:0:0:0:
372,172,37775,1,0,0:0:0:0:
272,176,38006,1,2,0:0:0:0:
172,176,38236,1,0,0:0:0:0:
280,176,38467,2,0,L|280:80,1,90,2|8,0:0|0:0,0:0:0:0:
64,88,38929,5,4,0:0:0:0:
208,88,39390,1,8,0:0:0:0:
352,88,39852,2,0,L|356:196,1,90,8|2,0:0|0:0,0:0:0:0:
248,180,40313,1,8,0:0:0:0:
356,177,40544,1,8,0:0:0:0:
144,180,40775,5,8,0:0:0:0:
288,180,41236,2,0,L|292:276,1,90,8|0,0:0|0:0,0:0:0:0:
184,268,41698,2,0,L|180:172,1,90,8|2,0:0|0:0,0:0:0:0:
288,180,42160,1,8,0:0:0:0:
181,178,42390,1,8,0:0:0:0:
396,180,42621,5,8,0:0:0:0:
473,219,42852,1,8,0:0:0:0:
473,304,43083,1,8,0:0:0:0:
397,344,43313,1,8,0:0:0:0:
288,344,43544,2,0,L|280:240,1,90,8|8,0:0|0:0,0:0:0:0:
393,269,44006,2,0,L|396:180,1,90,8|8,0:0|0:0,0:0:0:0:
184,180,44467,6,0,L|80:180,2,90,2|8|8,0:0|0:0|0:0,0:0:0:0:
312,180,45390,2,0,L|316:84,1,90,2|2,0:0|0:0,0:0:0:0:
100,88,45852,1,4,0:0:0:0:
100,88,46313,6,0,L|280:88,1,180,4|8,0:0|0:0,0:0:0:0:
388,88,47006,2,0,L|392:196,1,90,2|2,0:0|0:0,0:0:0:0:
284,180,47467,2,0,L|188:180,1,90,2|8,0:0|0:0,0:0:0:0:
304,180,47929,1,2,0:0:0:0:
100,180,48160,6,0,P|44:232|100:300,1,180,2|8,0:0|0:0,0:0:0:0:
208,300,48852,2,0,L|300:300,1,90,2|2,0:0|0:0,0:0:0:0:
92,300,49313,2,0,L|88:208,1,90,2|8,0:0|0:0,0:0:0:0:
196,192,49775,1,2,0:0:0:0:
404,192,50006,6,0,P|460:140|404:72,1,180,2|8,0:0|0:0,0:0:0:0:
288,72,50698,2,0,L|284:176,1,90,2|0,0:0|0:0,0:0:0:0:
402,162,51160,2,0,L|406:66,1,90,2|8,0:0|0:0,0:0:0:0:
296,72,51621,1,2,0:0:0:0:
92,72,51852,6,0,L|13:26,2,90,8|0|8,0:0|0:0|0:0,0:0:0:0:
200,72,52544,2,0,L|204:172,1,90,0|8,0:0|0:0,0:0:0:0:
96,160,53006,2,0,L|276:192,1,180,0|8,0:0|0:0,0:0:0:0:
490,192,53698,6,0,L|398:192,1,90,6|0,0:0|0:0,0:0:0:0:
292,192,54160,1,8,0:0:0:0:
400,192,54390,2,0,L|404:288,1,90,2|2,0:0|0:0,0:0:0:0:
289,281,54852,2,0,L|292:192,1,90,2|8,0:0|0:0,0:0:0:0:
400,192,55313,1,2,0:0:0:0:
196,194,55544,6,0,B|196:282|196:282|288:282,1,180,2|8,0:0|0:0,0:0:0:0:
396,280,56236,2,0,L|300:280,1,90,0|2,0:0|0:0,0:0:0:0:
96,280,56698,2,0,L|188:280,1,90,2|8,0:0|0:0,0:0:0:0:
296,280,57160,1,2,0:0:0:0:
84,280,57390,6,0,P|28:228|84:160,1,180,2|8,0:0|0:0,0:0:0:0:
192,160,58083,2,0,L|196:64,1,90,2|2,0:0|0:0,0:0:0:0:
83,160,58544,2,0,L|87:64,1,90,2|8,0:0|0:0,0:0:0:0:
196,70,59006,1,0,0:0:0:0:
396,72,59236,6,0,B|396:164|396:164|312:192,1,180,2|8,0:0|0:0,0:0:0:0:
260,192,59813,1,2,0:0:0:0:
228,192,59929,1,2,0:0:0:0:
260,192,60044,1,8,0:0:0:0:
408,192,60390,1,2,0:0:0:0:
196,192,60621,2,0,L|84:192,1,90,8|2,0:0|0:0,0:0:0:0:
324,192,61083,6,0,L|328:296,1,90,6|2,0:0|0:0,0:0:0:0:
120,280,61544,2,0,L|44:280,1,45,8|2,0:0|0:0,0:0:0:0:
184,280,61890,2,0,P|228:236|184:192,1,135,2|2,0:0|0:0,0:0:0:0:
132,192,62352,1,2,0:0:0:0:
80,192,62467,2,0,L|76:100,1,90,8|2,0:0|0:0,0:0:0:0:
276,104,62929,6,0,L|388:104,1,90,2|2,0:0|0:0,0:0:0:0:
156,104,63390,2,0,L|152:40,1,45,8|2,0:0|0:0,0:0:0:0:
304,60,63852,1,2,0:0:0:0:
256,60,63967,1,8,0:0:0:0:
208,60,64083,1,2,0:0:0:0:
100,60,64313,2,0,L|196:60,1,90,8|2,0:0|0:0,0:0:0:0:
388,60,64775,6,0,L|484:60,1,90,2|2,0:0|0:0,0:0:0:0:
268,60,65236,2,0,L|264:132,1,45,8|2,0:0|0:0,0:0:0:0:
372,104,65583,2,0,P|412:152|372:200,1,135,2|2,0:0|0:0,0:0:0:0:
320,200,66044,1,2,0:0:0:0:
268,200,66160,2,0,L|372:200,1,90,8|2,0:0|0:0,0:0:0:0:
156,200,66621,6,0,L|152:296,1,90,8|2,0:0|0:0,0:0:0:0:
265,289,67083,2,0,L|269:189,1,90,8|0,0:0|0:0,0:0:0:0:
152,196,67544,1,8,0:0:0:0:
204,196,67660,1,2,0:0:0:0:
256,196,67775,1,2,0:0:0:0:
372,196,68006,2,0,L|400:160,2,45,8|8|8,0:0|0:0|0:0,0:0:0:0:
152,196,68467,6,0,L|148:92,1,90,6|0,0:0|0:0,0:0:0:0:
356,108,68929,2,0,L|432:108,1,45,8|2,0:0|0:0,0:0:0:0:
292,108,69275,2,0,P|248:152|292:196,1,135,2|2,0:0|0:0,0:0:0:0:
348,196,69736,1,2,0:0:0:0:
406,196,69852,2,0,L|498:196,1,90,8|2,0:0|0:0,0:0:0:0:
296,284,70313,6,0,L|184:284,1,90,2|2,0:0|0:0,0:0:0:0:
416,284,70775,2,0,L|420:348,1,45,8|2,0:0|0:0,0:0:0:0:
316,328,71121,1,8,0:0:0:0:
256,328,71236,1,2,0:0:0:0:
316,328,71352,1,8,0:0:0:0:
376,328,71467,1,2,0:0:0:0:
156,328,71698,2,0,L|152:236,1,90,8|2,0:0|0:0,0:0:0:0:
352,192,72160,6,0,L|262:192,1,90,2|2,0:0|0:0,0:0:0:0:
52,236,72621,2,0,L|48:164,1,45,8|2,0:0|0:0,0:0:0:0:
156,192,72967,2,0,L|300:192,1,135,2|2,0:0|0:0,0:0:0:0:
236,192,73429,1,2,0:0:0:0:
184,192,73544,2,0,L|288:192,1,90,8|2,0:0|0:0,0:0:0:0:
480,192,74006,6,0,L|388:192,1,90,8|2,0:0|0:0,0:0:0:0:
280,192,74467,2,0,L|380:192,1,90,8|2,0:0|0:0,0:0:0:0:
172,192,74929,2,0,L|100:192,2,45,8|0|2,0:0|0:0|0:0,0:0:0:0:
388,192,75390,1,8,0:0:0:0:
436,224,75506,1,0,0:0:0:0:
436,288,75621,1,2,0:0:0:0:
388,320,75736,5,0,0:0:0:0:
256,192,76775,12,0,86929,0:0:0:0:
