osu file format v14

[General]
AudioFilename: audio.mp3
AudioLeadIn: 0
PreviewTime: 61083
Countdown: 0
SampleSet: Soft
StackLeniency: 0.7
Mode: 2
LetterboxInBreaks: 0
WidescreenStoryboard: 1

[Editor]
Bookmarks: 2006,16775,31544,46313,61083,75852
DistanceSpacing: 1.4
BeatDivisor: 4
GridSize: 4
TimelineZoom: 1

[Metadata]
Title:Honeyginger (osu! edit)
TitleUnicode:Honeyginger (osu! edit)
Artist:Nakanojojo
ArtistUnicode:中野ジョジョ
Creator:JBHyperion
Version:Cup
Source:osu!
Tags:Yunomi electronic electro house instrumental short cut version featured artist mappers guild jbh hyperion
BeatmapID:2191445
BeatmapSetID:1048445

[Difficulty]
HPDrainRate:3
CircleSize:2
OverallDifficulty:5.8
ApproachRate:5.8
SliderMultiplier:1.6
SliderTickRate:1

[Events]
//Background and Video events
0,0,"bg.jpg",0,0
//Break Periods
//Storyboard Layer 0 (Background)
//Storyboard Layer 1 (Fail)
//Storyboard Layer 2 (Pass)
//Storyboard Layer 3 (Foreground)
//Storyboard Layer 4 (Overlay)
//Storyboard Sound Samples

[TimingPoints]
160,461.538461538462,4,2,77,100,1,0
2006,-100,4,2,1,100,0,1
2236,-100,4,3,1,80,0,1
2467,-100,4,2,1,100,0,1
2583,-100,4,3,1,100,0,1
2929,-100,4,2,1,100,0,1
4429,-100,4,3,1,100,0,1
4775,-100,4,2,1,100,0,1
5929,-100,4,3,1,80,0,1
6160,-100,4,2,1,100,0,1
6275,-100,4,3,1,100,0,1
6621,-100,4,2,1,100,0,1
8929,-100,4,3,1,60,0,1
9390,-100,4,2,1,100,0,1
9621,-100,4,3,1,80,0,1
9736,-100,4,2,1,100,0,1
9967,-100,4,3,1,100,0,1
10313,-100,4,2,1,100,0,1
11813,-100,4,3,1,100,0,1
12044,-100,4,3,1,80,0,1
12160,-100,4,2,1,100,0,1
13313,-100,4,3,1,80,0,1
13544,-100,4,2,1,100,0,1
13660,-100,4,3,1,100,0,1
14006,-100,4,2,1,100,0,1
14236,-100,4,3,1,100,0,1
14467,-100,4,2,1,100,0,1
15160,-100,4,3,1,100,0,1
15390,-100,4,2,1,100,0,1
15506,-100,4,3,1,100,0,1
15852,-100,4,2,1,100,0,1
16083,-100,4,3,1,70,0,1
16775,-100,4,2,1,80,0,0
19544,-100,4,3,1,30,0,0
20006,-100,4,2,1,80,0,0
20236,-100,4,3,1,80,0,0
20352,-100,4,2,1,80,0,0
22313,-100,4,2,1,70,0,0
22775,-100,4,2,1,80,0,0
23236,-100,4,2,1,90,0,0
23698,-100,4,3,1,70,0,0
23929,-100,4,2,1,70,0,0
24390,-100,4,3,1,40,0,0
25198,-100,4,3,1,50,0,0
25544,-100,4,2,1,70,0,0
26236,-100,4,3,1,30,0,0
27160,-100,4,3,1,40,0,0
27275,-100,4,2,1,70,0,0
27506,-100,4,3,1,50,0,0
27852,-100,4,2,1,70,0,0
28083,-100,4,3,1,40,0,0
28890,-100,4,3,1,50,0,0
29236,-100,4,2,1,70,0,0
29929,-100,4,3,1,50,0,0
30390,-100,4,3,1,60,0,0
30621,-100,4,2,1,80,0,0
30852,-100,4,3,1,60,0,0
31313,-100,4,3,1,50,0,0
31544,-100,4,2,2,60,0,0
32006,-100,4,2,2,70,0,0
32467,-100,4,2,2,80,0,0
33044,-100,4,3,1,40,0,0
33390,-100,4,2,2,80,0,0
33852,-100,4,2,2,60,0,0
34083,-100,4,2,2,80,0,0
35006,-100,4,3,1,40,0,0
35236,-100,4,2,2,80,0,0
36852,-100,4,3,1,50,0,0
37083,-100,4,2,2,80,0,0
37544,-100,4,2,2,60,0,0
37775,-100,4,2,2,80,0,0
38929,-100,4,2,2,60,0,0
39390,-100,4,2,1,80,0,0
45390,-100,4,2,1,40,0,0
45852,-100,4,2,77,80,0,0
46313,-100,4,2,1,60,0,0
46544,-100,4,2,1,80,0,0
47006,-100,4,3,1,60,0,0
47236,-100,4,2,1,80,0,0
47929,-100,4,3,1,60,0,0
48160,-100,4,2,1,80,0,0
48852,-100,4,3,1,60,0,0
50006,-100,4,2,1,80,0,0
50698,-90.9090909090909,4,3,1,60,0,0
50928,-100,4,2,1,80,0,0
51852,-100,4,2,1,80,0,0
53236,-100,4,3,1,50,0,0
53467,-100,4,3,1,40,0,0
53698,-100,4,2,1,60,0,0
53929,-100,4,2,1,80,0,0
54390,-100,4,3,1,60,0,0
54620,-100,4,2,1,80,0,0
55198,-100,4,3,1,60,0,0
55544,-100,4,2,1,80,0,0
56583,-100,4,3,1,60,0,0
57390,-100,4,2,1,80,0,0
58083,-100,4,3,1,70,0,0
58429,-100,4,3,1,60,0,0
59236,-100,4,2,1,80,0,0
59583,-100,4,2,1,100,0,0
59929,-100,4,3,1,60,0,0
60390,-100,4,2,1,100,0,0
61083,-100,4,2,1,100,0,1
61313,-100,4,3,1,80,0,1
61544,-100,4,2,1,100,0,1
61660,-100,4,3,1,80,0,1
62006,-100,4,2,1,100,0,1
62236,-100,4,3,1,80,0,1
62467,-100,4,2,1,100,0,1
62698,-100,4,2,1,100,0,1
63160,-100,4,3,1,80,0,1
63391,-100,4,2,1,100,0,1
63506,-100,4,3,1,80,0,1
63852,-100,4,2,1,100,0,1
64544,-100,4,2,1,100,0,1
65006,-100,4,3,1,80,0,1
65236,-100,4,2,1,100,0,1
65352,-100,4,3,1,80,0,1
65698,-100,4,2,1,100,0,1
65929,-100,4,3,1,80,0,1
66160,-100,4,2,1,100,0,1
66390,-100,4,2,1,100,0,1
67775,-100,4,3,1,80,0,1
68006,-100,4,3,1,60,0,1
68467,-100,4,2,1,100,0,1
69044,-100,4,3,1,80,0,1
69852,-100,4,2,1,100,0,1
70544,-100,4,3,1,80,0,1
70774,-100,4,2,1,100,0,1
70890,-100,4,3,1,80,0,1
71120,-100,4,2,1,100,0,1
71467,-100,4,3,1,80,0,1
71697,-100,4,2,1,100,0,1
71929,-100,4,3,1,80,0,1
72159,-100,4,2,1,100,0,1
72390,-100,4,3,1,80,0,1
72620,-100,4,2,1,100,0,1
72736,-100,4,3,1,80,0,1
73083,-100,4,2,1,100,0,1
73313,-100,4,3,1,80,0,1
73544,-100,4,2,1,100,0,1
73775,-100,4,2,1,100,0,1
74006,-100,4,2,1,100,0,1
75160,-100,4,3,1,100,0,1
75390,-100,4,2,1,100,0,1
75736,-100,4,3,1,50,0,0
76775,-100,4,2,77,50,0,0
77236,-100,4,2,1,45,0,0
77237,-100,4,2,1,45,0,0
77698,-100,4,2,1,42,0,0
77699,-100,4,2,1,42,0,0
78159,-100,4,2,1,39,0,0
78160,-100,4,2,1,39,0,0
78621,-100,4,2,1,36,0,0
78622,-100,4,2,1,36,0,0
79082,-100,4,2,1,33,0,0
79083,-100,4,2,1,33,0,0
79544,-100,4,2,1,30,0,0
79545,-100,4,2,1,30,0,0
80006,-100,4,2,1,27,0,0
80007,-100,4,2,1,27,0,0
80467,-100,4,2,1,24,0,0
80468,-100,4,2,1,24,0,0
80929,-100,4,2,1,21,0,0
80930,-100,4,2,1,21,0,0
81390,-100,4,2,1,18,0,0
81391,-100,4,2,1,18,0,0
81852,-100,4,2,1,16,0,0
81853,-100,4,2,1,16,0,0
82313,-100,4,2,1,14,0,0
82314,-100,4,2,1,14,0,0
82775,-100,4,2,1,12,0,0
82776,-100,4,2,1,12,0,0
83236,-100,4,2,1,10,0,0
83237,-100,4,2,1,10,0,0
84160,-100,4,2,1,8,0,0
84161,-100,4,2,1,8,0,0
85083,-100,4,2,1,7,0,0
85084,-100,4,2,1,7,0,0
86006,-100,4,2,1,6,0,0
86007,-100,4,2,1,6,0,0
86929,-100,4,2,1,5,0,0
86930,-100,4,2,1,5,0,0

[Colours]
Combo1 : 255,220,130
Combo2 : 55,55,255
Combo3 : 255,200,55
Combo4 : 140,140,255

[HitObjects]
272,192,1544,5,4,0:0:0:0:
104,192,2006,6,0,L|100:108,1,80,6|2,0:0|0:0,0:0:0:0:
204,112,2467,2,0,L|204:56,1,40,8|2,0:0|0:0,0:0:0:0:
84,72,2929,1,2,0:0:0:0:
272,72,3390,2,0,L|360:72,1,80,8|2,0:0|0:0,0:0:0:0:
256,72,3852,5,2,0:0:0:0:
80,72,4313,2,0,L|80:132,1,40,8|2,0:0|0:0,0:0:0:0:
212,112,4775,2,0,L|156:112,1,40,2|8,0:0|0:0,0:0:0:0:
28,112,5236,2,0,L|24:208,1,80,8|2,0:0|0:0,0:0:0:0:
120,192,5698,6,0,L|212:192,1,80,2|2,0:0|0:0,0:0:0:0:
296,192,6160,2,0,L|296:252,1,40,8|2,0:0|0:0,0:0:0:0:
176,232,6621,1,2,0:0:0:0:
352,232,7083,2,0,L|240:232,1,80,8|2,0:0|0:0,0:0:0:0:
176,232,7544,5,8,0:0:0:0:
312,232,8006,1,8,0:0:0:0:
448,232,8467,2,0,L|452:140,1,80,8|2,0:0|0:0,0:0:0:0:
356,152,8929,2,0,L|352:72,1,80,8|8,0:0|0:0,0:0:0:0:
256,72,9390,6,0,L|160:72,1,80,6|2,0:0|0:0,0:0:0:0:
80,72,9852,2,0,L|80:128,1,40,8|2,0:0|0:0,0:0:0:0:
200,72,10313,1,2,0:0:0:0:
24,72,10775,2,0,L|20:176,1,80,8|2,0:0|0:0,0:0:0:0:
116,152,11236,5,2,0:0:0:0:
292,152,11698,1,8,0:0:0:0:
172,152,12044,2,0,L|296:152,1,120,8|2,0:0|0:0,0:0:0:0:
372,152,12621,2,0,L|376:260,1,80,8|2,0:0|0:0,0:0:0:0:
280,236,13083,6,0,L|192:236,1,80,2|2,0:0|0:0,0:0:0:0:
296,236,13544,2,0,L|296:296,1,40,8|2,0:0|0:0,0:0:0:0:
428,276,14006,2,0,L|344:276,1,80,2|2,0:0|0:0,0:0:0:0:
252,276,14467,2,0,L|332:276,1,80,8|2,0:0|0:0,0:0:0:0:
436,276,14929,6,0,L|440:372,1,80,8|2,0:0|0:0,0:0:0:0:
328,356,15390,2,0,L|328:312,1,40,8|2,0:0|0:0,0:0:0:0:
472,320,15852,2,0,L|476:224,1,80,2|2,0:0|0:0,0:0:0:0:
364,240,16313,2,0,L|260:240,1,80,8|2,0:0|0:0,0:0:0:0:
172,240,16775,5,6,0:0:0:0:
332,240,17236,2,0,L|336:72,1,160,8|2,0:0|0:0,0:0:0:0:
156,240,18160,1,8,0:0:0:0:
244,240,18390,1,0,0:0:0:0:
332,240,18621,5,2,0:0:0:0:
156,240,19083,2,0,L|308:192,1,160,8|2,0:0|0:0,0:0:0:0:
108,152,20006,2,0,L|104:64,1,80,8|0,0:0|0:0,0:0:0:0:
200,72,20467,5,2,0:0:0:0:
376,72,20929,2,0,L|380:232,1,160,8|2,0:0|0:0,0:0:0:0:
200,72,21852,1,8,0:0:0:0:
288,72,22083,1,0,0:0:0:0:
192,72,22313,6,0,L|188:156,1,80,8|2,0:0|0:0,0:0:0:0:
284,152,22775,2,0,L|280:236,1,80,8|2,0:0|0:0,0:0:0:0:
376,232,23236,2,0,L|372:316,1,80,8|2,0:0|0:0,0:0:0:0:
260,312,23698,5,8,0:0:0:0:
100,312,24160,1,2,0:0:0:0:
188,312,24390,2,0,L|338:257,2,160,4|4|2,0:0|0:0|0:0,0:0:0:0:
100,312,25544,1,8,0:0:0:0:
268,312,26006,5,2,0:0:0:0:
172,312,26236,2,0,L|168:144,1,160,4|4,0:0|0:0,0:0:0:0:
328,152,27160,1,4,0:0:0:0:
424,152,27390,1,8,0:0:0:0:
272,72,27852,5,2,0:0:0:0:
176,72,28083,2,0,P|96:124|80:188,2,160,4|4|2,0:0|0:0|0:0,0:0:0:0:
264,72,29236,1,8,0:0:0:0:
96,72,29698,5,2,0:0:0:0:
144,72,29929,1,4,0:0:0:0:
312,72,30390,1,2,0:0:0:0:
216,72,30621,1,8,0:0:0:0:
56,72,31083,2,0,L|52:180,1,80,4|8,0:0|0:0,0:0:0:0:
152,192,31544,6,0,L|316:192,2,160,6|8|2,0:0|0:0|0:0,0:0:0:0:
328,192,32929,2,0,L|332:276,1,80,2|2,0:0|0:0,0:0:0:0:
244,272,33390,6,0,L|164:272,2,80,2|0|4,0:0|0:0|0:0,0:0:0:0:
404,272,34313,2,0,L|412:192,1,80,2|0,0:0|0:0,0:0:0:0:
316,192,34775,2,0,L|236:192,1,80,2|2,0:0|0:0,0:0:0:0:
140,192,35236,6,0,L|136:20,1,160,2|8,0:0|0:0,0:0:0:0:
300,192,36160,1,2,0:0:0:0:
124,192,36621,2,0,L|44:192,1,80,2|8,0:0|0:0,0:0:0:0:
132,192,37083,5,2,0:0:0:0:
276,192,37544,1,4,0:0:0:0:
100,192,38006,1,2,0:0:0:0:
188,192,38236,1,0,0:0:0:0:
276,192,38467,1,2,0:0:0:0:
452,192,38929,6,0,L|456:32,1,160,4|8,0:0|0:0,0:0:0:0:
279,32,39852,1,8,0:0:0:0:
455,32,40313,1,8,0:0:0:0:
367,32,40544,1,8,0:0:0:0:
279,32,40775,6,0,L|125:87,2,160,8|8|8,0:0|0:0|0:0,0:0:0:0:
104,32,42160,1,8,0:0:0:0:
192,32,42390,1,8,0:0:0:0:
280,32,42621,6,0,L|348:81,2,80,8|8|8,0:0|0:0|0:0,0:0:0:0:
104,108,43544,1,8,0:0:0:0:
24,152,43775,1,8,0:0:0:0:
24,240,44006,1,8,0:0:0:0:
104,280,44236,1,8,0:0:0:0:
216,280,44467,5,2,0:0:0:0:
404,280,45390,2,0,L|484:280,1,80,2|2,0:0|0:0,0:0:0:0:
388,280,45852,1,4,0:0:0:0:
196,280,46313,6,0,P|144:240|200:192,1,160,4|8,0:0|0:0,0:0:0:0:
288,192,47006,1,2,0:0:0:0:
96,192,47467,1,2,0:0:0:0:
224,192,47929,1,2,0:0:0:0:
312,192,48160,6,0,P|364:152|308:104,1,160,2|8,0:0|0:0,0:0:0:0:
220,104,48852,1,2,0:0:0:0:
412,104,49313,2,0,L|416:280,1,160,2|2,0:0|0:0,0:0:0:0:
320,264,50006,6,0,L|156:264,1,160,2|8,0:0|0:0,0:0:0:0:
256,264,50698,2,0,P|336:252|408:192,2,176.000005371094,2|2|2,0:0|0:0|0:0,0:0:0:0:
160,264,51852,5,8,0:0:0:0:
280,264,52313,1,8,0:0:0:0:
400,264,52775,1,8,0:0:0:0:
224,264,53236,2,0,L|144:264,1,80,8|8,0:0|0:0,0:0:0:0:
240,264,53698,6,0,B|320:264|320:264|320:172,1,160,6|8,0:0|0:0,0:0:0:0:
224,184,54390,1,2,0:0:0:0:
64,188,54852,2,0,L|212:128,1,160,2|2,0:0|0:0,0:0:0:0:
308,128,55544,6,0,P|360:88|308:32,1,160,2|8,0:0|0:0,0:0:0:0:
212,32,56236,1,0,0:0:0:0:
368,192,56698,2,0,L|208:192,1,160,2|2,0:0|0:0,0:0:0:0:
308,192,57390,6,0,P|360:244|308:296,1,160,2|8,0:0|0:0,0:0:0:0:
216,296,58083,1,2,0:0:0:0:
80,296,58544,1,2,0:0:0:0:
240,296,59006,1,0,0:0:0:0:
336,296,59236,6,0,B|416:296|416:296|416:216,1,160,2|8,0:0|0:0,0:0:0:0:
328,176,59929,1,2,0:0:0:0:
140,192,60390,1,2,0:0:0:0:
244,192,60621,2,0,L|324:192,1,80,8|2,0:0|0:0,0:0:0:0:
212,192,61083,6,0,L|208:92,1,80,6|2,0:0|0:0,0:0:0:0:
312,112,61544,2,0,L|364:112,1,40,8|2,0:0|0:0,0:0:0:0:
456,112,61890,2,0,P|488:56|456:16,1,120,2|2,0:0|0:0,0:0:0:0:
356,16,62467,2,0,L|268:16,1,80,8|2,0:0|0:0,0:0:0:0:
172,16,62929,6,0,L|168:124,1,80,2|2,0:0|0:0,0:0:0:0:
280,96,63390,2,0,L|284:172,1,40,8|2,0:0|0:0,0:0:0:0:
136,136,63852,1,2,0:0:0:0:
88,136,63967,1,8,0:0:0:0:
208,136,64313,2,0,L|212:220,1,80,8|2,0:0|0:0,0:0:0:0:
316,216,64775,6,0,L|404:216,1,80,2|2,0:0|0:0,0:0:0:0:
500,216,65236,2,0,L|504:272,1,40,8|2,0:0|0:0,0:0:0:0:
400,256,65583,2,0,L|264:256,1,120,2|2,0:0|0:0,0:0:0:0:
384,256,66160,2,0,L|388:360,1,80,8|2,0:0|0:0,0:0:0:0:
276,336,66621,5,8,0:0:0:0:
428,336,67083,1,8,0:0:0:0:
264,336,67544,2,0,L|260:240,1,80,8|2,0:0|0:0,0:0:0:0:
376,336,68006,2,0,L|468:336,1,80,8|8,0:0|0:0,0:0:0:0:
344,336,68467,6,0,L|256:336,1,80,6|0,0:0|0:0,0:0:0:0:
160,336,68929,2,0,L|160:288,1,40,8|2,0:0|0:0,0:0:0:0:
264,292,69275,2,0,P|296:236|264:196,1,120,2|2,0:0|0:0,0:0:0:0:
164,196,69852,2,0,L|160:112,1,80,8|2,0:0|0:0,0:0:0:0:
264,116,70313,6,0,L|268:12,1,80,2|2,0:0|0:0,0:0:0:0:
168,116,70775,2,0,L|164:40,1,40,8|2,0:0|0:0,0:0:0:0:
72,76,71121,2,0,L|192:76,1,120,8|2,0:0|0:0,0:0:0:0:
284,76,71698,2,0,L|280:164,1,80,8|2,0:0|0:0,0:0:0:0:
176,156,72160,6,0,L|88:156,1,80,2|2,0:0|0:0,0:0:0:0:
200,156,72621,2,0,L|204:212,1,40,8|2,0:0|0:0,0:0:0:0:
104,156,72967,2,0,P|72:196|104:252,1,120,2|2,0:0|0:0,0:0:0:0:
204,252,73544,2,0,L|292:252,1,80,8|2,0:0|0:0,0:0:0:0:
388,252,74006,5,8,0:0:0:0:
228,252,74467,1,8,0:0:0:0:
404,252,74929,2,0,L|412:152,1,80,8|2,0:0|0:0,0:0:0:0:
296,172,75390,1,8,0:0:0:0:
180,172,75621,6,0,L|176:124,1,40,2|0,0:0|0:0,0:0:0:0:
256,192,76775,12,0,86929,0:0:0:0:
