osu file format v14

[General]
AudioFilename: audio.mp3
AudioLeadIn: 0
PreviewTime: 191496
Countdown: 0
SampleSet: Normal
StackLeniency: 0.7
Mode: 1
LetterboxInBreaks: 0
WidescreenStoryboard: 0

[Editor]
DistanceSpacing: 0.7
BeatDivisor: 4
GridSize: 32
TimelineZoom: 1.2

[Metadata]
Title:Bittersweet (feat. Kuishinboakachan a.k.a Kiato)
TitleUnicode:Bittersweet (feat. くいしんぼあかちゃん a.k.a きあと)
Artist:Nakanojojo
ArtistUnicode:Nakanojojo
Creator:qoot8123
Version:Muzukashii
Source:osu!
Tags:featured artist fa nardoxyribonucleic Nakarin Yunomi KASSYKASSY Game Mix
BeatmapID:1772047
BeatmapSetID:847323

[Difficulty]
HPDrainRate:5
CircleSize:5
OverallDifficulty:5
ApproachRate:5
SliderMultiplier:1.4
SliderTickRate:1

[Events]
//Background and Video events
0,0,"BG.jpg",0,0
//Break Periods
//Storyboard Layer 0 (Background)
//Storyboard Layer 1 (Fail)
//Storyboard Layer 2 (Pass)
//Storyboard Layer 3 (Foreground)
//Storyboard Sound Samples

[TimingPoints]
2869,346.820809248555,4,1,0,70,1,0
36510,-128.205128205128,4,1,0,70,0,0
46221,-111.111111111111,4,1,0,70,0,0
55499,-109.89010989011,4,1,0,70,0,0
55759,-108.695652173913,4,1,0,70,0,0
56105,-107.52688172043,4,1,0,70,0,0
56452,-106.382978723404,4,1,0,70,0,0
56799,-105.263157894737,4,1,0,70,0,0
58360,-100,4,1,0,70,0,1
58707,-128.205128205128,4,1,0,70,0,1
67897,-126.582278481013,4,1,0,70,0,1
68158,-125,4,1,0,70,0,1
68331,-123.456790123457,4,1,0,70,0,1
68504,-121.951219512195,4,1,0,70,0,1
68678,-120.481927710843,4,1,0,70,0,1
68851,-119.047619047619,4,1,0,70,0,1
69025,-117.647058823529,4,1,0,70,0,1
69371,-111.111111111111,4,1,0,70,0,1
77608,-109.89010989011,4,1,0,70,0,1
78649,-108.695652173913,4,1,0,70,0,1
78909,-107.52688172043,4,1,0,70,0,1
79082,-106.382978723404,4,1,0,70,0,1
79342,-105.263157894737,4,1,0,70,0,1
79689,-104.166666666667,4,1,0,70,0,1
79949,-103.092783505155,4,1,0,70,0,1
80123,-102.040816326531,4,1,0,70,0,1
80556,-100,4,1,0,70,0,0
114025,-111.111111111111,4,1,0,70,0,0
119227,-109.89010989011,4,1,0,70,0,0
120614,-108.695652173913,4,1,0,70,0,0
122001,-107.52688172043,4,1,0,70,0,0
122348,-106.382978723404,4,1,0,70,0,0
123042,-105.263157894737,4,1,0,70,0,0
123649,-104.166666666667,4,1,0,70,0,0
123996,-103.092783505155,4,1,0,70,0,0
124342,-102.040816326531,4,1,0,70,0,0
124949,-100,4,1,0,70,0,1
125296,-111.111111111111,4,1,0,70,0,1
147146,-111.111111111111,4,1,0,70,0,0
147493,-128.205128205128,4,1,0,70,0,0
157204,-111.111111111111,4,1,0,70,0,0
163620,-109.89010989011,4,1,0,70,0,0
166395,-108.695652173913,4,1,0,70,0,0
166741,-107.52688172043,4,1,0,70,0,0
167088,-106.382978723404,4,1,0,70,0,0
167869,-105.263157894737,4,1,0,70,0,0
169342,-100,4,1,0,70,0,1
169689,-128.205128205128,4,1,0,70,0,1
178880,-126.582278481013,4,1,0,70,0,1
179141,-125,4,1,0,70,0,1
179314,-123.456790123457,4,1,0,70,0,1
179487,-121.951219512195,4,1,0,70,0,1
179661,-120.481927710843,4,1,0,70,0,1
179834,-119.047619047619,4,1,0,70,0,1
180008,-117.647058823529,4,1,0,70,0,1
180354,-111.111111111111,4,1,0,70,0,1
188591,-109.89010989011,4,1,0,70,0,1
189632,-108.695652173913,4,1,0,70,0,1
189892,-107.52688172043,4,1,0,70,0,1
190065,-106.382978723404,4,1,0,70,0,1
190325,-105.263157894737,4,1,0,70,0,1
190672,-104.166666666667,4,1,0,70,0,1
190932,-103.092783505155,4,1,0,70,0,1
191539,-100,4,1,0,70,0,0

[HitObjects]
256,192,2869,5,4,0:0:0:0:
256,192,3215,1,8,0:0:0:0:
256,192,3562,1,8,0:0:0:0:
256,192,3736,1,0,0:0:0:0:
256,192,3909,1,8,0:0:0:0:
256,192,4082,1,0,0:0:0:0:
256,192,4256,1,0,0:0:0:0:
256,192,4603,1,8,0:0:0:0:
256,192,4776,1,0,0:0:0:0:
256,192,4949,1,8,0:0:0:0:
256,192,5643,1,0,0:0:0:0:
256,192,5990,1,8,0:0:0:0:
256,192,6337,1,8,0:0:0:0:
256,192,6510,1,0,0:0:0:0:
256,192,6684,1,8,0:0:0:0:
256,192,6857,1,0,0:0:0:0:
256,192,7030,1,0,0:0:0:0:
256,192,7377,1,8,0:0:0:0:
256,192,7724,1,8,0:0:0:0:
256,192,7897,1,8,0:0:0:0:
256,192,7984,1,8,0:0:0:0:
256,192,8071,1,8,0:0:0:0:
256,192,8244,1,8,0:0:0:0:
256,192,8418,1,4,0:0:0:0:
256,192,8764,1,8,0:0:0:0:
256,192,9111,1,8,0:0:0:0:
256,192,9285,1,0,0:0:0:0:
256,192,9458,1,8,0:0:0:0:
256,192,9632,1,0,0:0:0:0:
256,192,9805,1,0,0:0:0:0:
256,192,10152,1,8,0:0:0:0:
256,192,10325,1,0,0:0:0:0:
256,192,10499,1,8,0:0:0:0:
256,192,10845,1,8,0:0:0:0:
256,192,10932,1,8,0:0:0:0:
256,192,11019,1,8,0:0:0:0:
256,192,11192,1,12,0:0:0:0:
256,192,11539,1,8,0:0:0:0:
256,192,11712,1,8,0:0:0:0:
256,192,11886,1,0,0:0:0:0:
256,192,12233,1,8,0:0:0:0:
256,192,12579,1,8,0:0:0:0:
256,192,12753,1,0,0:0:0:0:
256,192,12926,1,8,0:0:0:0:
256,192,13100,1,8,0:0:0:0:
256,192,13273,1,0,0:0:0:0:
256,192,13447,1,0,0:0:0:0:
256,192,13620,1,8,0:0:0:0:
256,192,13967,1,0,0:0:0:0:
256,192,14314,1,8,0:0:0:0:
256,192,14834,1,0,0:0:0:0:
256,192,15007,1,8,0:0:0:0:
256,192,15354,1,0,0:0:0:0:
256,192,15701,1,8,0:0:0:0:
256,192,16048,1,0,0:0:0:0:
256,192,16221,1,0,0:0:0:0:
256,192,16395,1,8,0:0:0:0:
256,192,16568,1,8,0:0:0:0:
256,192,16741,1,0,0:0:0:0:
256,192,17088,1,8,0:0:0:0:
256,192,17608,1,0,0:0:0:0:
256,192,17782,1,8,0:0:0:0:
256,192,17955,1,0,0:0:0:0:
256,192,18129,1,0,0:0:0:0:
256,192,18475,1,8,0:0:0:0:
256,192,18996,1,0,0:0:0:0:
256,192,19169,1,8,0:0:0:0:
256,192,19516,1,0,0:0:0:0:
256,192,19863,1,8,0:0:0:0:
256,192,20210,1,0,0:0:0:0:
256,192,20383,1,0,0:0:0:0:
256,192,20556,1,8,0:0:0:0:
256,192,20730,1,8,0:0:0:0:
256,192,20903,1,0,0:0:0:0:
256,192,21250,1,8,0:0:0:0:
256,192,21770,1,0,0:0:0:0:
256,192,21944,1,8,0:0:0:0:
256,192,22290,1,0,0:0:0:0:
256,192,22637,1,8,0:0:0:0:
256,192,22984,1,0,0:0:0:0:
256,192,23158,1,0,0:0:0:0:
256,192,23331,1,8,0:0:0:0:
256,192,23504,1,0,0:0:0:0:
256,192,23678,1,0,0:0:0:0:
256,192,24025,1,8,0:0:0:0:
256,192,24285,1,8,0:0:0:0:
256,192,24371,1,0,0:0:0:0:
256,192,24545,1,0,0:0:0:0:
256,192,24718,1,8,0:0:0:0:
256,192,25065,1,0,0:0:0:0:
256,192,25759,1,0,0:0:0:0:
256,192,26105,1,0,0:0:0:0:
256,192,26452,1,0,0:0:0:0:
256,192,26799,1,0,0:0:0:0:
256,192,26973,1,0,0:0:0:0:
256,192,27146,1,0,0:0:0:0:
256,192,27233,1,0,0:0:0:0:
256,192,27319,1,0,0:0:0:0:
256,192,27493,1,8,0:0:0:0:
256,192,27840,1,4,0:0:0:0:
256,192,28186,1,8,0:0:0:0:
256,192,28707,1,0,0:0:0:0:
256,192,28880,1,8,0:0:0:0:
256,192,29053,1,0,0:0:0:0:
256,192,29227,1,0,0:0:0:0:
256,192,29574,1,8,0:0:0:0:
256,192,30094,1,0,0:0:0:0:
256,192,30267,1,8,0:0:0:0:
256,192,30614,1,0,0:0:0:0:
256,192,30961,1,8,0:0:0:0:
256,192,31134,1,8,0:0:0:0:
256,192,31481,1,0,0:0:0:0:
256,192,31655,1,8,0:0:0:0:
256,192,32001,1,0,0:0:0:0:
256,192,32348,1,8,0:0:0:0:
256,192,32869,1,0,0:0:0:0:
256,192,33042,1,8,0:0:0:0:
256,192,33389,1,0,0:0:0:0:
256,192,33736,1,8,0:0:0:0:
256,192,33909,1,8,0:0:0:0:
256,192,34082,1,0,0:0:0:0:
256,192,34429,1,8,0:0:0:0:
256,192,34776,1,8,0:0:0:0:
256,192,34949,1,0,0:0:0:0:
256,192,35123,1,0,0:0:0:0:
256,192,35296,1,8,0:0:0:0:
256,192,35470,1,0,0:0:0:0:
256,192,35643,1,0,0:0:0:0:
256,192,35816,1,8,0:0:0:0:
256,192,36163,1,0,0:0:0:0:
256,192,38244,1,8,0:0:0:0:
256,192,38591,1,0,0:0:0:0:
256,192,38938,1,8,0:0:0:0:
256,192,41019,1,0,0:0:0:0:
256,192,41366,1,8,0:0:0:0:
256,192,41712,1,0,0:0:0:0:
256,192,42406,1,8,0:0:0:0:
256,192,42926,1,0,0:0:0:0:
256,192,43273,1,8,0:0:0:0:
256,192,43793,1,8,0:0:0:0:
256,192,44140,1,8,0:0:0:0:
256,192,44487,1,0,0:0:0:0:
256,192,44834,1,8,0:0:0:0:
256,192,45181,1,8,0:0:0:0:
256,192,45354,1,8,0:0:0:0:
256,192,45701,1,8,0:0:0:0:
256,192,47262,1,8,0:0:0:0:
256,192,47955,1,8,0:0:0:0:
256,192,48302,1,8,0:0:0:0:
256,192,48649,1,8,0:0:0:0:
256,192,49169,1,8,0:0:0:0:
256,192,49342,1,8,0:0:0:0:
256,192,49689,1,8,0:0:0:0:
256,192,50036,1,8,0:0:0:0:
256,192,50730,1,8,0:0:0:0:
256,192,51077,1,8,0:0:0:0:
256,192,51423,1,8,0:0:0:0:
256,192,51944,1,8,0:0:0:0:
256,192,52117,1,8,0:0:0:0:
256,192,52464,1,8,0:0:0:0:
256,192,52811,1,0,0:0:0:0:
256,192,53158,1,8,0:0:0:0:
256,192,53504,1,0,0:0:0:0:
256,192,53851,1,8,0:0:0:0:
256,192,54025,1,0,0:0:0:0:
256,192,54198,1,0,0:0:0:0:
256,192,54545,1,8,0:0:0:0:
256,192,54892,1,0,0:0:0:0:
256,192,55238,1,8,0:0:0:0:
256,192,55412,1,8,0:0:0:0:
256,192,55585,1,0,0:0:0:0:
256,192,55932,1,0,0:0:0:0:
256,192,56279,1,0,0:0:0:0:
256,192,56626,1,0,0:0:0:0:
256,192,56973,1,0,0:0:0:0:
256,192,57146,1,0,0:0:0:0:
256,192,57319,1,0,0:0:0:0:
256,192,57493,1,0,0:0:0:0:
256,192,57666,1,0,0:0:0:0:
256,192,57753,1,0,0:0:0:0:
256,192,57840,1,0,0:0:0:0:
256,192,58013,1,8,0:0:0:0:
256,192,58360,1,4,0:0:0:0:
256,192,59053,1,8,0:0:0:0:
256,192,59400,1,0,0:0:0:0:
256,192,59921,1,0,0:0:0:0:
256,192,60094,1,0,0:0:0:0:
256,192,60441,1,8,0:0:0:0:
256,192,60614,1,0,0:0:0:0:
256,192,60788,1,8,0:0:0:0:
256,192,60961,1,8,0:0:0:0:
256,192,61134,1,0,0:0:0:0:
256,192,61481,1,8,0:0:0:0:
256,192,61828,1,0,0:0:0:0:
256,192,62001,1,8,0:0:0:0:
256,192,62175,1,8,0:0:0:0:
256,192,62348,1,0,0:0:0:0:
256,192,62695,1,8,0:0:0:0:
256,192,62869,1,0,0:0:0:0:
256,192,63042,1,0,0:0:0:0:
256,192,63215,1,8,0:0:0:0:
256,192,63389,1,0,0:0:0:0:
256,192,63736,1,8,0:0:0:0:
256,192,63909,1,0,0:0:0:0:
256,192,64082,1,8,0:0:0:0:
256,192,64256,1,8,0:0:0:0:
256,192,64603,1,8,0:0:0:0:
256,192,64949,1,4,0:0:0:0:
256,192,65123,1,0,0:0:0:0:
256,192,65470,1,0,0:0:0:0:
256,192,65990,1,8,0:0:0:0:
256,192,66163,1,0,0:0:0:0:
256,192,66337,1,8,0:0:0:0:
256,192,66684,1,0,0:0:0:0:
256,192,67030,1,8,0:0:0:0:
256,192,67204,1,8,0:0:0:0:
256,192,67551,1,8,0:0:0:0:
256,192,67724,1,0,0:0:0:0:
256,192,68071,1,8,0:0:0:0:
256,192,68244,1,0,0:0:0:0:
256,192,68418,1,0,0:0:0:0:
256,192,68591,1,0,0:0:0:0:
256,192,68764,1,8,0:0:0:0:
256,192,68938,1,0,0:0:0:0:
256,192,69111,1,8,0:0:0:0:
256,192,69198,1,8,0:0:0:0:
256,192,69285,1,8,0:0:0:0:
256,192,69458,1,4,0:0:0:0:
256,192,69805,1,8,0:0:0:0:
256,192,69978,1,0,0:0:0:0:
256,192,70152,1,8,0:0:0:0:
256,192,70499,1,0,0:0:0:0:
256,192,71019,1,0,0:0:0:0:
256,192,71192,1,0,0:0:0:0:
256,192,71539,1,8,0:0:0:0:
256,192,71712,1,0,0:0:0:0:
256,192,71886,1,8,0:0:0:0:
256,192,72059,1,8,0:0:0:0:
256,192,72233,1,0,0:0:0:0:
256,192,72579,1,8,0:0:0:0:
256,192,72753,1,0,0:0:0:0:
256,192,72926,1,8,0:0:0:0:
256,192,73273,1,0,0:0:0:0:
256,192,73447,1,0,0:0:0:0:
256,192,73793,1,8,0:0:0:0:
256,192,73967,1,0,0:0:0:0:
256,192,74140,1,0,0:0:0:0:
256,192,74314,1,8,0:0:0:0:
256,192,74487,1,0,0:0:0:0:
256,192,74660,1,8,0:0:0:0:
256,192,75007,1,0,0:0:0:0:
256,192,75701,1,8,0:0:0:0:
256,192,75874,1,0,0:0:0:0:
256,192,76048,1,8,0:0:0:0:
256,192,76395,1,8,0:0:0:0:
256,192,76741,1,0,0:0:0:0:
256,192,77088,1,8,0:0:0:0:
272,192,77262,1,0,0:0:0:0:
256,192,77435,1,8,0:0:0:0:
256,192,77782,1,0,0:0:0:0:
256,192,78129,1,8,0:0:0:0:
256,192,78475,1,8,0:0:0:0:
256,192,78822,1,0,0:0:0:0:
256,192,78996,1,8,0:0:0:0:
256,192,79169,1,0,0:0:0:0:
256,192,79516,1,8,0:0:0:0:
256,192,79863,1,8,0:0:0:0:
256,192,80036,1,0,0:0:0:0:
256,192,80210,1,8,0:0:0:0:
256,192,80296,1,8,0:0:0:0:
256,192,80383,1,8,0:0:0:0:
256,192,80556,1,4,0:0:0:0:
256,192,80903,1,8,0:0:0:0:
256,192,81250,1,8,0:0:0:0:
256,192,81423,1,0,0:0:0:0:
256,192,81597,1,8,0:0:0:0:
256,192,81770,1,0,0:0:0:0:
256,192,81944,1,0,0:0:0:0:
256,192,82290,1,8,0:0:0:0:
256,192,82464,1,0,0:0:0:0:
256,192,82637,1,8,0:0:0:0:
256,192,83331,1,0,0:0:0:0:
256,192,83678,1,8,0:0:0:0:
256,192,84025,1,8,0:0:0:0:
256,192,84198,1,0,0:0:0:0:
256,192,84371,1,8,0:0:0:0:
256,192,84545,1,0,0:0:0:0:
256,192,84718,1,0,0:0:0:0:
256,192,85065,1,8,0:0:0:0:
256,192,85412,1,8,0:0:0:0:
256,192,85585,1,8,0:0:0:0:
256,192,85672,1,8,0:0:0:0:
256,192,85759,1,8,0:0:0:0:
256,192,85932,1,8,0:0:0:0:
256,192,86105,1,4,0:0:0:0:
256,192,86452,1,8,0:0:0:0:
256,192,86799,1,8,0:0:0:0:
256,192,86973,1,0,0:0:0:0:
256,192,87146,1,8,0:0:0:0:
256,192,87319,1,0,0:0:0:0:
256,192,87493,1,0,0:0:0:0:
256,192,87840,1,8,0:0:0:0:
256,192,88013,1,0,0:0:0:0:
256,192,88186,1,8,0:0:0:0:
256,192,88360,1,0,0:0:0:0:
256,192,88533,1,8,0:0:0:0:
256,192,88620,1,8,0:0:0:0:
256,192,88707,1,8,0:0:0:0:
256,192,88880,1,12,0:0:0:0:
256,192,89227,1,8,0:0:0:0:
256,192,89400,1,8,0:0:0:0:
256,192,89574,1,0,0:0:0:0:
256,192,89921,1,8,0:0:0:0:
256,192,90267,1,8,0:0:0:0:
256,192,90441,1,0,0:0:0:0:
256,192,90614,1,8,0:0:0:0:
256,192,90788,1,8,0:0:0:0:
256,192,90961,1,0,0:0:0:0:
256,192,91134,1,0,0:0:0:0:
256,192,91308,1,8,0:0:0:0:
256,192,91655,1,0,0:0:0:0:
256,192,92522,1,8,0:0:0:0:
256,192,92869,1,8,0:0:0:0:
256,192,93389,1,8,0:0:0:0:
256,192,93736,1,0,0:0:0:0:
256,192,94082,1,8,0:0:0:0:
256,192,94429,1,0,0:0:0:0:
256,192,94776,1,8,0:0:0:0:
256,192,95296,1,0,0:0:0:0:
256,192,95470,1,8,0:0:0:0:
256,192,95816,1,0,0:0:0:0:
256,192,96163,1,8,0:0:0:0:
256,192,96684,1,0,0:0:0:0:
256,192,96857,1,8,0:0:0:0:
256,192,97204,1,0,0:0:0:0:
256,192,97551,1,8,0:0:0:0:
256,192,97724,1,8,0:0:0:0:
256,192,97897,1,0,0:0:0:0:
256,192,98071,1,0,0:0:0:0:
256,192,98244,1,8,0:0:0:0:
256,192,98591,1,0,0:0:0:0:
256,192,98938,1,8,0:0:0:0:
256,192,99458,1,0,0:0:0:0:
256,192,99632,1,8,0:0:0:0:
256,192,99978,1,0,0:0:0:0:
256,192,100325,1,8,0:0:0:0:
256,192,100672,1,0,0:0:0:0:
256,192,100845,1,0,0:0:0:0:
256,192,101019,1,8,0:0:0:0:
256,192,101192,1,8,0:0:0:0:
256,192,101366,1,0,0:0:0:0:
256,192,101712,1,8,0:0:0:0:
256,192,101973,1,8,0:0:0:0:
256,192,102059,1,0,0:0:0:0:
256,192,102233,1,0,0:0:0:0:
256,192,102406,1,8,0:0:0:0:
256,192,102579,1,8,0:0:0:0:
256,192,102753,1,0,0:0:0:0:
256,192,102926,1,8,0:0:0:0:
256,192,103273,1,0,0:0:0:0:
256,192,103447,1,8,0:0:0:0:
256,192,103793,1,8,0:0:0:0:
256,192,104140,1,0,0:0:0:0:
256,192,104314,1,8,0:0:0:0:
256,192,104487,1,0,0:0:0:0:
256,192,104660,1,0,0:0:0:0:
256,192,104834,1,8,0:0:0:0:
256,192,105181,1,8,0:0:0:0:
256,192,105527,1,4,0:0:0:0:
256,192,105874,1,8,0:0:0:0:
256,192,106395,1,0,0:0:0:0:
256,192,106568,1,8,0:0:0:0:
256,192,106915,1,0,0:0:0:0:
256,192,107262,1,8,0:0:0:0:
256,192,107782,1,0,0:0:0:0:
256,192,107955,1,8,0:0:0:0:
256,192,108302,1,0,0:0:0:0:
256,192,108649,1,8,0:0:0:0:
256,192,108996,1,0,0:0:0:0:
256,192,109169,1,0,0:0:0:0:
256,192,109342,1,8,0:0:0:0:
256,192,109516,1,8,0:0:0:0:
256,192,109689,1,0,0:0:0:0:
256,192,110036,1,8,0:0:0:0:
256,192,110556,1,0,0:0:0:0:
256,192,110730,1,8,0:0:0:0:
256,192,111077,1,0,0:0:0:0:
256,192,111423,1,8,0:0:0:0:
256,192,111770,1,0,0:0:0:0:
256,192,111944,1,0,0:0:0:0:
256,192,112117,1,8,0:0:0:0:
256,192,112464,1,8,0:0:0:0:
256,192,112637,1,0,0:0:0:0:
256,192,112811,1,0,0:0:0:0:
256,192,112984,1,8,0:0:0:0:
256,192,113158,1,0,0:0:0:0:
256,192,113331,1,0,0:0:0:0:
256,192,113504,1,8,0:0:0:0:
256,192,113851,1,0,0:0:0:0:
256,192,114198,1,8,0:0:0:0:
256,192,114892,1,8,0:0:0:0:
256,192,115238,1,8,0:0:0:0:
256,192,115585,1,8,0:0:0:0:
256,192,115759,1,8,0:0:0:0:
256,192,115932,1,8,0:0:0:0:
256,192,116626,1,0,0:0:0:0:
256,192,116973,1,8,0:0:0:0:
256,192,117666,1,8,0:0:0:0:
256,192,118013,1,8,0:0:0:0:
256,192,118360,1,8,0:0:0:0:
256,192,118533,1,8,0:0:0:0:
256,192,118707,1,8,0:0:0:0:
256,192,119053,1,8,0:0:0:0:
256,192,119400,1,0,0:0:0:0:
256,192,119747,1,0,0:0:0:0:
256,192,119921,1,8,0:0:0:0:
256,192,120094,1,0,0:0:0:0:
256,192,120788,1,0,0:0:0:0:
256,192,121134,1,0,0:0:0:0:
256,192,121308,1,8,0:0:0:0:
256,192,121481,1,0,0:0:0:0:
256,192,121828,1,0,0:0:0:0:
256,192,122175,1,8,0:0:0:0:
256,192,122522,1,8,0:0:0:0:
256,192,122695,1,0,0:0:0:0:
256,192,122869,1,8,0:0:0:0:
256,192,123215,1,8,0:0:0:0:
256,192,123389,1,0,0:0:0:0:
256,192,123562,1,8,0:0:0:0:
256,192,123736,1,0,0:0:0:0:
256,192,123822,1,0,0:0:0:0:
256,192,123909,1,0,0:0:0:0:
256,192,124082,1,8,0:0:0:0:
256,192,124169,1,8,0:0:0:0:
256,192,124256,1,8,0:0:0:0:
256,192,124429,1,0,0:0:0:0:
256,192,124603,1,8,0:0:0:0:
256,192,124949,1,4,0:0:0:0:
256,192,125643,1,8,0:0:0:0:
256,192,125990,1,0,0:0:0:0:
256,192,126337,1,8,0:0:0:0:
256,192,126510,1,8,0:0:0:0:
256,192,126684,1,8,0:0:0:0:
256,192,127030,1,8,0:0:0:0:
256,192,127204,1,0,0:0:0:0:
256,192,127377,1,8,0:0:0:0:
256,192,127551,1,8,0:0:0:0:
256,192,127724,1,0,0:0:0:0:
256,192,128071,1,8,0:0:0:0:
256,192,128244,1,8,0:0:0:0:
256,192,128418,1,8,0:0:0:0:
256,192,128764,1,0,0:0:0:0:
256,192,129111,1,8,0:0:0:0:
256,192,129285,1,0,0:0:0:0:
256,192,129458,1,8,0:0:0:0:
256,192,129805,1,8,0:0:0:0:
256,192,129978,1,8,0:0:0:0:
256,192,130152,1,8,0:0:0:0:
256,192,130499,1,4,0:0:0:0:
256,192,131192,1,8,0:0:0:0:
256,192,131539,1,0,0:0:0:0:
256,192,131886,1,8,0:0:0:0:
256,192,132059,1,8,0:0:0:0:
256,192,132233,1,8,0:0:0:0:
256,192,132579,1,8,0:0:0:0:
256,192,132753,1,0,0:0:0:0:
256,192,132926,1,8,0:0:0:0:
256,192,133100,1,8,0:0:0:0:
256,192,133273,1,0,0:0:0:0:
256,192,133620,1,8,0:0:0:0:
256,192,133793,1,8,0:0:0:0:
256,192,133967,1,8,0:0:0:0:
256,192,134314,1,0,0:0:0:0:
256,192,134660,1,8,0:0:0:0:
256,192,134834,1,8,0:0:0:0:
256,192,135007,1,8,0:0:0:0:
256,192,135354,1,8,0:0:0:0:
256,192,135527,1,0,0:0:0:0:
256,192,135614,1,0,0:0:0:0:
256,192,135701,1,0,0:0:0:0:
256,192,135874,1,8,0:0:0:0:
256,192,136048,1,4,0:0:0:0:
256,192,136395,1,0,0:0:0:0:
256,192,136568,1,8,0:0:0:0:
256,192,136741,1,8,0:0:0:0:
256,192,137088,1,0,0:0:0:0:
256,192,137782,1,0,0:0:0:0:
256,192,138129,1,8,0:0:0:0:
256,192,138302,1,0,0:0:0:0:
256,192,138475,1,8,0:0:0:0:
256,192,138649,1,8,0:0:0:0:
256,192,138822,1,0,0:0:0:0:
256,192,139169,1,0,0:0:0:0:
256,192,139342,1,8,0:0:0:0:
256,192,139516,1,8,0:0:0:0:
256,192,139863,1,0,0:0:0:0:
256,192,140210,1,8,0:0:0:0:
256,192,140383,1,0,0:0:0:0:
256,192,140556,1,8,0:0:0:0:
256,192,140903,1,8,0:0:0:0:
256,192,141077,1,8,0:0:0:0:
256,192,141250,1,8,0:0:0:0:
256,192,141597,1,4,0:0:0:0:
256,192,141944,1,8,0:0:0:0:
256,192,142117,1,8,0:0:0:0:
256,192,142290,1,8,0:0:0:0:
256,192,142637,1,0,0:0:0:0:
256,192,143158,1,8,0:0:0:0:
256,192,143331,1,0,0:0:0:0:
256,192,143678,1,8,0:0:0:0:
256,192,143851,1,0,0:0:0:0:
256,192,144025,1,8,0:0:0:0:
256,192,144198,1,8,0:0:0:0:
256,192,144371,1,0,0:0:0:0:
256,192,144718,1,8,0:0:0:0:
256,192,144892,1,8,0:0:0:0:
256,192,145065,1,8,0:0:0:0:
256,192,145412,1,0,0:0:0:0:
256,192,145585,1,8,0:0:0:0:
256,192,145759,1,8,0:0:0:0:
256,192,145932,1,8,0:0:0:0:
256,192,146105,1,0,0:0:0:0:
256,192,146279,1,0,0:0:0:0:
256,192,146452,1,8,0:0:0:0:
256,192,146626,1,0,0:0:0:0:
256,192,146799,1,8,0:0:0:0:
256,192,147146,1,12,0:0:0:0:
256,192,149227,1,8,0:0:0:0:
256,192,149574,1,0,0:0:0:0:
256,192,149921,1,8,0:0:0:0:
256,192,152001,1,0,0:0:0:0:
256,192,152348,1,8,0:0:0:0:
256,192,152695,1,0,0:0:0:0:
256,192,153389,1,8,0:0:0:0:
256,192,153909,1,0,0:0:0:0:
256,192,154256,1,8,0:0:0:0:
256,192,154776,1,8,0:0:0:0:
256,192,155123,1,8,0:0:0:0:
256,192,155470,1,0,0:0:0:0:
256,192,155816,1,8,0:0:0:0:
256,192,156163,1,8,0:0:0:0:
256,192,156337,1,8,0:0:0:0:
256,192,156684,1,8,0:0:0:0:
256,192,158244,1,0,0:0:0:0:
256,192,158938,1,0,0:0:0:0:
256,192,159285,1,8,0:0:0:0:
256,192,159632,1,0,0:0:0:0:
256,192,159978,1,8,0:0:0:0:
256,192,160325,1,8,0:0:0:0:
256,192,161019,1,0,0:0:0:0:
256,192,161712,1,0,0:0:0:0:
256,192,162059,1,8,0:0:0:0:
256,192,162406,1,0,0:0:0:0:
256,192,162753,1,8,0:0:0:0:
256,192,163100,1,8,0:0:0:0:
256,192,163793,1,0,0:0:0:0:
256,192,164140,1,8,0:0:0:0:
256,192,164487,1,0,0:0:0:0:
256,192,164834,1,8,0:0:0:0:
256,192,165181,1,0,0:0:0:0:
256,192,165527,1,8,0:0:0:0:
272,192,165874,1,8,0:0:0:0:
256,192,166048,1,0,0:0:0:0:
256,192,166221,1,8,0:0:0:0:
256,192,166568,1,0,0:0:0:0:
256,192,166915,1,0,0:0:0:0:
256,192,167262,1,0,0:0:0:0:
256,192,167435,1,0,0:0:0:0:
256,192,167608,1,0,0:0:0:0:
256,192,167782,1,0,0:0:0:0:
256,192,167955,1,0,0:0:0:0:
256,192,168042,1,0,0:0:0:0:
256,192,168129,1,0,0:0:0:0:
256,192,168302,1,8,0:0:0:0:
256,192,168475,1,8,0:0:0:0:
256,192,168562,1,8,0:0:0:0:
256,192,168649,1,8,0:0:0:0:
256,192,168822,1,0,0:0:0:0:
256,192,168996,1,8,0:0:0:0:
256,192,169342,1,4,0:0:0:0:
256,192,170036,1,8,0:0:0:0:
256,192,170383,1,0,0:0:0:0:
256,192,170903,1,0,0:0:0:0:
256,192,171077,1,0,0:0:0:0:
256,192,171423,1,8,0:0:0:0:
256,192,171597,1,0,0:0:0:0:
256,192,171770,1,8,0:0:0:0:
256,192,171944,1,8,0:0:0:0:
256,192,172117,1,0,0:0:0:0:
256,192,172464,1,8,0:0:0:0:
256,192,172811,1,0,0:0:0:0:
256,192,172984,1,8,0:0:0:0:
256,192,173158,1,8,0:0:0:0:
256,192,173331,1,0,0:0:0:0:
256,192,173678,1,8,0:0:0:0:
256,192,173851,1,0,0:0:0:0:
256,192,174025,1,0,0:0:0:0:
256,192,174198,1,8,0:0:0:0:
256,192,174371,1,0,0:0:0:0:
256,192,174718,1,8,0:0:0:0:
256,192,174892,1,0,0:0:0:0:
256,192,175065,1,8,0:0:0:0:
256,192,175238,1,8,0:0:0:0:
256,192,175585,1,8,0:0:0:0:
256,192,175932,1,4,0:0:0:0:
256,192,176105,1,0,0:0:0:0:
256,192,176452,1,0,0:0:0:0:
256,192,176973,1,8,0:0:0:0:
256,192,177146,1,0,0:0:0:0:
256,192,177319,1,8,0:0:0:0:
256,192,177666,1,0,0:0:0:0:
256,192,178013,1,8,0:0:0:0:
256,192,178186,1,8,0:0:0:0:
256,192,178533,1,8,0:0:0:0:
256,192,178707,1,0,0:0:0:0:
256,192,179053,1,8,0:0:0:0:
256,192,179227,1,0,0:0:0:0:
256,192,179400,1,0,0:0:0:0:
256,192,179574,1,0,0:0:0:0:
256,192,179747,1,8,0:0:0:0:
256,192,179921,1,0,0:0:0:0:
256,192,180094,1,8,0:0:0:0:
272,192,180181,1,8,0:0:0:0:
272,192,180267,1,8,0:0:0:0:
256,192,180441,1,4,0:0:0:0:
256,192,180788,1,8,0:0:0:0:
256,192,180961,1,0,0:0:0:0:
256,192,181134,1,8,0:0:0:0:
256,192,181481,1,0,0:0:0:0:
256,192,182001,1,0,0:0:0:0:
256,192,182175,1,0,0:0:0:0:
256,192,182522,1,8,0:0:0:0:
256,192,182695,1,0,0:0:0:0:
256,192,182869,1,8,0:0:0:0:
256,192,183042,1,8,0:0:0:0:
256,192,183215,1,0,0:0:0:0:
256,192,183562,1,8,0:0:0:0:
256,192,183736,1,0,0:0:0:0:
256,192,183909,1,8,0:0:0:0:
256,192,184256,1,0,0:0:0:0:
256,192,184429,1,0,0:0:0:0:
256,192,184776,1,8,0:0:0:0:
256,192,184949,1,0,0:0:0:0:
256,192,185123,1,0,0:0:0:0:
256,192,185296,1,8,0:0:0:0:
256,192,185470,1,0,0:0:0:0:
256,192,185643,1,8,0:0:0:0:
256,192,185990,1,0,0:0:0:0:
256,192,186684,1,8,0:0:0:0:
256,192,186857,1,0,0:0:0:0:
256,192,187030,1,8,0:0:0:0:
256,192,187377,1,8,0:0:0:0:
256,192,187724,1,0,0:0:0:0:
256,192,188071,1,8,0:0:0:0:
256,192,188244,1,0,0:0:0:0:
256,192,188418,1,8,0:0:0:0:
256,192,188764,1,0,0:0:0:0:
256,192,189111,1,8,0:0:0:0:
256,192,189458,1,8,0:0:0:0:
256,192,189805,1,0,0:0:0:0:
256,192,189978,1,8,0:0:0:0:
256,192,190152,1,0,0:0:0:0:
256,192,190499,1,8,0:0:0:0:
256,192,190845,1,8,0:0:0:0:
256,192,191019,1,0,0:0:0:0:
256,192,191192,1,8,0:0:0:0:
256,192,191279,1,8,0:0:0:0:
256,192,191366,1,8,0:0:0:0:
256,192,191539,1,4,0:0:0:0:
256,192,191886,1,8,0:0:0:0:
256,192,192233,1,8,0:0:0:0:
256,192,192406,1,8,0:0:0:0:
256,192,192579,1,0,0:0:0:0:
256,192,192753,1,0,0:0:0:0:
256,192,192926,1,8,0:0:0:0:
256,192,193273,1,8,0:0:0:0:
256,192,193447,1,0,0:0:0:0:
256,192,193620,1,8,0:0:0:0:
256,192,193967,1,8,0:0:0:0:
256,192,194314,1,0,0:0:0:0:
256,192,194660,1,8,0:0:0:0:
256,192,195007,1,8,0:0:0:0:
256,192,195181,1,8,0:0:0:0:
256,192,195354,1,0,0:0:0:0:
256,192,195527,1,0,0:0:0:0:
256,192,195701,1,8,0:0:0:0:
256,192,196048,1,8,0:0:0:0:
256,192,196221,1,0,0:0:0:0:
256,192,196395,1,8,0:0:0:0:
256,192,196481,1,8,0:0:0:0:
256,192,196568,1,8,0:0:0:0:
256,192,196741,1,8,0:0:0:0:
256,192,196915,1,0,0:0:0:0:
256,192,197088,1,0,0:0:0:0:
256,192,197435,1,8,0:0:0:0:
256,192,197782,1,8,0:0:0:0:
256,192,197955,1,8,0:0:0:0:
256,192,198129,1,0,0:0:0:0:
256,192,198302,1,0,0:0:0:0:
256,192,198475,1,8,0:0:0:0:
256,192,198822,1,8,0:0:0:0:
256,192,198996,1,0,0:0:0:0:
256,192,199169,1,8,0:0:0:0:
256,192,199516,1,0,0:0:0:0:
256,192,199863,1,0,0:0:0:0:
256,192,200210,1,8,0:0:0:0:
256,192,200383,1,0,0:0:0:0:
256,192,200903,1,8,0:0:0:0:
256,192,201250,1,0,0:0:0:0:
256,192,201423,1,8,0:0:0:0:
256,192,201597,1,0,0:0:0:0:
256,192,201770,1,8,0:0:0:0:
256,192,201857,1,8,0:0:0:0:
256,192,201944,1,8,0:0:0:0:
256,192,202117,1,0,0:0:0:0:
256,192,202290,1,8,0:0:0:0:
256,192,202637,1,8,0:0:0:0:
256,192,202811,1,0,0:0:0:0:
256,192,202984,1,8,0:0:0:0:
256,192,203331,1,8,0:0:0:0:
256,192,203678,1,4,0:0:0:0:
256,192,203851,1,0,0:0:0:0:
256,192,204198,1,0,0:0:0:0:
256,192,204371,1,8,0:0:0:0:
256,192,204545,1,0,0:0:0:0:
256,192,204718,1,8,0:0:0:0:
256,192,204892,1,8,0:0:0:0:
256,192,204978,1,8,0:0:0:0:
256,192,205065,1,8,0:0:0:0:
256,192,205238,1,8,0:0:0:0:
256,192,205412,1,0,0:0:0:0:
256,192,205759,1,8,0:0:0:0:
256,192,206105,1,8,0:0:0:0:
256,192,206279,1,8,0:0:0:0:
256,192,206452,1,0,0:0:0:0:
256,192,206799,1,8,0:0:0:0:
256,192,206973,1,0,0:0:0:0:
256,192,207146,1,8,0:0:0:0:
256,192,207319,1,8,0:0:0:0:
256,192,207406,1,8,0:0:0:0:
256,192,207493,1,8,0:0:0:0:
256,192,207666,1,0,0:0:0:0:
256,192,207840,1,8,0:0:0:0:
256,192,208013,1,8,0:0:0:0:
256,192,208186,1,0,0:0:0:0:
256,192,208533,1,8,0:0:0:0:
256,192,208880,1,8,0:0:0:0:
256,192,209053,1,8,0:0:0:0:
256,192,209227,1,0,0:0:0:0:
256,192,209400,1,0,0:0:0:0:
256,192,209574,1,8,0:0:0:0:
256,192,209921,1,8,0:0:0:0:
256,192,210094,1,0,0:0:0:0:
256,192,210267,1,8,0:0:0:0:
256,192,210614,1,0,0:0:0:0:
256,192,210961,1,4,0:0:0:0:
256,192,211308,1,8,0:0:0:0:
256,192,211481,1,0,0:0:0:0:
256,192,212001,1,0,0:0:0:0:
256,192,212522,1,8,0:0:0:0:
256,192,212695,1,0,0:0:0:0:
256,192,212869,1,0,0:0:0:0:
256,192,213042,1,8,0:0:0:0:
256,192,213215,1,0,0:0:0:0:
256,192,213389,1,8,0:0:0:0:
256,208,213475,1,8,0:0:0:0:
256,192,213562,1,8,0:0:0:0:
256,192,213736,1,12,0:0:0:0:
