osu file format v14

[General]
AudioFilename: audio.mp3
AudioLeadIn: 0
PreviewTime: 80473
Countdown: 0
SampleSet: Soft
StackLeniency: 0.7
Mode: 0
LetterboxInBreaks: 0
WidescreenStoryboard: 1

[Editor]
DistanceSpacing: 0.8
BeatDivisor: 4
GridSize: 4
TimelineZoom: 1.5

[Metadata]
Title:Bittersweet (feat. Kuishinboakachan a.k.a Kiato)
TitleUnicode:Bittersweet (feat. くいしんぼあかちゃん a.k.a きあと)
Artist:Nakanojojo
ArtistUnicode:Nakanojojo
Creator:Mentai
Version:Akitoshi's Bittersweet Extra
Source:
Tags:akitoshi kyle y ky nifty electronic future pop nakarin yunomi kassykassy game mix remix
BeatmapID:1482745
BeatmapSetID:700384

[Difficulty]
HPDrainRate:6
CircleSize:4.2
OverallDifficulty:8.5
ApproachRate:9.3
SliderMultiplier:2.2
SliderTickRate:1

[Events]
//Background and Video events
0,0,"owo!.jpg",0,0
//Break Periods
//Storyboard Layer 0 (Background)
//Storyboard Layer 1 (Fail)
//Storyboard Layer 2 (Pass)
//Storyboard Layer 3 (Foreground)
//Storyboard Sound Samples

[TimingPoints]
11,346.820809248555,4,2,1,75,1,0
2438,-166.666666666667,4,2,1,75,0,0
2785,-100,4,2,2,75,0,0
4866,-166.666666666667,4,2,2,75,0,0
5560,-100,4,2,2,75,0,0
6947,-142.857142857143,4,2,2,75,0,0
7120,-125,4,2,2,75,0,0
7294,-111.111111111111,4,2,2,75,0,0
7467,-100,4,2,2,75,0,0
7641,-90.9090909090909,4,2,2,75,0,0
7987,-66.6666666666667,4,2,2,75,0,0
8334,-100,4,2,2,75,0,0
11109,-90.9090909090909,4,2,2,75,0,0
13883,-111.111111111111,4,2,2,60,0,0
24982,-200,4,2,1,45,0,0
36080,-153.846153846154,4,2,1,60,0,0
41629,-125,4,2,1,60,0,0
44404,-111.111111111111,4,2,1,60,0,0
45791,-100,4,2,1,60,0,0
46484,-125,4,2,2,60,0,0
47178,-71.4285714285714,4,2,2,70,0,1
52380,-58.8235294117647,4,2,2,70,0,1
52728,-71.4285714285714,4,2,2,70,0,1
57583,-71.4285714285714,4,2,1,70,0,1
58276,-111.111111111111,4,2,2,80,0,0
63999,-111.111111111111,4,2,1,80,0,0
64866,-111.111111111111,4,2,2,80,0,0
77698,-111.111111111111,4,2,1,80,0,0
78392,-111.111111111111,4,2,2,80,0,0
80473,-66.6666666666667,4,2,2,90,0,1
82554,-133.333333333333,4,2,2,90,0,1
83247,-66.6666666666667,4,2,2,90,0,1
88103,-133.333333333333,4,2,2,90,0,1
88450,-133.333333333333,4,2,1,90,0,1
88797,-66.6666666666667,4,2,1,90,0,1
90357,-66.6666666666667,4,2,2,90,0,1
90878,-66.6666666666667,4,2,2,90,0,1
91571,-142.857142857143,4,2,1,90,0,1
92265,-76.9230769230769,4,2,1,90,0,1
92612,-55.5555555555556,4,2,2,90,0,1
92785,-66.6666666666667,4,2,2,90,0,1
93652,-133.333333333333,4,2,2,90,0,1
94346,-66.6666666666667,4,2,2,90,0,1
96427,-133.333333333333,4,2,2,90,0,1
97120,-66.6666666666667,4,2,2,90,0,1
99201,-133.333333333333,4,2,2,90,0,1
99548,-133.333333333333,4,2,1,90,0,1
99895,-66.6666666666667,4,2,1,90,0,1
101456,-66.6666666666667,4,2,2,90,0,1
101976,-66.6666666666667,4,2,2,80,0,1
102669,-100,4,2,1,70,0,0
103363,-111.111111111111,4,2,1,60,0,0
104057,-125,4,2,1,50,0,0
104750,-142.857142857143,4,2,1,40,0,0
105444,-166.666666666667,4,2,1,30,0,0
106138,-200,4,2,1,20,0,0

[Colours]
Combo1 : 216,225,23
Combo2 : 39,255,9
Combo3 : 225,47,211
Combo4 : 12,108,254
Combo5 : 191,52,203

[HitObjects]
205,149,1745,5,0,0:0:0:0:
265,254,1918,1,0,0:0:0:0:
356,175,2091,2,0,P|373:107|356:39,1,110,0|0,0:0|0:0,0:0:0:0:
238,257,2438,6,0,P|238:304|258:355,1,98.9999969787599
284,368,2785,5,6,1:2:0:0:
356,175,2958,1,0,0:0:0:0:
133,238,3132,2,0,L|71:233,1,55,2|0,0:0|0:0,0:0:0:0:
22,144,3305,2,0,L|84:139,1,55,0|0,0:0|0:0,0:0:0:0:
202,121,3479,1,8,0:0:0:0:
202,121,3565,1,0,0:0:0:0:
202,121,3652,2,0,P|210:83|207:57,1,55,2|0,0:0|0:0,0:0:0:0:
133,238,3826,2,0,B|143:356|143:356|171:306,1,165,0|0,1:0|0:0,0:0:0:0:
182,286,4172,5,2,0:0:0:0:
294,329,4346,1,0,0:0:0:0:
340,216,4519,1,0,0:0:0:0:
228,173,4693,1,2,0:0:0:0:
310,356,4866,5,10,0:0:0:0:
310,356,5560,5,2,1:2:0:0:
228,173,5733,1,0,0:0:0:0:
100,323,5906,2,0,L|109:395,1,55,2|0,0:0|0:0,0:0:0:0:
6,273,6080,2,0,L|15:201,1,55,0|0,0:0|0:0,0:0:0:0:
38,111,6253,1,8,0:0:0:0:
38,111,6340,1,0,0:0:0:0:
38,111,6427,2,0,P|66:107|112:118,1,55,2|0,0:0|0:0,0:0:0:0:
177,182,6600,2,0,B|206:135|206:135|189:9,1,165,0|0,1:0|0:0,0:0:0:0:
229,52,6947,6,0,L|236:99,1,38.4999988250733,2|0,0:0|0:0,0:0:0:0:
269,98,7120,6,0,L|261:147,1,44,2|0,0:0|0:0,0:0:0:0:
221,170,7294,6,0,L|230:229,1,49.4999984893799,2|0,1:2|0:0,0:0:0:0:
280,261,7467,6,0,L|267:341,1,55,2|0,1:2|0:0,0:0:0:0:
203,366,7641,6,0,L|168:362,6,30.2500009231568,8|0|0|0|0|0|0,0:0|0:0|0:0|0:0|1:2|0:0|0:0,0:0:0:0:
152,337,7987,6,0,B|104:372|104:372|129:171,1,247.500009441376,0|0,0:0|0:0,0:0:0:0:
133,152,8334,5,2,1:2:0:0:
10,278,8508,1,0,0:0:0:0:
226,257,8681,2,0,L|319:264,1,55,0|0,0:0|0:0,0:0:0:0:
350,360,8854,2,0,L|257:367,1,55,2|0,0:0|0:0,0:0:0:0:
146,273,9028,1,8,0:0:0:0:
146,273,9115,1,0,0:0:0:0:
146,273,9201,2,0,L|239:280,1,55,0|0,0:0|0:0,0:0:0:0:
366,194,9375,2,0,P|388:149|297:139,1,165,2|0,1:2|0:0,0:0:0:0:
348,223,9721,5,2,0:0:0:0:
402,31,9895,1,0,0:0:0:0:
402,31,9982,1,0,0:0:0:0:
402,31,10068,2,0,P|348:17|286:32,1,110,2|0,0:0|0:0,0:0:0:0:
153,132,10415,5,8,1:2:0:0:
149,159,10502,1,0,0:0:0:0:
143,185,10589,1,0,0:0:0:0:
137,211,10675,1,0,1:2:0:0:
128,248,10762,5,2,1:2:0:0:
158,286,10849,5,2,0:0:0:0:
209,318,10935,5,2,0:0:0:0:
279,328,11022,5,2,0:0:0:0:
340,279,11109,6,0,L|474:286,1,121.000003692627,2|0,1:2|0:0,0:0:0:0:
283,102,11456,1,0,0:0:0:0:
209,318,11629,1,2,1:2:0:0:
410,164,11802,1,0,0:0:0:0:
429,149,11889,1,0,0:0:0:0:
447,133,11976,1,0,0:0:0:0:
246,21,12149,1,2,1:2:0:0:
296,194,12323,1,0,0:0:0:0:
372,28,12496,5,0,0:0:0:0:
158,140,12669,1,2,1:2:0:0:
372,28,12843,1,0,1:2:0:0:
158,140,13016,1,0,1:2:0:0:
410,164,13190,1,10,1:2:0:0:
303,244,13363,2,0,B|275:278|275:278|424:305|424:305|391:238,1,242.000007385254,0|2,1:2|0:0,0:0:0:0:
158,140,13883,6,0,L|45:158,1,98.9999969787599,0|0,1:2|0:0,0:0:0:0:
7,315,14230,2,0,P|64:343|190:279,1,197.99999395752,8|0,0:0|0:0,0:0:0:0:
270,151,14750,1,2,1:2:0:0:
409,317,14924,2,0,L|298:306,1,98.9999969787599,8|0,0:0|0:0,0:0:0:0:
460,97,15271,5,2,1:2:0:0:
498,240,15444,1,0,0:0:0:0:
380,57,15617,5,10,0:0:0:0:
349,171,15791,1,0,0:0:0:0:
304,19,15964,5,2,0:0:0:0:
236,85,16138,1,2,1:2:0:0:
460,97,16311,5,10,0:0:0:0:
349,171,16484,1,2,0:0:0:0:
141,93,16658,6,0,P|187:77|254:95,1,98.9999969787599,2|0,1:2|0:0,0:0:0:0:
195,195,17005,1,8,0:0:0:0:
100,80,17178,2,0,P|191:45|282:79,1,197.99999395752,2|0,0:0|1:2,0:0:0:0:
420,229,17698,1,10,0:0:0:0:
460,97,17872,1,2,0:0:0:0:
307,224,18045,6,0,L|315:338,1,98.9999969787599,2|0,1:2|0:0,0:0:0:0:
491,179,18392,1,8,0:0:0:0:
283,177,18565,2,0,L|297:380,1,197.99999395752,2|0,0:0|1:2,0:0:0:0:
130,163,19086,2,0,L|138:45,1,98.9999969787599,10|0,0:0|0:0,0:0:0:0:
369,116,19432,5,0,1:2:0:0:
369,116,19779,1,10,0:0:0:0:
287,251,19953,1,0,0:0:0:0:
211,111,20126,1,2,0:0:0:0:
388,218,20300,1,0,1:2:0:0:
180,287,20473,2,0,L|66:275,1,98.9999969787599,10|2,0:0|0:0,0:0:0:0:
211,111,20820,5,2,1:2:0:0:
287,251,20993,1,0,0:0:0:0:
393,84,21167,1,8,0:0:0:0:
202,138,21340,2,0,B|99:107|107:182|9:154,1,197.99999395752,2|0,0:0|1:2,0:0:0:0:
48,45,21860,1,10,0:0:0:0:
116,179,22034,1,0,0:0:0:0:
301,111,22207,6,0,P|308:62|293:9,1,98.9999969787599,2|0,1:2|0:0,0:0:0:0:
131,209,22554,2,0,P|124:258|139:311,1,98.9999969787599,10|0,0:0|0:0,0:0:0:0:
273,249,22901,1,2,0:0:0:0:
193,122,23074,1,2,1:2:0:0:
154,336,23247,1,10,0:0:0:0:
308,267,23421,6,0,L|415:259,1,98.9999969787599,2|0,0:0|1:2,0:0:0:0:
334,377,23768,1,0,0:0:0:0:
273,167,23941,2,0,L|380:159,1,98.9999969787599,8|0,0:0|0:0,0:0:0:0:
460,149,24201,1,0,0:0:0:0:
460,149,24288,2,0,P|460:114|453:80,1,49.4999984893799,0|0,1:2|0:0,0:0:0:0:
347,28,24461,2,0,P|343:62|347:97,1,49.4999984893799,0|0,1:2|0:0,0:0:0:0:
406,259,24635,1,8,0:0:0:0:
190,126,24808,1,0,0:0:0:0:
190,126,24895,1,0,0:0:0:0:
190,126,24982,6,0,B|116:90|37:147|37:147|107:234|107:234|67:336|67:336|165:380|267:297|267:297|210:244,1,660,4|0,0:0|0:0,0:0:0:0:
223,256,27756,6,0,B|182:299|182:299|99:197|143:99|143:99|245:139|245:139|332:69|332:69|389:148|353:222,1,660,0|0,0:0|0:0,0:0:0:0:
353,222,30531,6,0,B|246:320|140:327|64:256|85:118|175:73|329:99|328:299|272:378,1,660,0|2,0:0|0:0,0:0:0:0:
275,374,33305,6,0,B|177:267|170:161|241:85|379:106|424:196|398:350|198:349|119:293,1,660,0|2,0:0|0:0,0:0:0:0:
66,188,35560,2,0,L|6:201,2,55,2|2|2,0:0|0:0|0:0,0:0:0:0:
173,91,36080,6,0,P|225:68|306:91,3,142.99999345398,12|8|8|8,0:0|0:0|0:0|0:0,0:0:0:0:
464,186,37467,6,0,P|412:209|331:186,3,142.99999345398,8|8|8|8,0:0|0:0|0:0|0:0,0:0:0:0:
173,91,38854,6,0,L|186:251,3,142.99999345398,8|8|8|8,0:0|0:0|0:0|0:0,0:0:0:0:
340,334,40242,6,0,L|351:191,3,142.99999345398,8|8|8|8,0:0|0:0|0:0|0:0,0:0:0:0:
361,98,41456,1,8,0:0:0:0:
253,58,41629,6,0,B|165:39|165:39|72:71,1,176,8|8,1:2|0:0,0:0:0:0:
87,295,42323,2,0,B|175:314|175:314|268:282,1,176,8|8,1:2|0:0,0:0:0:0:
469,201,43016,5,8,1:2:0:0:
243,159,43363,1,8,0:0:0:0:
395,330,43710,1,8,1:2:0:0:
169,288,44057,2,0,P|156:246|158:196,1,88,8|8,0:0|0:0,0:0:0:0:
322,44,44404,5,8,1:2:0:0:
416,230,44577,1,0,0:0:0:0:
448,5,44750,5,8,1:2:0:0:
334,175,44924,1,0,0:0:0:0:
163,7,45097,5,8,1:2:0:0:
239,199,45271,1,0,0:0:0:0:
452,117,45444,5,8,1:2:0:0:
245,102,45617,1,0,0:0:0:0:
196,345,45791,5,8,1:2:0:0:
235,365,45878,1,8,0:0:0:0:
279,372,45964,1,8,1:2:0:0:
322,361,46051,1,8,0:0:0:0:
355,331,46138,2,0,L|364:273,1,55,8|0,1:2|0:0,0:0:0:0:
256,199,46311,2,0,L|262:258,1,55,0|0,1:2|0:0,0:0:0:0:
279,372,46484,5,8,0:0:0:0:
445,292,46658,2,0,B|453:233|453:233|432:184|432:184|439:114,1,176,0|0,1:2|0:0,0:0:0:0:
456,89,47178,6,0,B|448:164|448:164|477:232|477:232|466:312,1,230.99999295044,6|0,1:2|0:0,0:0:0:0:
382,244,47525,1,2,1:2:0:0:
483,60,47698,1,2,0:0:0:0:
263,130,47872,6,0,B|188:161|133:106|133:106|169:55|222:69,1,230.99999295044,10|0,0:2|0:0,0:0:0:0:
291,214,48219,2,0,B|203:251|126:214|126:214|162:244|160:288,1,230.99999295044,2|0,1:2|0:0,0:0:0:0:
0,308,48565,6,0,P|33:290|72:286,1,76.9999976501466,2|0,0:0|0:0,0:0:0:0:
223,324,48739,2,0,P|255:343|278:374,1,76.9999976501466,0|0,0:0|0:0,0:0:0:0:
0,288,48912,6,0,P|33:269|71:265,1,76.9999976501466,2|0,1:2|0:0,0:0:0:0:
234,307,49086,2,0,P|266:326|289:357,1,76.9999976501466,0|0,0:0|0:0,0:0:0:0:
129,375,49259,5,8,0:0:0:0:
183,152,49432,1,2,0:0:0:0:
387,261,49606,1,0,0:0:0:0:
406,272,49693,1,0,0:0:0:0:
426,283,49779,2,0,P|436:241|428:202,1,76.9999976501466,2|0,0:0|0:0,0:0:0:0:
372,73,49953,6,0,B|319:56|282:74|282:74|238:78|212:48|212:48|176:36|128:56,1,230.99999295044,2|0,1:2|0:0,0:0:0:0:
183,152,50300,1,2,1:2:0:0:
391,51,50473,1,2,0:0:0:0:
282,288,50646,2,0,B|232:308|182:276|182:276|166:296|166:296|114:255|53:281,1,230.99999295044,10|0,0:0|0:0,0:0:0:0:
98,379,50993,5,2,1:2:0:0:
295,261,51167,1,0,0:0:0:0:
61,178,51340,5,2,0:0:0:0:
205,375,51513,1,10,0:0:0:0:
247,101,51687,5,0,1:2:0:0:
72,274,51860,1,0,0:0:0:0:
335,357,52034,6,0,L|426:346,1,76.9999976501466,8|0,0:0|0:0,0:0:0:0:
490,231,52207,2,0,L|399:220,1,76.9999976501466,2|0,0:0|0:0,0:0:0:0:
248,187,52380,2,0,B|197:144|186:50|231:11|344:22|314:125,1,280.500005350113,2|0,0:0|0:0,0:0:0:0:
269,212,52727,6,0,B|212:225|212:225|179:202|159:194|159:194|108:215|108:215|72:207|41:176|41:176|74:151,1,280.500005350113,4|0,1:2|0:0,0:0:0:0:
122,94,53074,1,2,0:0:0:0:
138,339,53247,1,2,0:0:0:0:
343,128,53421,6,0,B|508:102|508:102|436:166,1,230.99999295044,8|0,0:0|0:0,0:0:0:0:
341,228,53768,2,0,P|258:181|282:49,1,230.99999295044,0|0,1:2|0:0,0:0:0:0:
419,116,54115,6,0,L|343:128,1,76.9999976501466,2|0,0:0|0:0,0:0:0:0:
195,48,54288,2,0,L|271:59,1,76.9999976501466,10|0,0:0|0:0,0:0:0:0:
421,142,54461,6,0,L|344:153,1,76.9999976501466,0|0,1:2|0:0,0:0:0:0:
197,73,54635,2,0,L|273:84,1,76.9999976501466,0|0,0:0|0:0,0:0:0:0:
369,242,54808,5,8,0:0:0:0:
163,180,54982,1,0,0:0:0:0:
368,42,55155,1,0,0:0:0:0:
380,33,55242,1,0,0:0:0:0:
392,24,55328,2,0,P|409:62|406:109,1,76.9999976501466,0|0,0:0|0:0,0:0:0:0:
349,339,55502,6,0,B|314:370|314:370|214:311|256:205,1,230.99999295044,0|0,1:2|0:0,0:0:0:0:
304,120,55849,1,2,0:0:0:0:
111,219,56022,1,2,0:0:0:0:
427,279,56195,6,0,B|474:288|511:237|511:237|457:161|370:194,1,230.99999295044,8|0,0:0|0:0,0:0:0:0:
252,214,56542,2,0,L|258:319,1,76.9999976501466,2|0,1:2|0:0,0:0:0:0:
154,135,56716,2,0,L|160:30,1,76.9999976501466,8|0,0:0|0:0,0:0:0:0:
308,14,56889,5,2,0:0:0:0:
143,236,57063,1,10,0:0:0:0:
63,18,57236,5,2,1:2:0:0:
269,120,57409,1,0,0:0:0:0:
5,218,57583,5,8,1:2:0:0:
12,258,57669,1,8,0:0:0:0:
21,298,57756,1,8,1:2:0:0:
31,338,57843,1,8,0:0:0:0:
40,377,57930,6,0,L|132:365,1,76.9999976501466,8|0,0:0|0:0,0:0:0:0:
242,230,58103,2,0,L|157:219,1,76.9999976501466,2|0,0:0|0:0,0:0:0:0:
335,144,58276,6,0,P|367:219|235:359,1,296.99999093628,4|0,1:2|0:0,0:0:0:0:
143,217,58970,2,0,L|241:229,1,98.9999969787599,10|2,0:0|0:0,0:0:0:0:
117,348,59317,1,2,1:2:0:0:
30,204,59490,6,0,P|53:144|174:107,1,197.99999395752,2|0,0:0|0:0,0:0:0:0:
241,229,60011,2,0,L|143:217,1,98.9999969787599,0|0,0:0|0:0,0:0:0:0:
335,144,60357,1,10,0:0:0:0:
366,268,60531,1,2,0:0:0:0:
492,242,60704,1,2,0:0:0:0:
461,118,60878,1,2,0:0:0:0:
355,270,61051,6,0,B|273:241|264:326|169:247|169:247|218:196|272:223,1,296.99999093628,0|2,1:2|0:0,0:0:0:0:
95,294,61745,2,0,P|83:234|104:189,1,98.9999969787599,8|2,0:0|0:0,0:0:0:0:
190,84,62091,1,2,1:2:0:0:
256,216,62265,6,0,L|264:336,1,98.9999969787599,2|0,0:0|0:0,0:0:0:0:
449,377,62612,1,8,0:0:0:0:
501,248,62785,1,0,1:2:0:0:
364,267,62958,1,0,1:2:0:0:
411,94,63132,1,8,0:0:0:0:
489,231,63305,1,0,0:0:0:0:
342,171,63479,2,0,L|311:174,6,24.74999924469,2|0|0|0|2|0|0,0:0|0:0|0:0|0:0|0:0|0:0|0:0,0:0:0:0:
303,159,63826,6,0,L|362:151,1,49.4999984893799
200,115,63999,1,8,0:0:0:0:
200,115,64172,2,0,P|193:162|210:215,1,98.9999969787599,8|0,0:0|0:0,0:0:0:0:
373,302,64519,2,0,P|317:284|227:321,1,148.49999546814,8|0,0:0|0:0,0:0:0:0:
174,371,64866,5,6,1:2:0:0:
45,195,65039,2,0,L|61:62,1,98.9999969787599,0|2,1:2|0:0,0:0:0:0:
237,178,65386,1,0,1:2:0:0:
98,318,65560,2,0,L|0:329,1,98.9999969787599,2|0,0:0|0:0,0:0:0:0:
150,139,65906,2,0,P|210:85|318:128,1,197.99999395752,10|2,0:0|0:0,0:0:0:0:
315,111,66600,6,0,P|228:73|148:129,1,197.99999395752,2|0,1:2|0:0,0:0:0:0:
238,267,67120,2,0,P|246:219|237:171,1,98.9999969787599,2|8,0:0|0:0,0:0:0:0:
113,285,67467,1,0,0:0:0:0:
291,370,67641,2,0,L|409:355,1,98.9999969787599,2|2,1:2|0:0,0:0:0:0:
490,234,67987,5,0,0:0:0:0:
337,193,68161,1,8,0:0:0:0:
476,334,68334,1,2,1:2:0:0:
498,137,68508,1,2,1:2:0:0:
329,291,68681,1,10,0:0:0:0:
343,94,68854,1,0,1:2:0:0:
167,187,69028,2,0,L|45:177,1,98.9999969787599,2|0,0:0|0:0,0:0:0:0:
234,318,69375,6,0,B|447:298|447:298|377:367,1,296.99999093628,4|2,1:2|0:0,0:0:0:0:
259,205,70068,2,0,L|381:195,1,98.9999969787599,10|2,0:0|0:0,0:0:0:0:
492,113,70415,1,2,1:2:0:0:
351,41,70589,6,0,P|294:26|228:40,1,98.9999969787599,2|0,0:0|0:0,0:0:0:0:
125,122,70935,1,0,1:2:0:0:
259,205,71109,2,0,L|249:320,1,98.9999969787599,0|0,1:2|0:0,0:0:0:0:
47,341,71456,2,0,P|28:284|139:216,1,197.99999395752,10|2,0:0|0:0,0:0:0:0:
250,303,71976,1,2,0:0:0:0:
468,188,72149,6,0,B|507:132|507:132|466:9|466:9|408:93,1,296.99999093628,0|0,1:2|0:0,0:0:0:0:
312,263,72843,2,0,P|366:277|424:262,1,98.9999969787599,10|2,0:0|0:0,0:0:0:0:
293,108,73190,1,2,1:2:0:0:
182,248,73363,6,0,L|196:359,1,98.9999969787599,2|0,0:0|0:0,0:0:0:0:
368,169,73710,1,8,0:0:0:0:
190,82,73883,2,0,P|143:79|76:104,1,98.9999969787599,0|0,1:2|0:0,0:0:0:0:
288,247,74230,1,8,0:0:0:0:
327,53,74404,1,0,1:2:0:0:
93,93,74577,1,2,0:0:0:0:
272,149,74750,1,2,0:0:0:0:
137,319,74924,6,0,B|66:343|1:308|1:308|42:262,2,197.99999395752,2|2|10,1:2|0:0|0:0,0:0:0:0:
263,238,75791,1,0,0:0:0:0:
152,139,75964,2,0,L|36:153,1,98.9999969787599,2|0,1:2|0:0,0:0:0:0:
288,20,76311,6,0,B|354:29|354:29|415:9|415:9|494:24,2,197.99999395752,2|2|10,0:0|1:2|0:0,0:0:0:0:
143,54,77178,1,0,0:0:0:0:
247,159,77352,2,0,P|296:170|356:159,1,98.9999969787599,2|0,0:0|0:0,0:0:0:0:
481,21,77698,6,0,B|504:159|504:159|479:223,1,197.99999395752,2|0,1:2|0:0,0:0:0:0:
399,336,78219,1,0,0:0:0:0:
266,266,78392,2,0,L|158:278,1,98.9999969787599,8|0,0:0|0:0,0:0:0:0:
402,238,78739,5,2,1:2:0:0:
292,138,78912,1,2,0:0:0:0:
359,0,79086,5,2,0:0:0:0:
209,90,79259,1,2,0:0:0:0:
480,189,79432,5,2,1:2:0:0:
283,45,79606,1,2,1:2:0:0:
211,319,79779,5,10,0:0:0:0:
370,89,79953,1,0,1:2:0:0:
80,158,80126,5,2,0:0:0:0:
68,201,80213,1,0,0:0:0:0:
14,258,80300,5,0,0:0:0:0:
31,298,80386,1,0,0:0:0:0:
89,356,80473,6,0,B|259:332|259:332|191:290,1,247.500009441376,6|0,1:2|0:0,0:0:0:0:
68,201,80820,2,0,P|57:158|77:106,1,82.5000031471254,2|0,0:0|0:0,0:0:0:0:
291,59,80993,2,0,P|302:102|282:154,1,82.5000031471254,0|0,0:0|0:0,0:0:0:0:
0,75,81167,5,10,0:0:0:0:
7,59,81253,1,2,0:0:0:0:
16,44,81340,2,0,P|59:28|100:35,1,82.5000031471254,2|0,0:0|0:0,0:0:0:0:
251,219,81513,2,0,B|329:249|376:176|376:176|409:225|467:215,1,247.500009441376,0|0,1:2|0:0,0:0:0:0:
443,47,81860,6,0,L|449:130,1,82.5000031471254,2|0,0:0|0:0,0:0:0:0:
467,327,82034,1,2,0:0:0:0:
469,340,82120,1,2,0:0:0:0:
472,356,82207,2,0,P|428:362|388:350,1,82.5000031471254,2|0,0:0|0:0,0:0:0:0:
171,215,82380,2,0,P|215:209|255:221,1,82.5000031471254,0|0,0:0|0:0,0:0:0:0:
18,373,82554,6,0,P|26:248|37:114,1,247.500009441376,10|2,0:0|0:0,0:0:0:0:
39,102,83247,6,0,B|98:157|171:147|209:99|192:37|131:26,1,247.500009441376,2|0,1:2|0:0,0:0:0:0:
118,216,83594,2,0,P|167:211|202:191,1,82.5000031471254,2|0,0:0|0:0,0:0:0:0:
363,104,83768,2,0,P|325:86|285:83,1,82.5000031471254,0|0,0:0|0:0,0:0:0:0:
112,233,83941,5,10,0:0:0:0:
106,250,84028,1,2,0:0:0:0:
102,266,84115,2,0,L|109:366,1,82.5000031471254,2|0,0:0|0:0,0:0:0:0:
339,353,84288,2,0,B|406:322|406:322|328:238|238:304,1,247.500009441376,0|0,1:2|0:0,0:0:0:0:
109,368,84635,6,0,L|17:363,1,82.5000031471254,2|0,0:0|0:0,0:0:0:0:
209,186,84808,2,0,L|301:181,1,82.5000031471254,10|2,0:0|0:0,0:0:0:0:
493,167,84982,1,2,1:2:0:0:
297,13,85155,1,0,1:2:0:0:
359,285,85328,6,0,L|373:332,1,41.2500015735627,10|0,0:0|0:0,0:0:0:0:
337,318,85415,2,0,L|325:365,1,41.2500015735627,0|0,0:0|0:0,0:0:0:0:
299,339,85502,2,0,L|265:374,1,41.2500015735627,2|0,0:0|0:0,0:0:0:0:
253,341,85589,2,0,L|205:355,1,41.2500015735627,0|0,0:0|0:0,0:0:0:0:
212,319,85675,6,0,P|166:302|257:261,1,247.500009441376,2|0,0:0|0:0,0:0:0:0:
92,342,86022,6,0,B|42:280|91:191|91:191|56:232|13:227,1,247.500009441376,2|0,1:2|0:0,0:0:0:0:
52,111,86369,2,0,P|87:101|141:117,1,82.5000031471254,2|0,0:0|0:0,0:0:0:0:
340,18,86542,2,0,P|305:28|251:12,1,82.5000031471254,0|0,0:0|0:0,0:0:0:0:
491,136,86716,5,10,0:0:0:0:
494,154,86802,1,2,0:0:0:0:
496,171,86889,2,0,P|456:161|416:171,1,82.5000031471254,2|0,0:0|0:0,0:0:0:0:
212,319,87063,2,0,B|136:368|31:322|78:207|151:214,1,247.500009441376,0|0,1:2|0:0,0:0:0:0:
313,268,87409,6,0,P|323:309|317:361,1,82.5000031471254,2|0,0:0|0:0,0:0:0:0:
204,157,87583,1,2,0:0:0:0:
192,145,87669,1,2,0:0:0:0:
181,132,87756,2,0,P|181:89|201:41,1,82.5000031471254,2|0,0:0|0:0,0:0:0:0:
130,215,87930,2,0,P|87:215|39:195,1,82.5000031471254,0|0,0:0|0:0,0:0:0:0:
212,319,88103,6,0,B|203:379|203:379|167:343,1,82.5000031471254,8|0,0:0|0:0,0:0:0:0:
70,356,88450,2,0,P|121:376|195:359,1,123.750004720688,0|0,1:2|0:0,0:0:0:0:
310,274,88797,6,0,B|372:222|460:266|460:266|427:321|376:321,1,247.500009441376,2|0,1:2|0:0,0:0:0:0:
291,285,89143,2,0,L|282:173,1,82.5000031471254,0|0,0:0|0:0,0:0:0:0:
57,120,89317,2,0,L|48:232,1,82.5000031471254,2|0,1:2|0:0,0:0:0:0:
262,74,89490,5,0,0:0:0:0:
252,60,89577,1,0,0:0:0:0:
243,46,89664,2,0,P|186:32|157:40,1,82.5000031471254,0|0,0:0|0:0,0:0:0:0:
49,227,89837,2,0,B|116:277|204:217|204:217|170:259|185:322,1,247.500009441376,2|0,1:2|0:0,0:0:0:0:
291,285,90184,5,0,0:0:0:0:
164,37,90357,1,8,0:0:0:0:
98,342,90531,5,2,1:2:0:0:
347,150,90704,1,2,1:2:0:0:
23,89,90878,5,10,0:0:0:0:
213,379,91051,1,0,1:2:0:0:
354,62,91224,6,0,B|413:13|534:26|506:157|406:126,1,247.500009441376,2|0,0:0|0:0,0:0:0:0:
338,73,91571,5,0,0:0:0:0:
426,217,91745,1,8,0:0:0:0:
243,132,91918,2,0,B|187:114|187:114|128:138,1,115.49999647522,8|0,0:0|0:0,0:0:0:0:
191,200,92265,6,0,P|215:108|109:54,1,214.49999018097,8|0,0:0|0:0,0:0:0:0:
51,89,92612,6,0,P|86:124|134:135,1,98.9999969787599,4|0,1:2|0:0,0:0:0:0:
342,77,92785,6,0,B|425:20|498:89|498:89|444:85|398:125,1,247.500009441376,0|0,1:2|0:0,0:0:0:0:
318,196,93132,1,0,0:0:0:0:
305,206,93219,1,2,0:0:0:0:
292,217,93305,2,0,L|301:314,1,82.5000031471254,2|0,0:0|0:0,0:0:0:0:
126,217,93479,2,0,L|133:134,1,82.5000031471254,0|0,0:0|0:0,0:0:0:0:
164,327,93652,6,0,P|49:305|15:183,1,247.500009441376,10|2,0:0|0:0,0:0:0:0:
129,47,94346,6,0,B|148:110|148:110|126:217|126:217|192:159,1,247.500009441376,2|0,1:2|0:0,0:0:0:0:
299,66,94693,2,0,L|397:74,1,82.5000031471254,2|0,0:0|0:0,0:0:0:0:
486,191,94866,2,0,L|388:199,1,82.5000031471254,0|0,0:0|0:0,0:0:0:0:
242,281,95039,5,10,0:0:0:0:
226,288,95126,1,2,0:0:0:0:
212,296,95213,2,0,P|204:336|217:380,1,82.5000031471254,2|0,0:0|0:0,0:0:0:0:
401,283,95386,2,0,B|426:210|380:149|380:149|307:147|273:198,1,247.500009441376,0|0,1:2|0:0,0:0:0:0:
138,245,95733,6,0,L|43:241,1,82.5000031471254,2|0,0:0|0:0,0:0:0:0:
3,93,95906,2,0,L|98:89,1,82.5000031471254,10|2,0:0|0:0,0:0:0:0:
244,80,96080,1,2,1:2:0:0:
55,213,96253,1,0,1:2:0:0:
141,4,96427,5,10,0:0:0:0:
193,169,96600,1,2,1:2:0:0:
330,64,96774,2,0,P|374:61|450:116,1,123.750004720688,2|0,0:0|0:0,0:0:0:0:
455,120,97120,6,0,P|400:171|501:149,1,247.500009441376,2|0,1:2|0:0,0:0:0:0:
300,160,97467,2,0,L|207:167,1,82.5000031471254,2|0,0:0|0:0,0:0:0:0:
80,242,97641,2,0,L|173:249,1,82.5000031471254,2|0,0:0|0:0,0:0:0:0:
345,265,97814,5,10,0:0:0:0:
357,275,97901,1,2,0:0:0:0:
369,285,97987,2,0,P|377:331|370:375,1,82.5000031471254,2|0,0:0|0:0,0:0:0:0:
217,166,98161,2,0,B|189:1|189:1|249:62,1,247.500009441376,0|0,1:2|0:0,0:0:0:0:
221,185,98508,6,0,P|178:194|133:175,1,82.5000031471254,2|0,0:0|0:0,0:0:0:0:
359,66,98681,1,2,0:0:0:0:
373,59,98768,1,2,0:0:0:0:
387,51,98854,2,0,P|430:42|475:61,1,82.5000031471254,2|0,0:0|0:0,0:0:0:0:
325,157,99028,2,0,P|354:189|360:238,1,82.5000031471254,0|0,0:0|0:0,0:0:0:0:
272,305,99201,6,0,P|268:264|282:226,1,82.5000031471254,8|0,0:0|0:0,0:0:0:0:
330,356,99548,2,0,L|177:336,1,123.750004720688,0|0,1:2|0:0,0:0:0:0:
126,323,99895,6,0,L|114:239,1,82.5000031471254,2|0,1:2|0:0,0:0:0:0:
0,120,100068,1,0,0:0:0:0:
11,107,100155,1,0,0:0:0:0:
21,94,100242,2,0,L|9:175,1,82.5000031471254,0|0,0:0|0:0,0:0:0:0:
209,175,100415,2,0,L|197:94,1,82.5000031471254,2|0,1:2|0:0,0:0:0:0:
383,24,100589,5,0,0:0:0:0:
394,36,100675,1,0,0:0:0:0:
404,48,100762,2,0,L|485:36,1,82.5000031471254,0|0,0:0|0:0,0:0:0:0:
355,202,100935,2,0,B|282:236|209:175|209:175|252:223|230:276,1,247.500009441376,2|0,1:2|0:0,0:0:0:0:
126,251,101282,5,0,0:0:0:0:
428,164,101456,1,8,0:0:0:0:
239,360,101629,5,0,1:2:0:0:
163,98,101802,1,0,1:2:0:0:
390,317,101976,5,10,0:0:0:0:
428,164,102149,1,2,1:2:0:0:
314,54,102323,1,2,0:0:0:0:
163,98,102496,1,2,0:0:0:0:
376,304,102669,5,6,0:0:0:0:
410,166,102843,1,0,0:0:0:0:
308,67,103016,1,0,0:0:0:0:
172,107,103190,1,0,0:0:0:0:
352,281,103363,5,0,0:0:0:0:
379,171,103537,1,0,0:0:0:0:
297,92,103710,1,0,0:0:0:0:
189,124,103883,1,0,0:0:0:0:
323,254,104057,5,0,0:0:0:0:
342,177,104230,1,0,0:0:0:0:
285,122,104404,1,0,0:0:0:0:
209,144,104577,1,0,0:0:0:0:
296,229,104750,5,0,0:0:0:0:
307,183,104924,1,0,0:0:0:0:
273,150,105097,1,0,0:0:0:0:
227,163,105271,1,0,0:0:0:0:
276,210,105444,5,0,0:0:0:0:
281,187,105617,1,0,0:0:0:0:
264,171,105791,1,0,0:0:0:0:
241,177,105964,1,0,0:0:0:0:
266,201,106138,5,0,0:0:0:0:
268,189,106311,1,0,0:0:0:0:
260,181,106484,1,0,0:0:0:0:
248,184,106658,1,0,0:0:0:0:
