osu file format v14

[General]
AudioFilename: audio.mp3
AudioLeadIn: 0
PreviewTime: 87652
Countdown: 0
SampleSet: Normal
StackLeniency: 0.7
Mode: 1
LetterboxInBreaks: 0
WidescreenStoryboard: 0

[Editor]
Bookmarks: 325,22393,44462,66531,88600,110669,132738,154807,176876,198945
DistanceSpacing: 0.8
BeatDivisor: 4
GridSize: 16
TimelineZoom: 1.399999

[Metadata]
Title:Bittersweet (feat. Kuishinbo Akachan a.k.a. Kiato)
TitleUnicode:Bittersweet (feat. くいしんぼあかちゃん a.k.a. きあと)
Artist:Nakanojojo & Yunomi
ArtistUnicode:中野ジョジョ & Yunomi
Creator:komasy
Version:Muzukashii
Source:osu!
Tags:Featured Artist FA Mappers Guild Electronic ゆのみ Tolao J-POP Pop Kawaii
BeatmapID:2197173
BeatmapSetID:1050870

[Difficulty]
HPDrainRate:6.5
CircleSize:5
OverallDifficulty:5
ApproachRate:6.5
SliderMultiplier:1.4
SliderTickRate:1

[Events]
//Background and Video events
0,0,"bg.jpg",0,-20
//Break Periods
//Storyboard Layer 0 (Background)
//Storyboard Layer 1 (Fail)
//Storyboard Layer 2 (Pass)
//Storyboard Layer 3 (Foreground)
//Storyboard Layer 4 (Overlay)
//Storyboard Sound Samples

[TimingPoints]
325,344.827586206897,4,1,0,60,1,0
325,-111.111111111111,4,1,0,60,0,0
8600,-105.263157894737,4,1,0,60,0,0
11187,-103.092783505155,4,1,0,60,0,0
11359,-100,4,1,0,70,0,0
16876,-95.2380952380952,4,1,0,70,0,0
19635,-90.9090909090909,4,1,0,70,0,0
21014,-100,4,1,0,40,0,0
21962,-105.263157894737,4,1,0,70,0,0
22307,-111.111111111111,4,1,0,80,0,0
22393,-111.111111111111,4,1,0,80,0,1
32738,-108.695652173913,4,1,0,80,0,1
32997,-106.382978723404,4,1,0,80,0,1
33083,-104.166666666667,4,1,0,80,0,1
33256,-102.040816326531,4,1,0,80,0,1
33428,-100,4,1,0,80,0,1
44376,-100,4,1,0,70,0,1
44462,-100,4,1,0,70,0,0
66531,-105.263157894737,4,1,0,60,0,0
66618,-111.111111111111,4,1,0,60,0,0
76531,-109.89010989011,4,1,0,60,0,0
76704,-108.695652173913,4,1,0,60,0,0
76876,-107.52688172043,4,1,0,60,0,0
77049,-106.382978723404,4,1,0,60,0,0
77135,-105.263157894737,4,1,0,60,0,0
77221,-104.166666666667,4,1,0,60,0,0
77566,-100,4,1,0,70,0,0
83083,-95.2380952380952,4,1,0,70,0,0
85842,-90.9090909090909,4,1,0,70,0,0
87049,-95.2380952380952,4,1,0,70,0,0
87221,-100,4,1,0,60,0,0
88514,-100,4,1,0,80,0,0
88600,-100,4,1,0,80,0,1
110669,-100,4,1,0,70,0,0
121704,-90.9090909090909,4,1,0,70,0,0
132738,-100,4,1,0,70,0,0
132825,-133.333333333333,4,1,0,20,0,0
143687,-125,4,1,0,50,0,0
153859,-123.456790123457,4,1,0,30,0,0
154031,-121.951219512195,4,1,0,40,0,0
154204,-119.047619047619,4,1,0,40,0,0
154376,-116.279069767442,4,1,0,50,0,0
154549,-113.636363636364,4,1,0,50,0,0
154721,-111.111111111111,4,1,0,60,0,0
165497,-106.382978723404,4,1,0,60,0,0
165669,-103.092783505155,4,1,0,60,0,0
165842,-100,4,1,0,70,0,0
171359,-95.2380952380952,4,1,0,70,0,0
173945,-93.0232558139535,4,1,0,70,0,0
174118,-90.9090909090909,4,1,0,70,0,0
174204,-100,4,1,0,60,0,0
175497,-105.263157894737,4,1,0,60,0,0
176790,-111.111111111111,4,1,0,80,0,0
176876,-111.111111111111,4,1,0,80,0,1
181014,-105.263157894737,4,1,0,80,0,0
182393,-100,4,1,0,80,0,1
187911,-100,4,1,0,80,0,0
188256,-90.9090909090909,4,1,0,80,0,1
198600,-90.9090909090909,4,1,0,80,0,0
198945,-111.111111111111,4,1,0,80,0,1
209980,-111.111111111111,4,1,0,80,0,0
211014,-105.263157894737,4,1,0,80,0,0
211187,-100,4,1,0,80,0,1
215497,-95.2380952380952,4,1,0,80,0,1
218256,-90.9090909090909,4,1,0,80,0,1
221014,-90.9090909090909,4,1,0,80,0,0
221100,-100,4,1,0,20,0,0
221790,-111.111111111111,4,1,0,20,0,0
222480,-125,4,1,0,20,0,0

[HitObjects]
377,232,325,5,0,0:0:0:0:
377,232,842,1,0,0:0:0:0:
377,232,1014,1,8,0:0:0:0:
377,232,1187,1,0,0:0:0:0:
377,232,1531,1,8,0:0:0:0:
371,185,2393,1,0,0:0:0:0:
371,205,3083,1,0,0:0:0:0:
371,205,3600,1,0,0:0:0:0:
371,205,3773,1,8,0:0:0:0:
371,205,3945,1,0,0:0:0:0:
371,205,4290,1,8,0:0:0:0:
472,276,4980,1,0,0:0:0:0:
472,276,5152,1,8,0:0:0:0:
478,277,5497,1,8,0:0:0:0:
451,216,5583,1,8,0:0:0:0:
478,277,5669,1,8,0:0:0:0:
378,148,5842,1,0,0:0:0:0:
398,205,6359,1,0,0:0:0:0:
256,186,6531,1,8,0:0:0:0:
384,194,6704,1,0,0:0:0:0:
451,210,7049,1,8,0:0:0:0:
427,165,7738,1,0,0:0:0:0:
427,165,7911,1,8,0:0:0:0:
410,153,8256,1,0,0:0:0:0:
449,131,8600,1,4,0:0:0:0:
449,131,9118,1,4,0:0:0:0:
449,131,9290,1,8,0:0:0:0:
449,131,9462,1,4,0:0:0:0:
449,131,9807,1,12,0:0:0:0:
450,263,10497,1,4,0:0:0:0:
393,161,11014,1,0,0:0:0:0:
393,161,11187,1,0,0:0:0:0:
395,154,11359,1,8,0:0:0:0:
367,174,11704,1,8,0:0:0:0:
391,194,12049,1,8,0:0:0:0:
398,213,12393,1,8,0:0:0:0:
404,165,12566,1,0,0:0:0:0:
398,214,12738,1,8,0:0:0:0:
398,214,13083,1,8,0:0:0:0:
363,152,13428,1,8,0:0:0:0:
363,152,13773,1,0,0:0:0:0:
351,161,13945,1,0,0:0:0:0:
395,154,14118,1,8,0:0:0:0:
367,174,14462,1,8,0:0:0:0:
391,194,14807,1,8,0:0:0:0:
398,213,15152,1,8,0:0:0:0:
364,173,15325,1,0,0:0:0:0:
398,214,15497,1,8,0:0:0:0:
398,214,15842,1,8,0:0:0:0:
363,152,16187,1,8,0:0:0:0:
363,152,16531,1,12,0:0:0:0:
351,161,16876,1,4,0:0:0:0:
278,115,17393,1,8,0:0:0:0:
278,115,17566,1,4,0:0:0:0:
278,115,17911,1,8,0:0:0:0:
358,153,18256,1,4,0:0:0:0:
359,120,18600,1,8,0:0:0:0:
358,153,18773,1,8,0:0:0:0:
358,153,18945,1,4,0:0:0:0:
358,153,19118,1,8,0:0:0:0:
229,178,19462,1,0,0:0:0:0:
358,153,19635,1,0,0:0:0:0:
323,205,19807,1,8,0:0:0:0:
286,141,19893,1,8,0:0:0:0:
323,205,19980,1,8,0:0:0:0:
323,205,20152,1,0,0:0:0:0:
324,185,20325,1,8,0:0:0:0:
324,185,20497,1,0,0:0:0:0:
324,185,20842,1,4,0:0:0:0:
307,177,22049,1,12,0:0:0:0:
322,179,22393,1,4,0:0:0:0:
339,194,22911,1,0,0:0:0:0:
339,194,23083,1,8,0:0:0:0:
316,111,23428,1,0,0:0:0:0:
316,111,23600,1,0,0:0:0:0:
347,194,23945,1,8,0:0:0:0:
347,194,24118,1,0,0:0:0:0:
338,201,24462,1,8,0:0:0:0:
338,201,24807,1,0,0:0:0:0:
338,201,25152,1,0,0:0:0:0:
327,176,25669,1,0,0:0:0:0:
327,176,25842,1,8,0:0:0:0:
327,176,26187,1,0,0:0:0:0:
327,176,26359,1,8,0:0:0:0:
327,176,26704,1,8,0:0:0:0:
327,176,26876,1,0,0:0:0:0:
327,176,27221,1,12,0:0:0:0:
376,190,27566,1,8,0:0:0:0:
376,190,27738,1,8,0:0:0:0:
322,179,27911,1,4,0:0:0:0:
339,194,28428,1,0,0:0:0:0:
339,194,28600,1,8,0:0:0:0:
339,194,28945,1,0,0:0:0:0:
347,195,29118,1,0,0:0:0:0:
347,194,29462,1,8,0:0:0:0:
347,194,29635,1,0,0:0:0:0:
338,201,29980,1,8,0:0:0:0:
338,201,30325,1,0,0:0:0:0:
338,201,30669,1,0,0:0:0:0:
327,176,31187,1,0,0:0:0:0:
327,176,31359,1,8,0:0:0:0:
327,176,31704,1,0,0:0:0:0:
327,176,31876,1,8,0:0:0:0:
249,130,32221,1,8,0:0:0:0:
327,176,32393,1,0,0:0:0:0:
327,176,32738,1,12,0:0:0:0:
376,170,32997,1,8,0:0:0:0:
362,157,33083,1,8,0:0:0:0:
362,157,33256,1,8,0:0:0:0:
328,118,33428,1,4,0:0:0:0:
322,148,33773,1,8,0:0:0:0:
282,164,34290,1,0,0:0:0:0:
340,173,34462,1,8,0:0:0:0:
340,173,34807,1,0,0:0:0:0:
288,157,35152,1,8,0:0:0:0:
288,157,35325,1,8,0:0:0:0:
300,107,35411,1,8,0:0:0:0:
300,107,35497,1,8,0:0:0:0:
340,173,35669,1,0,0:0:0:0:
364,125,35842,1,8,0:0:0:0:
364,125,36187,1,0,0:0:0:0:
322,148,36531,1,8,0:0:0:0:
293,112,36876,1,8,0:0:0:0:
307,102,37049,1,0,0:0:0:0:
340,173,37221,1,8,0:0:0:0:
340,173,37566,1,0,0:0:0:0:
288,157,37911,1,8,0:0:0:0:
282,80,38083,1,0,0:0:0:0:
282,80,38169,1,0,0:0:0:0:
287,157,38256,1,0,0:0:0:0:
340,173,38428,1,0,0:0:0:0:
364,125,38600,1,12,0:0:0:0:
328,118,38945,1,0,0:0:0:0:
322,148,39290,1,8,0:0:0:0:
282,164,39807,1,0,0:0:0:0:
340,173,39980,1,8,0:0:0:0:
340,173,40325,1,0,0:0:0:0:
288,157,40669,1,8,0:0:0:0:
288,157,40842,1,8,0:0:0:0:
202,96,40928,1,8,0:0:0:0:
210,100,41014,1,8,0:0:0:0:
340,173,41187,1,0,0:0:0:0:
364,125,41359,1,8,0:0:0:0:
364,125,41704,1,0,0:0:0:0:
322,148,42049,1,8,0:0:0:0:
282,164,42393,1,8,0:0:0:0:
282,164,42566,1,0,0:0:0:0:
340,173,42738,1,8,0:0:0:0:
287,157,43083,1,0,0:0:0:0:
288,157,43428,1,8,0:0:0:0:
288,157,43600,1,0,0:0:0:0:
287,157,43687,1,0,0:0:0:0:
287,157,43773,1,0,0:0:0:0:
340,173,43945,1,0,0:0:0:0:
364,125,44118,1,12,0:0:0:0:
364,125,44462,1,4,0:0:0:0:
316,132,44807,1,8,0:0:0:0:
316,132,45325,1,0,0:0:0:0:
316,132,45497,1,8,0:0:0:0:
316,132,45669,1,0,0:0:0:0:
380,154,46187,1,8,0:0:0:0:
339,173,46531,1,0,0:0:0:0:
339,173,46876,1,8,0:0:0:0:
313,147,47221,1,0,0:0:0:0:
383,154,47566,1,8,0:0:0:0:
333,138,48083,1,0,0:0:0:0:
333,138,48256,1,8,0:0:0:0:
333,138,48428,1,0,0:0:0:0:
333,138,48945,1,8,0:0:0:0:
408,229,49290,1,0,0:0:0:0:
408,229,49462,1,0,0:0:0:0:
408,229,49635,1,12,0:0:0:0:
375,186,49980,1,0,0:0:0:0:
375,186,50325,1,8,0:0:0:0:
362,213,50842,1,0,0:0:0:0:
362,213,51014,1,8,0:0:0:0:
307,202,51187,1,0,0:0:0:0:
311,200,51704,1,8,0:0:0:0:
398,172,52049,1,0,0:0:0:0:
316,193,52393,1,8,0:0:0:0:
262,19,52738,1,4,0:0:0:0:
349,111,53600,1,12,0:0:0:0:
349,111,53945,1,4,0:0:0:0:
188,125,54635,1,4,0:0:0:0:
444,217,55152,1,12,0:0:0:0:
462,169,55497,1,4,0:0:0:0:
378,125,55842,1,8,0:0:0:0:
398,134,56359,1,0,0:0:0:0:
398,134,56531,1,8,0:0:0:0:
403,134,56704,1,0,0:0:0:0:
343,157,57221,1,8,0:0:0:0:
297,139,57566,1,8,0:0:0:0:
343,157,57738,1,0,0:0:0:0:
266,156,57911,1,8,0:0:0:0:
462,169,58256,1,0,0:0:0:0:
378,125,58600,1,8,0:0:0:0:
349,163,58773,1,0,0:0:0:0:
398,134,59118,1,0,0:0:0:0:
398,134,59290,1,8,0:0:0:0:
403,134,59462,1,0,0:0:0:0:
343,157,59980,1,8,0:0:0:0:
343,157,60325,1,0,0:0:0:0:
343,157,60497,1,0,0:0:0:0:
266,156,60669,1,12,0:0:0:0:
462,169,61014,1,4,0:0:0:0:
378,125,61359,1,8,0:0:0:0:
398,134,61876,1,0,0:0:0:0:
398,134,62049,1,8,0:0:0:0:
403,134,62221,1,0,0:0:0:0:
343,157,62738,1,8,0:0:0:0:
343,157,63083,1,8,0:0:0:0:
343,157,63256,1,0,0:0:0:0:
266,156,63428,1,8,0:0:0:0:
462,169,63773,1,4,0:0:0:0:
378,125,64118,1,8,0:0:0:0:
349,163,64290,1,0,0:0:0:0:
398,134,64635,1,12,0:0:0:0:
403,134,64980,1,4,0:0:0:0:
343,157,65497,1,8,0:0:0:0:
343,157,65669,1,4,0:0:0:0:
333,140,66014,1,0,0:0:0:0:
284,132,66187,1,12,0:0:0:0:
311,119,66531,1,4,0:0:0:0:
368,166,67221,1,8,0:0:0:0:
488,225,68600,1,8,0:0:0:0:
504,216,68945,1,0,0:0:0:0:
504,216,69118,1,0,0:0:0:0:
504,216,69290,1,0,0:0:0:0:
297,151,69980,1,8,0:0:0:0:
322,100,71359,1,8,0:0:0:0:
322,100,71618,1,0,0:0:0:0:
300,105,71704,1,0,0:0:0:0:
415,181,72049,1,4,0:0:0:0:
420,181,72738,1,8,0:0:0:0:
433,210,74118,1,8,0:0:0:0:
433,210,74462,1,0,0:0:0:0:
433,210,74635,1,0,0:0:0:0:
433,210,74807,1,0,0:0:0:0:
468,239,75152,1,8,0:0:0:0:
322,164,75325,1,0,0:0:0:0:
322,164,75497,1,8,0:0:0:0:
332,159,75669,1,8,0:0:0:0:
332,159,76014,1,8,0:0:0:0:
332,159,76187,1,0,0:0:0:0:
332,159,76531,1,8,0:0:0:0:
276,156,76704,1,0,0:0:0:0:
282,148,76876,1,8,0:0:0:0:
282,148,77049,1,0,0:0:0:0:
282,148,77135,1,0,0:0:0:0:
282,148,77221,1,0,0:0:0:0:
267,100,77566,1,12,0:0:0:0:
257,157,77911,1,8,0:0:0:0:
257,157,78256,1,8,0:0:0:0:
270,145,78428,1,0,0:0:0:0:
411,98,78600,1,8,0:0:0:0:
270,145,78945,1,8,0:0:0:0:
420,121,79290,1,8,0:0:0:0:
353,166,79462,1,0,0:0:0:0:
353,166,79635,1,8,0:0:0:0:
364,147,79980,1,0,0:0:0:0:
364,147,80152,1,0,0:0:0:0:
267,100,80325,1,8,0:0:0:0:
257,157,80669,1,8,0:0:0:0:
257,157,81014,1,8,0:0:0:0:
229,91,81187,1,0,0:0:0:0:
411,98,81359,1,8,0:0:0:0:
270,145,81704,1,8,0:0:0:0:
420,121,82049,1,8,0:0:0:0:
353,166,82221,1,0,0:0:0:0:
353,166,82393,1,8,0:0:0:0:
364,147,82738,1,12,0:0:0:0:
306,152,83083,1,4,0:0:0:0:
358,161,83600,1,8,0:0:0:0:
358,161,83773,1,4,0:0:0:0:
358,161,84118,1,8,0:0:0:0:
358,161,84462,1,4,0:0:0:0:
266,138,84635,1,8,0:0:0:0:
266,138,84980,1,8,0:0:0:0:
266,138,85152,1,4,0:0:0:0:
266,138,85497,1,8,0:0:0:0:
266,138,85669,1,0,0:0:0:0:
266,138,85842,1,0,0:0:0:0:
266,138,86014,1,8,0:0:0:0:
266,138,86100,1,8,0:0:0:0:
266,138,86187,1,8,0:0:0:0:
266,138,86359,1,8,0:0:0:0:
266,138,86531,1,0,0:0:0:0:
266,138,86704,1,8,0:0:0:0:
266,138,87049,1,8,0:0:0:0:
286,140,87221,1,4,0:0:0:0:
443,122,87911,1,0,0:0:0:0:
443,122,88083,1,0,0:0:0:0:
328,128,88256,1,12,0:0:0:0:
328,128,88600,1,4,0:0:0:0:
384,175,88945,1,8,0:0:0:0:
254,145,89290,1,0,0:0:0:0:
356,155,89462,1,0,0:0:0:0:
356,155,89635,1,8,0:0:0:0:
356,155,89807,1,0,0:0:0:0:
367,154,90325,1,8,0:0:0:0:
421,196,90669,1,0,0:0:0:0:
453,237,90842,1,0,0:0:0:0:
340,172,91014,1,8,0:0:0:0:
317,96,91187,1,0,0:0:0:0:
307,100,91359,1,0,0:0:0:0:
349,171,91704,1,8,0:0:0:0:
358,187,92049,1,8,0:0:0:0:
359,187,92221,1,0,0:0:0:0:
359,186,92393,1,8,0:0:0:0:
371,167,92566,1,0,0:0:0:0:
317,128,92652,1,0,0:0:0:0:
240,143,92738,1,0,0:0:0:0:
298,94,93083,1,8,0:0:0:0:
298,94,93256,1,0,0:0:0:0:
301,161,93428,1,0,0:0:0:0:
303,127,93773,1,12,0:0:0:0:
328,128,94118,1,4,0:0:0:0:
384,175,94462,1,8,0:0:0:0:
434,203,94635,1,0,0:0:0:0:
356,155,95152,1,8,0:0:0:0:
356,155,95497,1,0,0:0:0:0:
367,154,95842,1,8,0:0:0:0:
313,156,96187,1,0,0:0:0:0:
313,156,96273,1,0,0:0:0:0:
421,196,96359,1,0,0:0:0:0:
340,172,96531,1,8,0:0:0:0:
340,172,96876,1,4,0:0:0:0:
349,171,97221,1,8,0:0:0:0:
359,187,97393,1,4,0:0:0:0:
359,187,97738,1,0,0:0:0:0:
240,143,98083,1,12,0:0:0:0:
279,146,98428,1,8,0:0:0:0:
298,94,98773,1,4,0:0:0:0:
320,125,99290,1,8,0:0:0:0:
328,128,99635,1,4,0:0:0:0:
384,175,99980,1,8,0:0:0:0:
299,131,100066,1,8,0:0:0:0:
299,131,100152,1,8,0:0:0:0:
254,145,100325,1,0,0:0:0:0:
356,155,100497,1,0,0:0:0:0:
356,155,100669,1,8,0:0:0:0:
356,155,100842,1,0,0:0:0:0:
367,154,101359,1,8,0:0:0:0:
421,196,101704,1,0,0:0:0:0:
453,237,101876,1,0,0:0:0:0:
340,172,102049,1,8,0:0:0:0:
317,96,102221,1,0,0:0:0:0:
307,100,102393,1,0,0:0:0:0:
349,171,102738,1,8,0:0:0:0:
358,187,103083,1,8,0:0:0:0:
359,187,103256,1,0,0:0:0:0:
359,186,103428,1,8,0:0:0:0:
371,167,103600,1,0,0:0:0:0:
317,128,103687,1,0,0:0:0:0:
240,143,103773,1,0,0:0:0:0:
298,94,104118,1,8,0:0:0:0:
298,94,104290,1,0,0:0:0:0:
301,161,104462,1,0,0:0:0:0:
303,127,104807,1,12,0:0:0:0:
328,128,105152,1,4,0:0:0:0:
384,175,105497,1,8,0:0:0:0:
434,203,105669,5,8,0:0:0:0:
197,93,105842,1,0,0:0:0:0:
356,155,106187,1,8,0:0:0:0:
264,103,106531,1,0,0:0:0:0:
395,99,106704,1,0,0:0:0:0:
264,128,106876,1,8,0:0:0:0:
298,116,107049,1,8,0:0:0:0:
327,132,107221,1,0,0:0:0:0:
340,172,107566,1,8,0:0:0:0:
340,172,107911,1,4,0:0:0:0:
319,125,108256,1,8,0:0:0:0:
209,29,108600,1,0,0:0:0:0:
307,71,108773,1,8,0:0:0:0:
307,71,108859,1,8,0:0:0:0:
209,29,108945,1,8,0:0:0:0:
178,107,109290,1,4,0:0:0:0:
274,134,109635,1,8,0:0:0:0:
274,134,109807,5,8,0:0:0:0:
264,117,109980,1,0,0:0:0:0:
238,94,110152,1,0,0:0:0:0:
238,94,110238,1,0,0:0:0:0:
320,125,110325,1,8,0:0:0:0:
364,125,110669,5,4,0:0:0:0:
316,132,111014,1,8,0:0:0:0:
316,132,111531,1,0,0:0:0:0:
316,132,111704,1,8,0:0:0:0:
316,132,111876,1,0,0:0:0:0:
380,154,112393,1,8,0:0:0:0:
339,173,112738,1,0,0:0:0:0:
339,173,113083,1,8,0:0:0:0:
313,147,113428,1,0,0:0:0:0:
383,154,113773,1,8,0:0:0:0:
333,138,114290,1,0,0:0:0:0:
333,138,114462,1,8,0:0:0:0:
333,138,114635,1,0,0:0:0:0:
333,138,115152,1,8,0:0:0:0:
408,229,115497,1,0,0:0:0:0:
408,229,115669,1,0,0:0:0:0:
408,229,115842,1,12,0:0:0:0:
375,186,116187,1,0,0:0:0:0:
375,186,116531,1,8,0:0:0:0:
362,213,117049,1,0,0:0:0:0:
362,213,117221,1,8,0:0:0:0:
307,202,117393,1,0,0:0:0:0:
311,200,117911,1,8,0:0:0:0:
398,172,118256,1,0,0:0:0:0:
316,193,118600,1,8,0:0:0:0:
262,19,118945,5,4,0:0:0:0:
349,111,119807,5,12,0:0:0:0:
349,111,120152,1,12,0:0:0:0:
289,136,120325,1,0,0:0:0:0:
396,187,120554,1,8,0:0:0:0:
188,125,120784,1,8,0:0:0:0:
444,217,121014,1,8,0:0:0:0:
444,217,121359,1,0,0:0:0:0:
462,169,121704,1,4,0:0:0:0:
378,125,122049,1,8,0:0:0:0:
380,189,122221,1,0,0:0:0:0:
398,134,122566,1,0,0:0:0:0:
398,134,122738,1,8,0:0:0:0:
403,134,122911,1,8,0:0:0:0:
400,144,123083,1,0,0:0:0:0:
343,157,123428,1,8,0:0:0:0:
343,157,123600,1,0,0:0:0:0:
342,203,123773,1,0,0:0:0:0:
384,159,124118,1,8,0:0:0:0:
411,152,124462,1,0,0:0:0:0:
378,125,124807,1,8,0:0:0:0:
349,163,124980,1,0,0:0:0:0:
398,134,125497,1,8,0:0:0:0:
403,134,125669,1,0,0:0:0:0:
396,227,125842,1,8,0:0:0:0:
343,157,126187,1,8,0:0:0:0:
343,157,126359,1,0,0:0:0:0:
263,176,126531,1,0,0:0:0:0:
266,156,126876,1,12,0:0:0:0:
462,169,127221,1,4,0:0:0:0:
378,125,127566,1,8,0:0:0:0:
318,123,127738,1,0,0:0:0:0:
398,134,128083,1,0,0:0:0:0:
398,134,128256,1,8,0:0:0:0:
403,134,128428,1,0,0:0:0:0:
322,152,128600,1,0,0:0:0:0:
343,157,128945,1,8,0:0:0:0:
343,157,129118,1,0,0:0:0:0:
316,64,129462,1,0,0:0:0:0:
266,156,129635,1,8,0:0:0:0:
462,169,129980,1,4,0:0:0:0:
378,125,130325,1,0,0:0:0:0:
325,128,130669,1,0,0:0:0:0:
398,134,130842,1,12,0:0:0:0:
403,134,131187,1,12,0:0:0:0:
286,125,131531,1,8,0:0:0:0:
286,125,131704,1,0,0:0:0:0:
343,157,131876,1,12,0:0:0:0:
324,153,132221,1,0,0:0:0:0:
284,132,132393,1,12,0:0:0:0:
311,119,132738,1,4,0:0:0:0:
416,245,134118,1,0,0:0:0:0:
416,245,134807,1,8,0:0:0:0:
416,245,135152,1,8,0:0:0:0:
427,247,135497,1,0,0:0:0:0:
427,247,136876,1,0,0:0:0:0:
427,247,137566,1,8,0:0:0:0:
427,247,137911,1,8,0:0:0:0:
427,247,138256,1,0,0:0:0:0:
431,247,139635,1,0,0:0:0:0:
435,247,140325,1,8,0:0:0:0:
440,246,140669,1,8,0:0:0:0:
449,245,140842,1,8,0:0:0:0:
440,246,141014,1,0,0:0:0:0:
440,253,141704,1,0,0:0:0:0:
333,183,142393,1,0,0:0:0:0:
256,192,142566,12,0,143428,0:0:0:0:
429,165,143773,5,0,0:0:0:0:
336,177,144118,1,0,0:0:0:0:
433,165,144462,1,8,0:0:0:0:
316,152,145152,1,0,0:0:0:0:
440,265,145325,1,0,0:0:0:0:
440,265,145497,1,0,0:0:0:0:
440,265,145669,1,8,0:0:0:0:
248,87,145842,1,0,0:0:0:0:
306,161,146359,1,8,0:0:0:0:
321,161,146531,1,0,0:0:0:0:
357,181,146704,1,0,0:0:0:0:
357,181,146876,1,8,0:0:0:0:
357,181,147221,1,8,0:0:0:0:
384,184,147393,1,8,0:0:0:0:
384,184,147738,1,8,0:0:0:0:
388,183,147911,1,0,0:0:0:0:
451,238,148256,1,0,0:0:0:0:
451,238,148428,1,0,0:0:0:0:
291,159,148600,1,8,0:0:0:0:
334,165,148945,1,8,0:0:0:0:
343,159,149118,1,8,0:0:0:0:
387,174,149290,1,0,0:0:0:0:
413,143,149635,1,8,0:0:0:0:
413,143,149980,1,8,0:0:0:0:
409,159,150152,1,0,0:0:0:0:
298,136,150325,1,8,0:0:0:0:
431,159,150669,1,0,0:0:0:0:
382,247,151014,1,0,0:0:0:0:
402,247,151187,1,0,0:0:0:0:
413,245,151359,1,8,0:0:0:0:
241,114,151704,1,0,0:0:0:0:
442,247,152049,1,8,0:0:0:0:
344,199,152738,1,8,0:0:0:0:
420,196,153083,1,0,0:0:0:0:
416,196,153256,1,8,0:0:0:0:
336,137,153428,1,0,0:0:0:0:
370,215,153945,1,0,0:0:0:0:
430,177,154118,1,8,0:0:0:0:
430,177,154290,1,8,0:0:0:0:
430,177,154462,1,8,0:0:0:0:
430,177,154635,1,8,0:0:0:0:
299,153,154807,1,0,0:0:0:0:
330,153,155152,1,0,0:0:0:0:
330,153,155497,1,8,0:0:0:0:
333,156,156187,1,0,0:0:0:0:
422,294,156531,1,0,0:0:0:0:
422,294,156876,1,8,0:0:0:0:
369,172,157221,1,0,0:0:0:0:
369,172,157393,1,0,0:0:0:0:
299,153,157566,1,0,0:0:0:0:
407,238,157911,1,0,0:0:0:0:
407,238,158256,1,8,0:0:0:0:
407,238,158945,1,0,0:0:0:0:
422,294,159290,1,0,0:0:0:0:
422,294,159635,1,8,0:0:0:0:
369,172,159980,1,0,0:0:0:0:
369,172,160152,1,0,0:0:0:0:
299,153,160325,1,0,0:0:0:0:
330,153,160669,1,0,0:0:0:0:
330,153,161014,1,8,0:0:0:0:
333,156,161704,1,0,0:0:0:0:
309,134,161876,1,8,0:0:0:0:
252,101,162221,1,0,0:0:0:0:
422,294,162393,1,8,0:0:0:0:
369,172,162738,1,0,0:0:0:0:
369,172,162911,1,0,0:0:0:0:
299,153,163083,1,0,0:0:0:0:
407,238,163428,1,0,0:0:0:0:
407,238,163773,1,8,0:0:0:0:
407,238,164462,1,0,0:0:0:0:
268,130,164635,1,8,0:0:0:0:
422,294,164807,1,8,0:0:0:0:
309,181,164980,1,0,0:0:0:0:
422,294,165152,1,8,0:0:0:0:
369,172,165497,1,0,0:0:0:0:
369,172,165669,1,0,0:0:0:0:
267,100,165842,1,12,0:0:0:0:
257,157,166187,1,8,0:0:0:0:
257,157,166531,1,8,0:0:0:0:
270,145,166704,1,0,0:0:0:0:
411,98,166876,1,8,0:0:0:0:
270,145,167221,1,8,0:0:0:0:
420,121,167566,1,8,0:0:0:0:
353,166,167738,1,0,0:0:0:0:
353,166,167911,1,8,0:0:0:0:
364,147,168256,1,0,0:0:0:0:
364,147,168428,1,0,0:0:0:0:
267,100,168600,1,8,0:0:0:0:
257,157,168945,1,8,0:0:0:0:
257,157,169290,1,8,0:0:0:0:
229,91,169462,1,0,0:0:0:0:
411,98,169635,1,8,0:0:0:0:
270,145,169980,1,8,0:0:0:0:
420,121,170325,1,8,0:0:0:0:
353,166,170497,1,0,0:0:0:0:
353,166,170669,1,8,0:0:0:0:
364,147,171014,1,12,0:0:0:0:
306,152,171359,1,4,0:0:0:0:
358,161,171704,1,8,0:0:0:0:
358,161,171876,1,8,0:0:0:0:
358,161,172049,1,4,0:0:0:0:
358,161,172393,1,8,0:0:0:0:
358,161,172738,1,4,0:0:0:0:
266,138,172911,1,8,0:0:0:0:
266,138,173256,1,8,0:0:0:0:
266,138,173428,1,4,0:0:0:0:
266,138,173773,1,8,0:0:0:0:
266,138,173945,5,0,0:0:0:0:
266,138,174118,1,4,0:0:0:0:
309,99,175152,1,0,0:0:0:0:
290,52,175325,1,12,0:0:0:0:
298,107,175669,1,8,0:0:0:0:
298,107,175842,1,8,0:0:0:0:
452,249,176187,1,0,0:0:0:0:
298,120,176359,1,0,0:0:0:0:
452,249,176531,1,12,0:0:0:0:
485,310,176876,1,4,0:0:0:0:
378,223,177566,1,8,0:0:0:0:
400,174,177911,1,8,0:0:0:0:
400,174,178083,1,4,0:0:0:0:
437,220,178428,1,0,0:0:0:0:
487,236,178600,1,0,0:0:0:0:
372,154,178945,1,8,0:0:0:0:
372,154,179290,1,8,0:0:0:0:
436,190,179462,1,4,0:0:0:0:
429,207,179980,1,8,0:0:0:0:
430,233,180325,1,0,0:0:0:0:
430,233,180669,1,8,0:0:0:0:
430,233,180842,1,4,0:0:0:0:
287,182,181187,1,8,0:0:0:0:
297,210,181273,1,8,0:0:0:0:
287,182,181359,1,8,0:0:0:0:
297,210,181531,1,8,0:0:0:0:
297,210,181704,1,8,0:0:0:0:
315,196,182049,1,8,0:0:0:0:
328,128,182393,1,4,0:0:0:0:
384,175,182738,1,8,0:0:0:0:
434,203,182911,1,0,0:0:0:0:
356,155,183428,1,8,0:0:0:0:
356,155,183773,1,0,0:0:0:0:
367,154,184118,1,8,0:0:0:0:
313,156,184462,1,0,0:0:0:0:
313,156,184549,1,0,0:0:0:0:
421,196,184635,1,0,0:0:0:0:
340,172,184807,1,8,0:0:0:0:
340,172,185152,1,4,0:0:0:0:
349,171,185497,1,8,0:0:0:0:
359,187,185669,1,4,0:0:0:0:
359,187,186014,1,0,0:0:0:0:
240,143,186359,1,12,0:0:0:0:
279,146,186704,1,8,0:0:0:0:
298,94,187049,1,4,0:0:0:0:
320,125,187566,1,8,0:0:0:0:
328,128,187911,1,0,0:0:0:0:
384,175,188256,1,12,0:0:0:0:
299,131,188428,1,0,0:0:0:0:
299,131,188514,1,0,0:0:0:0:
254,145,188600,1,0,0:0:0:0:
356,155,188773,1,0,0:0:0:0:
356,155,188945,1,8,0:0:0:0:
356,155,189118,1,0,0:0:0:0:
367,154,189635,1,8,0:0:0:0:
421,196,189980,1,0,0:0:0:0:
453,237,190152,1,0,0:0:0:0:
340,172,190325,1,8,0:0:0:0:
317,96,190497,1,0,0:0:0:0:
307,100,190669,1,0,0:0:0:0:
349,171,191014,1,8,0:0:0:0:
358,187,191359,1,8,0:0:0:0:
359,187,191531,1,0,0:0:0:0:
359,186,191704,1,8,0:0:0:0:
371,167,191876,1,0,0:0:0:0:
317,128,191962,1,0,0:0:0:0:
240,143,192049,1,0,0:0:0:0:
298,94,192393,1,8,0:0:0:0:
298,94,192566,1,0,0:0:0:0:
301,161,192738,1,0,0:0:0:0:
303,127,193083,1,12,0:0:0:0:
328,128,193428,1,4,0:0:0:0:
384,175,193773,1,8,0:0:0:0:
434,203,193945,5,8,0:0:0:0:
197,93,194118,1,0,0:0:0:0:
356,155,194462,1,8,0:0:0:0:
264,103,194807,1,0,0:0:0:0:
395,99,194980,1,0,0:0:0:0:
264,128,195152,1,8,0:0:0:0:
298,116,195325,1,8,0:0:0:0:
327,132,195497,1,0,0:0:0:0:
340,172,195842,1,8,0:0:0:0:
340,172,196187,1,4,0:0:0:0:
319,125,196531,1,8,0:0:0:0:
317,79,196704,1,8,0:0:0:0:
209,29,196876,1,0,0:0:0:0:
307,71,197049,1,8,0:0:0:0:
307,71,197135,1,8,0:0:0:0:
209,29,197221,1,8,0:0:0:0:
178,107,197566,1,4,0:0:0:0:
274,134,197911,1,8,0:0:0:0:
274,134,198083,5,8,0:0:0:0:
264,117,198256,1,0,0:0:0:0:
238,94,198428,1,0,0:0:0:0:
238,94,198514,5,0,0:0:0:0:
320,125,198600,1,8,0:0:0:0:
322,179,198945,1,4,0:0:0:0:
339,194,199462,1,0,0:0:0:0:
339,194,199635,1,8,0:0:0:0:
316,111,199980,1,0,0:0:0:0:
316,111,200152,1,0,0:0:0:0:
347,194,200497,1,8,0:0:0:0:
347,194,200669,1,0,0:0:0:0:
338,201,201014,1,8,0:0:0:0:
338,201,201359,1,0,0:0:0:0:
338,201,201704,1,0,0:0:0:0:
327,176,202221,1,0,0:0:0:0:
327,176,202393,1,8,0:0:0:0:
327,176,202738,1,0,0:0:0:0:
327,176,202911,1,8,0:0:0:0:
327,176,203256,1,8,0:0:0:0:
327,176,203428,1,0,0:0:0:0:
327,176,203773,1,12,0:0:0:0:
376,190,204118,1,8,0:0:0:0:
376,190,204290,1,8,0:0:0:0:
322,179,204462,1,4,0:0:0:0:
339,194,204980,1,0,0:0:0:0:
339,194,205152,1,8,0:0:0:0:
339,194,205497,1,0,0:0:0:0:
347,195,205669,1,0,0:0:0:0:
347,194,206014,1,8,0:0:0:0:
347,194,206187,1,0,0:0:0:0:
338,201,206531,1,8,0:0:0:0:
338,201,206876,1,0,0:0:0:0:
338,201,207221,1,0,0:0:0:0:
327,176,207738,1,0,0:0:0:0:
327,176,207911,1,8,0:0:0:0:
327,176,208256,1,0,0:0:0:0:
327,176,208428,1,8,0:0:0:0:
249,130,208773,1,8,0:0:0:0:
327,176,208945,1,0,0:0:0:0:
327,176,209290,1,12,0:0:0:0:
131,164,209635,1,12,0:0:0:0:
328,118,209980,1,0,0:0:0:0:
282,164,210669,1,8,0:0:0:0:
340,173,211014,1,12,0:0:0:0:
287,157,211187,1,4,0:0:0:0:
288,157,211531,1,8,0:0:0:0:
288,157,211704,1,0,0:0:0:0:
288,157,211876,1,0,0:0:0:0:
287,157,212049,1,8,0:0:0:0:
364,125,212393,1,0,0:0:0:0:
364,125,212566,1,8,0:0:0:0:
364,125,212738,1,0,0:0:0:0:
322,148,213083,1,8,0:0:0:0:
282,164,213256,1,0,0:0:0:0:
282,164,213428,1,8,0:0:0:0:
340,173,213773,1,0,0:0:0:0:
287,157,213945,1,8,0:0:0:0:
288,157,214290,1,8,0:0:0:0:
288,157,214462,1,0,0:0:0:0:
287,157,214807,1,12,0:0:0:0:
364,125,215152,1,8,0:0:0:0:
364,125,215325,1,8,0:0:0:0:
328,118,215497,1,4,0:0:0:0:
282,164,216014,1,0,0:0:0:0:
282,164,216187,1,8,0:0:0:0:
340,173,216531,1,0,0:0:0:0:
287,157,216704,1,0,0:0:0:0:
288,157,216876,1,8,0:0:0:0:
288,157,217049,1,8,0:0:0:0:
288,157,217221,1,0,0:0:0:0:
287,157,217566,1,8,0:0:0:0:
364,125,217911,1,0,0:0:0:0:
384,126,218083,1,8,0:0:0:0:
364,125,218256,1,0,0:0:0:0:
322,148,218600,1,8,0:0:0:0:
282,164,218773,1,0,0:0:0:0:
282,164,218945,1,8,0:0:0:0:
340,173,219290,1,0,0:0:0:0:
287,157,219462,1,8,0:0:0:0:
288,157,219807,1,8,0:0:0:0:
300,181,219893,1,8,0:0:0:0:
288,157,219980,1,8,0:0:0:0:
288,157,220152,1,0,0:0:0:0:
287,157,220325,1,12,0:0:0:0:
364,125,220497,1,8,0:0:0:0:
301,171,220669,1,0,0:0:0:0:
157,156,220842,1,0,0:0:0:0:
417,179,221014,1,8,0:0:0:0:
465,200,221704,1,8,0:0:0:0:
465,200,222393,1,8,0:0:0:0:
465,200,223083,1,8,0:0:0:0:
