osu file format v14

[General]
AudioFilename: audio.mp3
AudioLeadIn: 0
PreviewTime: 87652
Countdown: 0
SampleSet: Normal
StackLeniency: 0.7
Mode: 1
LetterboxInBreaks: 0
WidescreenStoryboard: 0

[Editor]
Bookmarks: 325,22393,44462,66531,88600,110669,132738,154807,176876,198945
DistanceSpacing: 0.8
BeatDivisor: 4
GridSize: 16
TimelineZoom: 2.799999

[Metadata]
Title:Bittersweet (feat. Kuishinbo Akachan a.k.a. Kiato)
TitleUnicode:Bittersweet (feat. くいしんぼあかちゃん a.k.a. きあと)
Artist:Nakanojojo & Yunomi
ArtistUnicode:中野ジョジョ & Yunomi
Creator:komasy
Version:Inner Oni
Source:osu!
Tags:Featured Artist FA Mappers Guild Electronic ゆのみ Tolao J-POP Pop Kawaii
BeatmapID:2196292
BeatmapSetID:1050870

[Difficulty]
HPDrainRate:5.5
CircleSize:6
OverallDifficulty:6
ApproachRate:5.5
SliderMultiplier:1.4
SliderTickRate:1

[Events]
//Background and Video events
0,0,"bg.jpg",0,-20
//Break Periods
//Storyboard Layer 0 (Background)
//Storyboard Layer 1 (Fail)
//Storyboard Layer 2 (Pass)
//Storyboard Layer 3 (Foreground)
//Storyboard Layer 4 (Overlay)
//Storyboard Sound Samples

[TimingPoints]
325,344.827586206897,4,1,0,60,1,0
325,-133.333333333333,4,1,0,60,0,0
8600,-114.285714285714,4,1,0,60,0,0
10152,-112.359550561798,4,1,0,60,0,0
10497,-111.111111111111,4,1,0,60,0,0
10583,-109.89010989011,4,1,0,60,0,0
10669,-108.695652173913,4,1,0,60,0,0
10842,-106.382978723404,4,1,0,60,0,0
11014,-104.166666666667,4,1,0,60,0,0
11187,-102.040816326531,4,1,0,60,0,0
11359,-100,4,1,0,70,0,0
16876,-86.9565217391304,4,1,0,70,0,0
19635,-76.9230769230769,4,1,0,70,0,0
21014,-76.9230769230769,4,1,0,40,0,0
21962,-111.111111111111,4,1,0,70,0,0
22307,-133.333333333333,4,1,0,80,0,0
22393,-133.333333333333,4,1,0,80,0,1
31704,-125,4,1,0,80,0,1
31876,-121.951219512195,4,1,0,80,0,1
32049,-119.047619047619,4,1,0,80,0,1
32221,-117.647058823529,4,1,0,80,0,1
32279,-116.279069767442,4,1,0,80,0,1
32336,-114.942528735632,4,1,0,80,0,1
32393,-113.636363636364,4,1,0,80,0,1
32566,-111.111111111111,4,1,0,80,0,1
32738,-108.695652173913,4,1,0,80,0,1
32911,-106.382978723404,4,1,0,80,0,1
32997,-105.263157894737,4,1,0,80,0,1
33083,-104.166666666667,4,1,0,80,0,1
33169,-103.092783505155,4,1,0,80,0,1
33256,-102.040816326531,4,1,0,80,0,1
33342,-101.010101010101,4,1,0,80,0,1
33428,-100,4,1,0,80,0,1
44376,-100,4,1,0,70,0,1
44462,-100,4,1,0,70,0,0
66531,-113.636363636364,4,1,0,60,0,0
66618,-133.333333333333,4,1,0,60,0,0
76445,-128.205128205128,4,1,0,60,0,0
76531,-125,4,1,0,60,0,0
76704,-121.951219512195,4,1,0,60,0,0
76876,-119.047619047619,4,1,0,60,0,0
76962,-116.279069767442,4,1,0,60,0,0
77049,-113.636363636364,4,1,0,60,0,0
77135,-111.111111111111,4,1,0,60,0,0
77221,-108.695652173913,4,1,0,60,0,0
77393,-104.166666666667,4,1,0,60,0,0
77566,-100,4,1,0,70,0,0
83083,-86.9565217391304,4,1,0,70,0,0
85842,-76.9230769230769,4,1,0,70,0,0
86704,-80,4,1,0,70,0,0
86876,-83.3333333333333,4,1,0,70,0,0
86962,-86.9565217391304,4,1,0,70,0,0
87049,-90.9090909090909,4,1,0,70,0,0
87221,-95.2380952380952,4,1,0,60,0,0
88514,-100,4,1,0,80,0,0
88600,-100,4,1,0,80,0,1
110669,-100,4,1,0,70,0,0
120325,-103.092783505155,4,1,0,70,0,0
120497,-106.382978723404,4,1,0,70,0,0
120669,-109.89010989011,4,1,0,70,0,0
120842,-113.636363636364,4,1,0,70,0,0
121704,-86.9565217391304,4,1,0,70,0,0
132738,-100,4,1,0,70,0,0
132825,-200,4,1,0,20,0,0
142480,-158.730158730159,4,1,0,20,0,0
143687,-133.333333333333,4,1,0,50,0,0
153859,-136.986301369863,4,1,0,30,0,0
154031,-131.578947368421,4,1,0,40,0,0
154204,-126.582278481013,4,1,0,40,0,0
154376,-121.951219512195,4,1,0,50,0,0
154549,-117.647058823529,4,1,0,50,0,0
154721,-114.285714285714,4,1,0,60,0,0
165497,-108.695652173913,4,1,0,60,0,0
165669,-104.166666666667,4,1,0,60,0,0
165842,-100,4,1,0,70,0,0
171359,-86.9565217391304,4,1,0,70,0,0
174118,-76.9230769230769,4,1,0,70,0,0
174204,-100,4,1,0,60,0,0
175497,-106.382978723404,4,1,0,60,0,0
175583,-113.636363636364,4,1,0,60,0,0
176790,-133.333333333333,4,1,0,80,0,0
176876,-133.333333333333,4,1,0,80,0,1
181014,-114.285714285714,4,1,0,80,0,0
182393,-100,4,1,0,80,0,1
187911,-100,4,1,0,80,0,0
188256,-86.9565217391304,4,1,0,80,0,1
197825,-93.4579439252336,4,1,0,80,0,1
197911,-96.1538461538461,4,1,0,80,0,1
198083,-102.040816326531,4,1,0,80,0,1
198256,-108.695652173913,4,1,0,80,0,1
198342,-111.111111111111,4,1,0,80,0,1
198514,-117.647058823529,4,1,0,80,0,1
198600,-120.481927710843,4,1,0,80,0,0
198687,-123.456790123457,4,1,0,80,0,0
198773,-126.582278481013,4,1,0,80,0,0
198859,-129.87012987013,4,1,0,80,0,0
198945,-133.333333333333,4,1,0,80,0,1
209980,-125,4,1,0,80,0,0
210325,-125,4,1,0,80,0,0
210497,-119.047619047619,4,1,0,80,0,0
210669,-113.636363636364,4,1,0,80,0,0
210756,-111.111111111111,4,1,0,80,0,0
210842,-108.695652173913,4,1,0,80,0,0
211014,-104.166666666667,4,1,0,80,0,0
211187,-100,4,1,0,80,0,1
215497,-86.9565217391304,4,1,0,80,0,1
218256,-76.9230769230769,4,1,0,80,0,1
221014,-76.9230769230769,4,1,0,80,0,0
221100,-90.9090909090909,4,1,0,20,0,0
221790,-111.111111111111,4,1,0,20,0,0
222480,-142.857142857143,4,1,0,20,0,0

[HitObjects]
377,232,325,5,0,0:0:0:0:
377,232,842,1,0,0:0:0:0:
377,232,1014,1,8,0:0:0:0:
377,232,1187,1,0,0:0:0:0:
377,232,1531,1,8,0:0:0:0:
371,185,2393,1,0,0:0:0:0:
371,205,3083,1,0,0:0:0:0:
371,205,3600,1,0,0:0:0:0:
371,205,3773,1,8,0:0:0:0:
371,205,3945,1,0,0:0:0:0:
371,205,4290,1,8,0:0:0:0:
472,276,4980,1,0,0:0:0:0:
472,276,5066,1,0,0:0:0:0:
472,276,5152,1,8,0:0:0:0:
472,276,5325,1,8,0:0:0:0:
478,277,5497,1,8,0:0:0:0:
451,216,5583,1,8,0:0:0:0:
478,277,5669,1,0,0:0:0:0:
378,148,5842,1,0,0:0:0:0:
398,205,6359,1,0,0:0:0:0:
256,186,6445,1,0,0:0:0:0:
256,186,6531,1,8,0:0:0:0:
384,194,6704,1,0,0:0:0:0:
451,210,7049,1,8,0:0:0:0:
427,165,7393,1,8,0:0:0:0:
427,165,7738,1,0,0:0:0:0:
427,165,7825,1,0,0:0:0:0:
427,165,7911,1,8,0:0:0:0:
375,110,8026,1,8,0:0:0:0:
375,110,8141,1,8,0:0:0:0:
410,153,8256,1,0,0:0:0:0:
449,131,8600,1,4,0:0:0:0:
449,131,9118,1,4,0:0:0:0:
449,131,9290,1,8,0:0:0:0:
449,131,9462,1,4,0:0:0:0:
449,131,9807,1,12,0:0:0:0:
445,163,10152,1,8,0:0:0:0:
450,263,10497,1,0,0:0:0:0:
450,263,10583,1,0,0:0:0:0:
50,155,10669,1,8,0:0:0:0:
393,161,10842,1,8,0:0:0:0:
393,161,11014,1,0,0:0:0:0:
393,161,11187,1,0,0:0:0:0:
395,154,11359,1,8,0:0:0:0:
267,218,11618,1,0,0:0:0:0:
367,174,11704,1,8,0:0:0:0:
364,173,11876,1,0,0:0:0:0:
391,194,12049,1,8,0:0:0:0:
398,214,12135,1,8,0:0:0:0:
364,173,12221,1,0,0:0:0:0:
398,213,12393,1,8,0:0:0:0:
364,173,12566,1,0,0:0:0:0:
398,214,12738,1,8,0:0:0:0:
398,213,12997,1,0,0:0:0:0:
398,214,13083,1,8,0:0:0:0:
363,152,13256,1,0,0:0:0:0:
363,152,13428,1,8,0:0:0:0:
363,152,13514,1,8,0:0:0:0:
363,152,13687,1,8,0:0:0:0:
363,152,13773,1,0,0:0:0:0:
351,161,13945,1,0,0:0:0:0:
395,154,14118,1,8,0:0:0:0:
251,158,14376,1,0,0:0:0:0:
367,174,14462,1,8,0:0:0:0:
364,173,14635,1,0,0:0:0:0:
391,194,14807,1,8,0:0:0:0:
398,214,14893,1,8,0:0:0:0:
364,173,14980,1,0,0:0:0:0:
398,213,15152,1,8,0:0:0:0:
364,173,15325,1,0,0:0:0:0:
398,214,15497,1,8,0:0:0:0:
398,213,15756,1,0,0:0:0:0:
398,214,15842,1,8,0:0:0:0:
363,152,16014,1,0,0:0:0:0:
363,152,16187,1,8,0:0:0:0:
363,152,16273,1,0,0:0:0:0:
363,152,16445,1,0,0:0:0:0:
363,152,16531,1,8,0:0:0:0:
351,161,16876,1,4,0:0:0:0:
278,115,17049,1,8,0:0:0:0:
278,115,17221,1,8,0:0:0:0:
278,115,17393,1,8,0:0:0:0:
278,115,17566,1,4,0:0:0:0:
278,115,17738,1,8,0:0:0:0:
278,115,17911,1,8,0:0:0:0:
278,115,18083,1,8,0:0:0:0:
358,153,18256,1,4,0:0:0:0:
358,153,18428,1,8,0:0:0:0:
358,153,18514,1,8,0:0:0:0:
358,153,18600,1,8,0:0:0:0:
358,153,18773,1,8,0:0:0:0:
358,153,18945,1,4,0:0:0:0:
358,153,19118,1,8,0:0:0:0:
358,153,19204,1,8,0:0:0:0:
358,153,19290,1,8,0:0:0:0:
358,153,19462,1,0,0:0:0:0:
358,153,19635,1,0,0:0:0:0:
323,205,19721,1,8,0:0:0:0:
323,205,19807,1,8,0:0:0:0:
323,205,19893,1,8,0:0:0:0:
323,205,19980,1,8,0:0:0:0:
323,205,20066,1,8,0:0:0:0:
323,205,20152,1,0,0:0:0:0:
323,205,20238,1,8,0:0:0:0:
323,205,20325,1,8,0:0:0:0:
324,185,20497,1,0,0:0:0:0:
324,185,20669,1,8,0:0:0:0:
324,185,20842,1,4,0:0:0:0:
307,177,22049,1,12,0:0:0:0:
322,179,22393,1,4,0:0:0:0:
339,194,22911,1,0,0:0:0:0:
339,194,22997,1,0,0:0:0:0:
339,194,23083,1,8,0:0:0:0:
339,194,23428,1,0,0:0:0:0:
347,195,23600,1,0,0:0:0:0:
347,194,23945,1,8,0:0:0:0:
347,194,24118,1,0,0:0:0:0:
338,201,24462,1,8,0:0:0:0:
338,201,24807,1,0,0:0:0:0:
287,176,24980,1,8,0:0:0:0:
338,201,25152,1,0,0:0:0:0:
327,176,25669,1,0,0:0:0:0:
327,176,25756,1,0,0:0:0:0:
327,176,25842,1,8,0:0:0:0:
327,176,26187,1,0,0:0:0:0:
327,176,26359,1,8,0:0:0:0:
327,176,26704,1,8,0:0:0:0:
327,176,26876,1,0,0:0:0:0:
369,173,27049,1,0,0:0:0:0:
327,176,27221,1,12,0:0:0:0:
376,170,27480,1,0,0:0:0:0:
376,190,27566,1,8,0:0:0:0:
376,190,27738,1,8,0:0:0:0:
322,179,27911,1,4,0:0:0:0:
339,194,28428,1,0,0:0:0:0:
339,194,28514,1,0,0:0:0:0:
339,194,28600,1,8,0:0:0:0:
339,194,28945,1,0,0:0:0:0:
347,195,29118,1,0,0:0:0:0:
347,194,29462,1,8,0:0:0:0:
347,194,29635,1,0,0:0:0:0:
338,201,29980,1,8,0:0:0:0:
338,201,30325,1,0,0:0:0:0:
287,176,30497,1,8,0:0:0:0:
338,201,30669,1,0,0:0:0:0:
283,179,31014,1,8,0:0:0:0:
327,176,31187,1,0,0:0:0:0:
327,176,31273,1,0,0:0:0:0:
327,176,31359,1,8,0:0:0:0:
327,176,31704,1,0,0:0:0:0:
327,176,31876,1,8,0:0:0:0:
437,196,32049,1,0,0:0:0:0:
249,130,32221,1,8,0:0:0:0:
437,196,32279,1,8,0:0:0:0:
249,130,32336,1,8,0:0:0:0:
327,176,32393,1,0,0:0:0:0:
369,173,32566,1,0,0:0:0:0:
327,176,32738,1,12,0:0:0:0:
362,157,32911,1,0,0:0:0:0:
376,170,32997,1,0,0:0:0:0:
376,190,33083,1,8,0:0:0:0:
362,157,33169,1,0,0:0:0:0:
362,157,33256,1,8,0:0:0:0:
362,157,33342,1,8,0:0:0:0:
328,118,33428,1,0,0:0:0:0:
322,148,33773,1,8,0:0:0:0:
282,164,33945,1,0,0:0:0:0:
282,164,34118,1,8,0:0:0:0:
282,164,34204,1,8,0:0:0:0:
282,164,34290,1,0,0:0:0:0:
340,173,34462,1,8,0:0:0:0:
287,157,34635,1,8,0:0:0:0:
340,173,34807,1,0,0:0:0:0:
288,157,34980,1,0,0:0:0:0:
288,157,35066,1,0,0:0:0:0:
288,157,35152,1,8,0:0:0:0:
288,157,35325,1,0,0:0:0:0:
287,157,35497,1,8,0:0:0:0:
287,157,35583,1,8,0:0:0:0:
340,173,35669,1,0,0:0:0:0:
364,125,35842,1,8,0:0:0:0:
364,125,36014,1,8,0:0:0:0:
364,125,36187,1,0,0:0:0:0:
322,148,36531,1,8,0:0:0:0:
282,164,36704,1,0,0:0:0:0:
282,164,36876,1,8,0:0:0:0:
282,164,36962,1,8,0:0:0:0:
282,164,37049,1,0,0:0:0:0:
340,173,37221,1,8,0:0:0:0:
287,157,37393,1,8,0:0:0:0:
340,173,37566,1,0,0:0:0:0:
288,157,37738,1,0,0:0:0:0:
288,157,37825,1,0,0:0:0:0:
288,157,37911,1,8,0:0:0:0:
288,157,38083,1,0,0:0:0:0:
287,157,38256,1,8,0:0:0:0:
287,157,38342,1,8,0:0:0:0:
340,173,38428,1,0,0:0:0:0:
300,119,38514,1,0,0:0:0:0:
364,125,38600,1,8,0:0:0:0:
364,125,38773,1,8,0:0:0:0:
328,118,38945,1,4,0:0:0:0:
322,148,39290,1,8,0:0:0:0:
282,164,39462,1,0,0:0:0:0:
282,164,39635,1,8,0:0:0:0:
282,164,39721,1,0,0:0:0:0:
282,164,39807,1,0,0:0:0:0:
340,173,39980,1,8,0:0:0:0:
287,157,40152,1,8,0:0:0:0:
340,173,40325,1,0,0:0:0:0:
288,157,40497,1,8,0:0:0:0:
288,157,40583,1,0,0:0:0:0:
288,157,40669,1,8,0:0:0:0:
288,157,40842,1,0,0:0:0:0:
287,157,41014,1,8,0:0:0:0:
287,157,41100,1,8,0:0:0:0:
340,173,41187,1,0,0:0:0:0:
364,125,41359,1,8,0:0:0:0:
384,126,41531,1,0,0:0:0:0:
384,126,41618,1,8,0:0:0:0:
364,125,41704,1,0,0:0:0:0:
243,168,41962,1,0,0:0:0:0:
322,148,42049,1,8,0:0:0:0:
282,164,42221,1,0,0:0:0:0:
282,164,42393,1,8,0:0:0:0:
282,164,42480,1,8,0:0:0:0:
282,164,42566,1,0,0:0:0:0:
327,56,42652,1,8,0:0:0:0:
340,173,42738,1,8,0:0:0:0:
287,157,42911,1,0,0:0:0:0:
340,173,43083,1,8,0:0:0:0:
290,76,43169,1,8,0:0:0:0:
288,157,43256,1,0,0:0:0:0:
288,157,43313,1,0,0:0:0:0:
300,181,43370,1,0,0:0:0:0:
288,157,43428,1,8,0:0:0:0:
288,157,43600,1,0,0:0:0:0:
281,99,43687,1,0,0:0:0:0:
287,157,43773,1,8,0:0:0:0:
287,157,43859,1,0,0:0:0:0:
340,173,43945,1,0,0:0:0:0:
124,116,44031,1,0,0:0:0:0:
364,125,44118,1,8,0:0:0:0:
364,125,44462,1,4,0:0:0:0:
316,132,44807,1,8,0:0:0:0:
316,132,45325,1,0,0:0:0:0:
316,132,45497,1,8,0:0:0:0:
316,132,45669,1,0,0:0:0:0:
380,154,46187,1,8,0:0:0:0:
339,173,46531,1,8,0:0:0:0:
339,173,46704,1,0,0:0:0:0:
339,173,46876,1,8,0:0:0:0:
313,147,47221,1,0,0:0:0:0:
383,154,47566,1,8,0:0:0:0:
383,154,47738,1,8,0:0:0:0:
333,138,48083,1,0,0:0:0:0:
333,138,48256,1,8,0:0:0:0:
333,138,48428,1,0,0:0:0:0:
297,141,48773,1,0,0:0:0:0:
333,138,48945,1,8,0:0:0:0:
408,229,49290,1,8,0:0:0:0:
408,229,49376,1,8,0:0:0:0:
408,229,49462,1,0,0:0:0:0:
408,229,49635,1,12,0:0:0:0:
375,186,49980,1,0,0:0:0:0:
375,186,50325,1,8,0:0:0:0:
362,213,50497,1,8,0:0:0:0:
362,213,50842,1,0,0:0:0:0:
362,213,51014,1,8,0:0:0:0:
307,202,51187,1,0,0:0:0:0:
346,93,51531,1,0,0:0:0:0:
311,200,51704,1,8,0:0:0:0:
323,101,52049,1,8,0:0:0:0:
316,193,52221,1,0,0:0:0:0:
316,193,52393,1,8,0:0:0:0:
262,19,52738,1,4,0:0:0:0:
349,111,53600,1,12,0:0:0:0:
349,111,53945,1,4,0:0:0:0:
188,125,54635,1,12,0:0:0:0:
444,217,54807,1,0,0:0:0:0:
444,217,54893,1,0,0:0:0:0:
444,217,54980,1,0,0:0:0:0:
444,217,55066,1,0,0:0:0:0:
444,217,55152,1,8,0:0:0:0:
334,141,55325,1,8,0:0:0:0:
462,169,55497,1,4,0:0:0:0:
378,125,55842,1,8,0:0:0:0:
291,94,56187,1,8,0:0:0:0:
398,134,56359,1,0,0:0:0:0:
398,134,56531,1,8,0:0:0:0:
403,134,56704,1,0,0:0:0:0:
308,212,57049,1,0,0:0:0:0:
343,157,57221,1,8,0:0:0:0:
343,157,57393,1,0,0:0:0:0:
297,139,57566,1,8,0:0:0:0:
297,139,57652,1,8,0:0:0:0:
343,157,57738,1,0,0:0:0:0:
266,156,57911,1,8,0:0:0:0:
462,169,58256,1,0,0:0:0:0:
378,125,58600,1,8,0:0:0:0:
349,163,58773,1,0,0:0:0:0:
398,134,59118,1,0,0:0:0:0:
398,134,59290,1,8,0:0:0:0:
403,134,59462,1,0,0:0:0:0:
316,143,59549,1,0,0:0:0:0:
396,227,59635,1,8,0:0:0:0:
297,114,59807,1,0,0:0:0:0:
343,157,59980,1,8,0:0:0:0:
285,172,60152,1,0,0:0:0:0:
360,168,60238,1,0,0:0:0:0:
343,157,60325,1,8,0:0:0:0:
343,157,60411,1,8,0:0:0:0:
343,157,60497,1,0,0:0:0:0:
266,156,60669,1,12,0:0:0:0:
462,169,61014,1,4,0:0:0:0:
378,125,61359,1,8,0:0:0:0:
270,153,61531,1,8,0:0:0:0:
398,134,61876,1,0,0:0:0:0:
398,134,62049,1,8,0:0:0:0:
403,134,62221,1,0,0:0:0:0:
308,212,62566,1,0,0:0:0:0:
343,157,62738,1,8,0:0:0:0:
343,157,62911,1,0,0:0:0:0:
343,157,63083,1,8,0:0:0:0:
267,116,63169,1,8,0:0:0:0:
343,157,63256,1,0,0:0:0:0:
266,156,63428,1,8,0:0:0:0:
462,169,63773,1,4,0:0:0:0:
378,125,64118,1,8,0:0:0:0:
349,163,64290,1,0,0:0:0:0:
398,134,64635,1,4,0:0:0:0:
398,134,64807,1,8,0:0:0:0:
403,134,64980,1,4,0:0:0:0:
402,148,65325,1,8,0:0:0:0:
402,148,65382,1,8,0:0:0:0:
402,148,65439,1,8,0:0:0:0:
343,157,65497,1,8,0:0:0:0:
343,157,65669,1,4,0:0:0:0:
333,140,65842,1,8,0:0:0:0:
333,140,65928,1,8,0:0:0:0:
333,140,66014,1,0,0:0:0:0:
284,132,66100,1,0,0:0:0:0:
284,132,66187,1,8,0:0:0:0:
311,119,66531,1,4,0:0:0:0:
368,166,67221,1,8,0:0:0:0:
295,124,68428,1,0,0:0:0:0:
488,225,68600,1,8,0:0:0:0:
504,216,68945,1,0,0:0:0:0:
504,216,69118,1,0,0:0:0:0:
504,216,69290,1,0,0:0:0:0:
297,151,69980,1,8,0:0:0:0:
332,153,71187,1,0,0:0:0:0:
322,100,71359,1,8,0:0:0:0:
322,100,71618,1,0,0:0:0:0:
322,100,71704,1,8,0:0:0:0:
322,100,71876,1,0,0:0:0:0:
415,181,72049,1,4,0:0:0:0:
420,181,72738,1,8,0:0:0:0:
363,108,73945,1,0,0:0:0:0:
433,210,74118,1,8,0:0:0:0:
433,210,74462,1,0,0:0:0:0:
433,210,74635,1,0,0:0:0:0:
433,210,74807,1,0,0:0:0:0:
468,239,75066,1,8,0:0:0:0:
468,239,75152,1,8,0:0:0:0:
322,164,75325,1,0,0:0:0:0:
322,164,75497,1,8,0:0:0:0:
332,159,75669,1,0,0:0:0:0:
332,159,75756,1,8,0:0:0:0:
332,159,75842,1,8,0:0:0:0:
332,159,76014,1,0,0:0:0:0:
332,159,76187,1,8,0:0:0:0:
332,159,76445,1,8,0:0:0:0:
332,159,76531,1,8,0:0:0:0:
276,156,76704,1,0,0:0:0:0:
282,148,76876,1,8,0:0:0:0:
282,148,76962,1,8,0:0:0:0:
282,148,77049,1,8,0:0:0:0:
282,148,77135,1,8,0:0:0:0:
282,148,77221,1,0,0:0:0:0:
267,100,77393,1,0,0:0:0:0:
267,100,77566,1,12,0:0:0:0:
257,157,77825,1,0,0:0:0:0:
257,157,77911,1,8,0:0:0:0:
257,157,78083,1,0,0:0:0:0:
257,157,78256,1,8,0:0:0:0:
410,156,78342,1,0,0:0:0:0:
411,98,78600,1,8,0:0:0:0:
270,145,78773,1,0,0:0:0:0:
261,145,78830,1,0,0:0:0:0:
266,145,78888,1,0,0:0:0:0:
270,145,78945,1,8,0:0:0:0:
420,121,79204,1,0,0:0:0:0:
420,121,79290,1,8,0:0:0:0:
353,166,79462,1,0,0:0:0:0:
353,166,79635,1,8,0:0:0:0:
353,166,79721,1,8,0:0:0:0:
353,166,79893,1,8,0:0:0:0:
364,147,79980,1,0,0:0:0:0:
364,147,80152,1,0,0:0:0:0:
364,147,80210,1,0,0:0:0:0:
331,163,80267,1,0,0:0:0:0:
267,100,80325,1,8,0:0:0:0:
257,157,80583,1,0,0:0:0:0:
257,157,80669,1,8,0:0:0:0:
257,157,80842,1,0,0:0:0:0:
257,157,81014,1,8,0:0:0:0:
410,156,81100,1,0,0:0:0:0:
411,98,81359,1,8,0:0:0:0:
270,145,81531,1,0,0:0:0:0:
261,145,81589,1,0,0:0:0:0:
266,145,81646,1,0,0:0:0:0:
270,145,81704,1,8,0:0:0:0:
420,121,81962,1,0,0:0:0:0:
420,121,82049,1,8,0:0:0:0:
353,166,82221,1,0,0:0:0:0:
353,166,82393,1,8,0:0:0:0:
353,166,82480,1,0,0:0:0:0:
353,166,82652,1,0,0:0:0:0:
364,147,82738,1,8,0:0:0:0:
373,120,82911,1,8,0:0:0:0:
306,152,83083,1,4,0:0:0:0:
358,161,83256,1,8,0:0:0:0:
358,161,83428,1,8,0:0:0:0:
358,161,83600,1,8,0:0:0:0:
358,161,83773,1,4,0:0:0:0:
358,161,83945,1,8,0:0:0:0:
358,161,84118,1,8,0:0:0:0:
358,161,84290,1,8,0:0:0:0:
358,161,84462,1,4,0:0:0:0:
266,138,84635,1,8,0:0:0:0:
266,138,84721,1,8,0:0:0:0:
266,138,84807,1,8,0:0:0:0:
266,138,84980,1,8,0:0:0:0:
266,138,85152,1,4,0:0:0:0:
266,138,85325,1,8,0:0:0:0:
266,138,85411,1,8,0:0:0:0:
266,138,85497,1,8,0:0:0:0:
266,138,85669,1,0,0:0:0:0:
266,138,85842,1,0,0:0:0:0:
266,138,85928,1,8,0:0:0:0:
266,138,86014,1,8,0:0:0:0:
266,138,86100,1,8,0:0:0:0:
266,138,86187,1,0,0:0:0:0:
266,138,86273,1,8,0:0:0:0:
266,138,86359,1,8,0:0:0:0:
266,138,86445,1,8,0:0:0:0:
266,138,86531,1,0,0:0:0:0:
266,138,86704,1,8,0:0:0:0:
266,138,86876,1,0,0:0:0:0:
408,217,86962,1,0,0:0:0:0:
266,138,87049,1,8,0:0:0:0:
286,140,87221,1,4,0:0:0:0:
410,192,87393,1,8,0:0:0:0:
410,192,87451,1,8,0:0:0:0:
410,192,87508,1,8,0:0:0:0:
410,192,87566,1,8,0:0:0:0:
332,101,87738,1,0,0:0:0:0:
332,101,87825,1,0,0:0:0:0:
443,122,87911,1,8,0:0:0:0:
443,122,87997,1,8,0:0:0:0:
443,122,88083,1,0,0:0:0:0:
328,128,88256,1,12,0:0:0:0:
328,128,88600,1,4,0:0:0:0:
384,175,88945,1,8,0:0:0:0:
434,203,89118,1,0,0:0:0:0:
434,203,89204,1,0,0:0:0:0:
356,155,89290,1,8,0:0:0:0:
356,155,89462,1,0,0:0:0:0:
356,155,89635,1,8,0:0:0:0:
356,155,89807,1,0,0:0:0:0:
107,150,89893,1,0,0:0:0:0:
356,155,89980,1,0,0:0:0:0:
327,132,90152,1,0,0:0:0:0:
367,154,90325,1,8,0:0:0:0:
327,132,90497,1,0,0:0:0:0:
296,173,90583,1,0,0:0:0:0:
453,237,90669,1,8,0:0:0:0:
389,233,90756,1,8,0:0:0:0:
421,196,90842,1,0,0:0:0:0:
340,172,91014,1,12,0:0:0:0:
440,232,91187,1,0,0:0:0:0:
440,232,91273,1,8,0:0:0:0:
340,172,91359,1,0,0:0:0:0:
301,169,91618,1,0,0:0:0:0:
349,171,91704,1,8,0:0:0:0:
359,187,91876,1,0,0:0:0:0:
358,187,92049,1,8,0:0:0:0:
358,187,92135,1,8,0:0:0:0:
359,187,92221,1,0,0:0:0:0:
359,186,92393,1,8,0:0:0:0:
240,143,92566,1,0,0:0:0:0:
231,143,92652,1,8,0:0:0:0:
240,143,92738,1,0,0:0:0:0:
279,146,92825,1,0,0:0:0:0:
231,144,92997,1,0,0:0:0:0:
298,94,93083,1,8,0:0:0:0:
298,94,93256,1,0,0:0:0:0:
275,110,93342,1,0,0:0:0:0:
301,161,93428,1,8,0:0:0:0:
301,161,93514,1,8,0:0:0:0:
301,161,93600,1,0,0:0:0:0:
303,127,93773,1,12,0:0:0:0:
328,128,94118,1,4,0:0:0:0:
309,96,94376,1,0,0:0:0:0:
384,175,94462,1,8,0:0:0:0:
434,203,94635,1,0,0:0:0:0:
434,203,94721,1,0,0:0:0:0:
356,155,94807,1,0,0:0:0:0:
356,155,94980,1,0,0:0:0:0:
356,155,95152,1,8,0:0:0:0:
356,155,95325,1,8,0:0:0:0:
107,150,95411,1,8,0:0:0:0:
356,155,95497,1,0,0:0:0:0:
311,96,95669,1,0,0:0:0:0:
327,132,95756,1,0,0:0:0:0:
367,154,95842,1,8,0:0:0:0:
327,132,96014,1,0,0:0:0:0:
453,237,96187,1,8,0:0:0:0:
331,91,96273,1,8,0:0:0:0:
421,196,96359,1,0,0:0:0:0:
340,172,96531,1,12,0:0:0:0:
440,232,96704,1,8,0:0:0:0:
340,172,96876,1,4,0:0:0:0:
301,169,97135,1,8,0:0:0:0:
349,171,97221,1,8,0:0:0:0:
359,187,97393,1,4,0:0:0:0:
358,187,97566,1,8,0:0:0:0:
358,187,97652,1,8,0:0:0:0:
359,187,97738,1,0,0:0:0:0:
359,186,97911,1,8,0:0:0:0:
240,143,98083,1,4,0:0:0:0:
279,146,98428,1,0,0:0:0:0:
231,144,98514,1,0,0:0:0:0:
298,94,98600,1,8,0:0:0:0:
298,94,98773,1,4,0:0:0:0:
301,161,98945,1,8,0:0:0:0:
301,161,99031,1,8,0:0:0:0:
301,161,99118,1,0,0:0:0:0:
320,125,99204,1,0,0:0:0:0:
320,125,99290,1,8,0:0:0:0:
162,114,99376,1,0,0:0:0:0:
169,112,99462,1,8,0:0:0:0:
173,112,99549,1,8,0:0:0:0:
328,128,99635,1,0,0:0:0:0:
384,175,99980,1,8,0:0:0:0:
434,203,100066,1,0,0:0:0:0:
434,203,100152,1,0,0:0:0:0:
356,155,100325,1,8,0:0:0:0:
398,212,100497,1,0,0:0:0:0:
347,174,100583,1,0,0:0:0:0:
356,155,100669,1,8,0:0:0:0:
356,155,100842,1,0,0:0:0:0:
251,95,100928,1,0,0:0:0:0:
356,155,101014,1,0,0:0:0:0:
238,67,101187,1,0,0:0:0:0:
367,154,101359,1,8,0:0:0:0:
327,132,101531,1,0,0:0:0:0:
396,150,101618,1,0,0:0:0:0:
453,237,101704,1,8,0:0:0:0:
389,233,101790,1,8,0:0:0:0:
421,196,101876,1,0,0:0:0:0:
340,172,102049,1,12,0:0:0:0:
440,232,102221,1,0,0:0:0:0:
440,232,102307,1,8,0:0:0:0:
340,172,102393,1,0,0:0:0:0:
301,169,102652,1,0,0:0:0:0:
349,171,102738,1,8,0:0:0:0:
359,187,102911,1,0,0:0:0:0:
358,187,103083,1,8,0:0:0:0:
358,187,103169,1,8,0:0:0:0:
359,187,103256,1,0,0:0:0:0:
359,186,103428,1,8,0:0:0:0:
240,143,103600,1,0,0:0:0:0:
231,143,103687,1,8,0:0:0:0:
240,143,103773,1,0,0:0:0:0:
279,146,103859,1,0,0:0:0:0:
231,144,104031,1,0,0:0:0:0:
298,94,104118,1,8,0:0:0:0:
298,94,104290,1,0,0:0:0:0:
275,110,104376,1,0,0:0:0:0:
301,161,104462,1,8,0:0:0:0:
301,161,104549,1,8,0:0:0:0:
301,161,104635,1,0,0:0:0:0:
303,127,104807,1,12,0:0:0:0:
328,128,105152,1,4,0:0:0:0:
358,102,105411,1,0,0:0:0:0:
384,175,105497,1,8,0:0:0:0:
434,203,105669,1,0,0:0:0:0:
434,203,105756,1,0,0:0:0:0:
356,155,105842,1,0,0:0:0:0:
356,155,106014,1,0,0:0:0:0:
356,155,106187,1,8,0:0:0:0:
356,155,106359,1,0,0:0:0:0:
107,150,106445,1,0,0:0:0:0:
356,155,106531,1,8,0:0:0:0:
184,99,106618,1,8,0:0:0:0:
300,152,106704,1,0,0:0:0:0:
367,154,106876,1,8,0:0:0:0:
327,132,107049,1,0,0:0:0:0:
304,119,107135,1,0,0:0:0:0:
453,237,107221,1,8,0:0:0:0:
331,91,107307,1,0,0:0:0:0:
421,196,107393,1,0,0:0:0:0:
340,172,107566,1,12,0:0:0:0:
440,232,107738,1,8,0:0:0:0:
245,94,107825,1,8,0:0:0:0:
340,172,107911,1,0,0:0:0:0:
319,125,108169,1,0,0:0:0:0:
319,125,108256,1,8,0:0:0:0:
319,125,108342,1,8,0:0:0:0:
209,29,108428,1,0,0:0:0:0:
209,29,108600,1,8,0:0:0:0:
209,29,108773,1,0,0:0:0:0:
209,29,108859,1,0,0:0:0:0:
209,29,108945,1,8,0:0:0:0:
172,110,109031,1,8,0:0:0:0:
172,110,109118,1,0,0:0:0:0:
277,145,109204,1,0,0:0:0:0:
178,107,109290,1,8,0:0:0:0:
249,129,109549,1,0,0:0:0:0:
274,134,109635,1,8,0:0:0:0:
274,134,109807,1,0,0:0:0:0:
264,117,109980,1,8,0:0:0:0:
301,161,110066,1,8,0:0:0:0:
301,161,110152,1,0,0:0:0:0:
320,125,110238,1,0,0:0:0:0:
320,125,110325,1,8,0:0:0:0:
162,114,110411,1,0,0:0:0:0:
169,112,110497,1,8,0:0:0:0:
173,112,110583,1,8,0:0:0:0:
364,125,110669,5,0,0:0:0:0:
316,132,111014,1,8,0:0:0:0:
316,132,111531,1,0,0:0:0:0:
316,132,111704,1,8,0:0:0:0:
316,132,111876,1,0,0:0:0:0:
380,154,112393,1,8,0:0:0:0:
339,173,112738,1,8,0:0:0:0:
339,173,112911,1,0,0:0:0:0:
339,173,113083,1,8,0:0:0:0:
313,147,113428,1,0,0:0:0:0:
383,154,113773,1,8,0:0:0:0:
383,154,113945,1,8,0:0:0:0:
333,138,114290,1,0,0:0:0:0:
333,138,114462,1,8,0:0:0:0:
333,138,114635,1,0,0:0:0:0:
297,141,114980,1,0,0:0:0:0:
333,138,115152,1,8,0:0:0:0:
333,138,115325,1,0,0:0:0:0:
408,229,115497,1,8,0:0:0:0:
408,229,115583,1,8,0:0:0:0:
408,229,115669,1,0,0:0:0:0:
408,229,115842,1,12,0:0:0:0:
375,186,116187,1,0,0:0:0:0:
375,186,116531,1,8,0:0:0:0:
362,213,116704,1,8,0:0:0:0:
362,213,117049,1,0,0:0:0:0:
362,213,117221,1,8,0:0:0:0:
307,202,117393,1,0,0:0:0:0:
346,93,117738,1,0,0:0:0:0:
311,200,117911,1,8,0:0:0:0:
323,101,118256,1,8,0:0:0:0:
316,193,118428,1,0,0:0:0:0:
316,193,118600,1,8,0:0:0:0:
262,19,118945,1,4,0:0:0:0:
349,111,119807,1,12,0:0:0:0:
349,111,120152,1,12,0:0:0:0:
289,136,120325,1,0,0:0:0:0:
396,187,120554,1,8,0:0:0:0:
188,125,120784,1,8,0:0:0:0:
444,217,121014,1,8,0:0:0:0:
444,217,121359,1,0,0:0:0:0:
462,169,121704,1,4,0:0:0:0:
311,190,121962,1,0,0:0:0:0:
378,125,122049,1,8,0:0:0:0:
380,189,122221,1,0,0:0:0:0:
398,134,122566,1,0,0:0:0:0:
398,134,122738,1,8,0:0:0:0:
403,134,122911,1,0,0:0:0:0:
400,144,123083,1,0,0:0:0:0:
308,212,123342,1,0,0:0:0:0:
343,157,123428,1,8,0:0:0:0:
343,157,123600,1,0,0:0:0:0:
384,159,123773,1,8,0:0:0:0:
384,159,123859,1,8,0:0:0:0:
384,159,123945,1,0,0:0:0:0:
384,159,124118,1,8,0:0:0:0:
411,152,124462,1,0,0:0:0:0:
290,78,124721,1,0,0:0:0:0:
378,125,124807,1,8,0:0:0:0:
349,163,124980,1,0,0:0:0:0:
398,134,125325,1,0,0:0:0:0:
398,134,125497,1,8,0:0:0:0:
403,134,125669,1,0,0:0:0:0:
396,227,125842,1,0,0:0:0:0:
255,134,126014,1,8,0:0:0:0:
260,135,126100,1,0,0:0:0:0:
343,157,126187,1,8,0:0:0:0:
343,157,126359,1,0,0:0:0:0:
343,157,126531,1,8,0:0:0:0:
343,157,126618,1,8,0:0:0:0:
343,157,126704,1,0,0:0:0:0:
266,156,126876,1,12,0:0:0:0:
462,169,127221,1,4,0:0:0:0:
249,123,127480,1,0,0:0:0:0:
378,125,127566,1,8,0:0:0:0:
318,123,127738,1,0,0:0:0:0:
398,134,128083,1,0,0:0:0:0:
398,134,128256,1,8,0:0:0:0:
403,134,128428,1,0,0:0:0:0:
322,152,128600,1,0,0:0:0:0:
438,221,128773,1,8,0:0:0:0:
308,212,128859,1,0,0:0:0:0:
343,157,128945,1,8,0:0:0:0:
343,157,129118,1,0,0:0:0:0:
343,157,129290,1,8,0:0:0:0:
343,157,129376,1,8,0:0:0:0:
343,157,129462,1,0,0:0:0:0:
266,156,129635,1,8,0:0:0:0:
313,247,129807,1,8,0:0:0:0:
462,169,129980,1,4,0:0:0:0:
194,172,130238,1,0,0:0:0:0:
378,125,130325,1,0,0:0:0:0:
349,163,130497,1,0,0:0:0:0:
325,128,130669,1,0,0:0:0:0:
398,134,130842,1,12,0:0:0:0:
398,134,131014,1,0,0:0:0:0:
403,134,131187,1,12,0:0:0:0:
402,148,131531,1,8,0:0:0:0:
402,148,131589,1,8,0:0:0:0:
402,148,131646,1,8,0:0:0:0:
343,157,131704,1,0,0:0:0:0:
343,157,131876,1,12,0:0:0:0:
324,153,132049,1,0,0:0:0:0:
324,153,132135,1,0,0:0:0:0:
324,153,132221,1,0,0:0:0:0:
284,132,132393,1,12,0:0:0:0:
311,119,132738,1,4,0:0:0:0:
416,245,134118,1,0,0:0:0:0:
416,245,134635,1,8,0:0:0:0:
416,245,134807,1,8,0:0:0:0:
416,245,135152,1,8,0:0:0:0:
427,247,135497,1,0,0:0:0:0:
427,247,136876,1,0,0:0:0:0:
427,247,137393,1,8,0:0:0:0:
427,247,137566,1,8,0:0:0:0:
427,247,137911,1,8,0:0:0:0:
427,247,138256,1,0,0:0:0:0:
431,247,139635,1,0,0:0:0:0:
435,247,140152,1,8,0:0:0:0:
435,247,140325,1,8,0:0:0:0:
440,246,140669,1,8,0:0:0:0:
449,245,140842,1,8,0:0:0:0:
440,246,141014,1,0,0:0:0:0:
440,253,141704,1,0,0:0:0:0:
333,183,142393,1,0,0:0:0:0:
256,192,142566,12,0,143428,0:0:0:0:
429,165,143773,5,0,0:0:0:0:
336,177,144118,1,0,0:0:0:0:
433,165,144462,1,8,0:0:0:0:
291,150,144635,1,8,0:0:0:0:
291,150,144980,1,8,0:0:0:0:
316,152,145152,1,0,0:0:0:0:
440,265,145325,1,8,0:0:0:0:
440,265,145411,1,8,0:0:0:0:
440,265,145497,1,8,0:0:0:0:
440,265,145669,1,8,0:0:0:0:
440,265,145842,1,0,0:0:0:0:
299,161,146014,1,8,0:0:0:0:
306,161,146359,1,8,0:0:0:0:
321,161,146531,1,0,0:0:0:0:
357,181,146704,1,0,0:0:0:0:
357,181,146876,1,8,0:0:0:0:
357,181,147221,1,8,0:0:0:0:
384,184,147393,1,8,0:0:0:0:
384,184,147738,1,8,0:0:0:0:
388,183,147911,1,0,0:0:0:0:
451,238,148083,1,0,0:0:0:0:
451,238,148169,1,0,0:0:0:0:
451,238,148256,1,8,0:0:0:0:
451,238,148428,1,0,0:0:0:0:
291,159,148600,1,8,0:0:0:0:
334,165,148773,1,0,0:0:0:0:
334,165,148945,1,8,0:0:0:0:
343,159,149118,1,8,0:0:0:0:
387,174,149290,1,0,0:0:0:0:
418,145,149462,1,0,0:0:0:0:
413,143,149635,1,8,0:0:0:0:
413,143,149980,1,8,0:0:0:0:
409,159,150152,1,8,0:0:0:0:
298,136,150325,1,0,0:0:0:0:
430,159,150497,1,8,0:0:0:0:
431,159,150669,1,0,0:0:0:0:
402,253,150842,1,8,0:0:0:0:
402,253,150928,1,8,0:0:0:0:
382,247,151014,1,0,0:0:0:0:
402,247,151187,1,0,0:0:0:0:
413,245,151359,1,8,0:0:0:0:
296,148,151531,1,8,0:0:0:0:
421,252,151704,1,0,0:0:0:0:
296,148,151876,1,0,0:0:0:0:
442,247,152049,1,8,0:0:0:0:
458,234,152393,1,0,0:0:0:0:
344,199,152738,1,8,0:0:0:0:
291,101,152825,1,8,0:0:0:0:
291,101,152911,1,8,0:0:0:0:
420,196,153083,1,0,0:0:0:0:
416,196,153256,1,8,0:0:0:0:
336,137,153428,1,0,0:0:0:0:
370,215,153945,1,0,0:0:0:0:
430,177,154118,1,8,0:0:0:0:
430,177,154290,1,8,0:0:0:0:
430,177,154462,1,8,0:0:0:0:
430,177,154635,1,8,0:0:0:0:
299,153,154807,1,0,0:0:0:0:
330,153,155152,1,0,0:0:0:0:
330,153,155497,1,8,0:0:0:0:
333,156,155669,1,0,0:0:0:0:
216,116,155842,1,8,0:0:0:0:
333,156,156187,1,0,0:0:0:0:
309,134,156359,1,0,0:0:0:0:
309,134,156445,1,0,0:0:0:0:
422,294,156531,1,0,0:0:0:0:
252,101,156704,1,0,0:0:0:0:
422,294,156876,1,8,0:0:0:0:
369,172,157221,1,0,0:0:0:0:
369,172,157393,1,0,0:0:0:0:
299,153,157566,1,0,0:0:0:0:
407,238,157911,1,0,0:0:0:0:
407,238,158256,1,8,0:0:0:0:
352,166,158428,1,0,0:0:0:0:
298,42,158600,1,8,0:0:0:0:
407,238,158945,1,0,0:0:0:0:
422,294,159118,1,0,0:0:0:0:
422,294,159204,1,0,0:0:0:0:
422,294,159290,1,0,0:0:0:0:
309,181,159462,1,0,0:0:0:0:
422,294,159635,1,8,0:0:0:0:
369,172,159980,1,0,0:0:0:0:
369,172,160152,1,0,0:0:0:0:
299,153,160325,1,0,0:0:0:0:
330,153,160669,1,0,0:0:0:0:
330,153,161014,1,8,0:0:0:0:
299,153,161187,1,8,0:0:0:0:
333,156,161359,1,0,0:0:0:0:
408,187,161531,1,8,0:0:0:0:
333,156,161704,1,0,0:0:0:0:
309,134,161876,1,0,0:0:0:0:
309,134,161962,1,0,0:0:0:0:
422,294,162049,1,0,0:0:0:0:
252,101,162221,1,0,0:0:0:0:
422,294,162393,1,8,0:0:0:0:
369,172,162738,1,0,0:0:0:0:
369,172,162911,1,0,0:0:0:0:
299,153,163083,1,0,0:0:0:0:
407,238,163428,1,0,0:0:0:0:
407,238,163773,1,8,0:0:0:0:
352,166,163945,1,8,0:0:0:0:
276,94,164118,1,0,0:0:0:0:
407,238,164290,1,8,0:0:0:0:
407,238,164462,1,0,0:0:0:0:
422,294,164635,1,0,0:0:0:0:
277,123,164692,1,8,0:0:0:0:
277,123,164750,1,8,0:0:0:0:
422,294,164807,1,0,0:0:0:0:
309,181,164980,1,0,0:0:0:0:
422,294,165152,1,8,0:0:0:0:
369,172,165497,1,0,0:0:0:0:
369,172,165669,1,0,0:0:0:0:
267,100,165842,1,12,0:0:0:0:
257,157,166100,1,0,0:0:0:0:
257,157,166187,1,8,0:0:0:0:
257,157,166359,1,0,0:0:0:0:
257,157,166531,1,8,0:0:0:0:
410,156,166618,1,0,0:0:0:0:
380,305,166704,1,0,0:0:0:0:
411,98,166876,1,8,0:0:0:0:
281,148,167049,1,0,0:0:0:0:
281,148,167106,1,0,0:0:0:0:
281,148,167164,1,0,0:0:0:0:
270,145,167221,1,8,0:0:0:0:
420,309,167393,1,0,0:0:0:0:
420,121,167480,1,0,0:0:0:0:
420,121,167566,1,8,0:0:0:0:
353,166,167738,1,0,0:0:0:0:
353,166,167911,1,8,0:0:0:0:
353,166,167997,1,8,0:0:0:0:
353,166,168169,1,8,0:0:0:0:
364,147,168256,1,0,0:0:0:0:
364,147,168428,1,0,0:0:0:0:
364,147,168485,1,0,0:0:0:0:
331,163,168543,1,0,0:0:0:0:
267,100,168600,1,8,0:0:0:0:
257,157,168859,1,0,0:0:0:0:
257,157,168945,1,8,0:0:0:0:
257,157,169118,1,0,0:0:0:0:
257,157,169290,1,8,0:0:0:0:
410,156,169376,1,0,0:0:0:0:
398,192,169462,1,0,0:0:0:0:
411,98,169635,1,8,0:0:0:0:
270,145,169807,1,0,0:0:0:0:
261,145,169865,1,0,0:0:0:0:
266,145,169922,1,0,0:0:0:0:
270,145,169980,1,8,0:0:0:0:
380,194,170152,1,0,0:0:0:0:
420,121,170238,1,0,0:0:0:0:
420,121,170325,1,8,0:0:0:0:
353,166,170497,1,0,0:0:0:0:
353,166,170669,1,8,0:0:0:0:
353,166,170756,1,0,0:0:0:0:
353,166,170928,1,0,0:0:0:0:
364,147,171014,1,8,0:0:0:0:
435,202,171187,1,0,0:0:0:0:
306,152,171359,1,4,0:0:0:0:
358,161,171531,1,8,0:0:0:0:
358,161,171704,1,8,0:0:0:0:
358,161,171876,1,8,0:0:0:0:
358,161,172049,1,4,0:0:0:0:
358,161,172221,1,8,0:0:0:0:
358,161,172393,1,8,0:0:0:0:
358,161,172566,1,8,0:0:0:0:
358,161,172738,1,4,0:0:0:0:
266,138,172911,1,8,0:0:0:0:
266,138,172997,1,8,0:0:0:0:
266,138,173083,1,8,0:0:0:0:
266,138,173256,1,8,0:0:0:0:
266,138,173428,1,4,0:0:0:0:
266,138,173600,1,8,0:0:0:0:
266,138,173687,1,8,0:0:0:0:
266,138,173773,1,8,0:0:0:0:
266,138,173945,1,0,0:0:0:0:
422,179,174118,1,4,0:0:0:0:
370,115,174807,1,8,0:0:0:0:
370,115,174865,1,8,0:0:0:0:
370,115,174922,1,8,0:0:0:0:
266,138,174980,1,8,0:0:0:0:
301,130,175066,1,8,0:0:0:0:
285,28,175152,1,0,0:0:0:0:
332,101,175325,1,12,0:0:0:0:
298,107,175669,1,8,0:0:0:0:
298,107,175842,1,8,0:0:0:0:
298,107,175928,1,8,0:0:0:0:
332,101,176014,1,0,0:0:0:0:
452,249,176100,1,0,0:0:0:0:
452,249,176187,1,8,0:0:0:0:
452,249,176359,1,0,0:0:0:0:
452,249,176531,1,12,0:0:0:0:
485,310,176876,1,4,0:0:0:0:
378,223,177566,1,8,0:0:0:0:
367,212,177738,1,0,0:0:0:0:
400,174,177911,1,8,0:0:0:0:
400,174,178083,1,4,0:0:0:0:
437,220,178428,1,0,0:0:0:0:
487,236,178600,1,0,0:0:0:0:
372,154,178945,1,8,0:0:0:0:
372,154,179031,1,8,0:0:0:0:
372,154,179118,1,0,0:0:0:0:
372,154,179204,1,0,0:0:0:0:
417,184,179290,1,8,0:0:0:0:
436,190,179462,1,4,0:0:0:0:
428,207,179807,1,0,0:0:0:0:
429,207,179980,1,8,0:0:0:0:
430,233,180325,1,0,0:0:0:0:
430,233,180669,1,8,0:0:0:0:
430,233,180842,1,4,0:0:0:0:
287,182,181187,1,8,0:0:0:0:
287,182,181273,1,8,0:0:0:0:
287,182,181359,1,8,0:0:0:0:
297,210,181445,1,8,0:0:0:0:
297,210,181531,1,8,0:0:0:0:
297,210,181618,1,8,0:0:0:0:
297,210,181704,1,8,0:0:0:0:
315,196,182049,1,8,0:0:0:0:
315,196,182135,1,8,0:0:0:0:
315,196,182221,1,0,0:0:0:0:
326,126,182393,1,4,0:0:0:0:
382,173,182738,1,8,0:0:0:0:
432,201,182911,1,0,0:0:0:0:
432,201,182997,1,0,0:0:0:0:
354,153,183083,1,0,0:0:0:0:
354,153,183256,1,0,0:0:0:0:
354,153,183428,1,8,0:0:0:0:
354,153,183600,1,8,0:0:0:0:
105,148,183687,1,8,0:0:0:0:
354,153,183773,1,0,0:0:0:0:
422,235,183945,1,0,0:0:0:0:
325,130,184031,1,0,0:0:0:0:
365,152,184118,1,8,0:0:0:0:
325,130,184290,1,0,0:0:0:0:
451,235,184462,1,8,0:0:0:0:
329,89,184549,1,8,0:0:0:0:
419,194,184635,1,0,0:0:0:0:
312,145,184721,1,0,0:0:0:0:
338,170,184807,1,8,0:0:0:0:
438,230,184980,1,8,0:0:0:0:
338,170,185152,1,4,0:0:0:0:
299,167,185411,1,8,0:0:0:0:
347,169,185497,1,8,0:0:0:0:
357,185,185669,1,4,0:0:0:0:
356,185,185842,1,8,0:0:0:0:
356,185,185928,1,8,0:0:0:0:
357,185,186014,1,0,0:0:0:0:
357,184,186187,1,8,0:0:0:0:
238,141,186359,1,4,0:0:0:0:
277,144,186704,1,0,0:0:0:0:
229,142,186790,1,0,0:0:0:0:
296,92,186876,1,8,0:0:0:0:
296,92,187049,1,4,0:0:0:0:
299,159,187221,1,8,0:0:0:0:
299,159,187307,1,8,0:0:0:0:
299,159,187393,1,0,0:0:0:0:
318,123,187480,1,0,0:0:0:0:
318,123,187566,1,8,0:0:0:0:
160,112,187652,1,0,0:0:0:0:
167,110,187738,1,8,0:0:0:0:
171,110,187825,1,8,0:0:0:0:
326,126,187911,1,0,0:0:0:0:
382,173,188256,1,12,0:0:0:0:
354,186,188428,1,0,0:0:0:0:
263,161,188514,1,0,0:0:0:0:
354,153,188600,1,8,0:0:0:0:
329,142,188687,1,8,0:0:0:0:
396,210,188773,1,0,0:0:0:0:
354,153,188945,1,8,0:0:0:0:
354,153,189118,1,0,0:0:0:0:
304,101,189204,1,8,0:0:0:0:
304,101,189290,1,0,0:0:0:0:
236,65,189462,1,0,0:0:0:0:
325,130,189549,1,0,0:0:0:0:
365,152,189635,1,8,0:0:0:0:
325,130,189807,1,0,0:0:0:0:
451,235,189980,1,8,0:0:0:0:
387,231,190066,1,8,0:0:0:0:
419,194,190152,1,0,0:0:0:0:
220,48,190238,1,0,0:0:0:0:
220,48,190325,1,8,0:0:0:0:
438,230,190497,1,8,0:0:0:0:
438,230,190583,1,8,0:0:0:0:
338,170,190669,1,0,0:0:0:0:
436,223,190842,1,0,0:0:0:0:
299,167,190928,1,0,0:0:0:0:
347,169,191014,1,8,0:0:0:0:
357,185,191187,1,0,0:0:0:0:
356,185,191359,1,8,0:0:0:0:
280,61,191445,1,0,0:0:0:0:
357,185,191531,1,0,0:0:0:0:
280,61,191618,1,0,0:0:0:0:
357,184,191704,1,8,0:0:0:0:
238,141,191876,1,0,0:0:0:0:
229,141,191962,1,8,0:0:0:0:
238,141,192049,1,0,0:0:0:0:
277,144,192135,1,0,0:0:0:0:
229,142,192307,1,0,0:0:0:0:
296,92,192393,1,8,0:0:0:0:
296,92,192566,1,8,0:0:0:0:
273,108,192652,1,0,0:0:0:0:
299,159,192738,1,8,0:0:0:0:
299,159,192825,1,8,0:0:0:0:
299,159,192911,1,0,0:0:0:0:
301,125,193083,1,12,0:0:0:0:
326,126,193428,1,4,0:0:0:0:
356,100,193687,1,0,0:0:0:0:
382,173,193773,1,8,0:0:0:0:
432,201,193945,1,0,0:0:0:0:
354,153,194118,1,8,0:0:0:0:
432,201,194204,1,8,0:0:0:0:
354,153,194290,1,0,0:0:0:0:
354,153,194462,1,8,0:0:0:0:
354,153,194635,1,0,0:0:0:0:
105,148,194721,1,0,0:0:0:0:
354,153,194807,1,8,0:0:0:0:
182,97,194893,1,8,0:0:0:0:
298,150,194980,1,0,0:0:0:0:
365,152,195152,1,8,0:0:0:0:
325,130,195325,1,0,0:0:0:0:
302,117,195411,1,0,0:0:0:0:
451,235,195497,1,8,0:0:0:0:
329,89,195583,1,0,0:0:0:0:
163,94,195756,1,0,0:0:0:0:
338,170,195842,1,8,0:0:0:0:
276,68,195928,1,0,0:0:0:0:
438,230,196014,1,8,0:0:0:0:
243,92,196100,1,8,0:0:0:0:
338,170,196187,1,0,0:0:0:0:
211,137,196445,1,0,0:0:0:0:
211,137,196531,1,8,0:0:0:0:
185,99,196618,1,8,0:0:0:0:
186,105,196704,1,0,0:0:0:0:
207,27,196876,1,8,0:0:0:0:
207,27,197049,1,0,0:0:0:0:
207,27,197135,1,0,0:0:0:0:
207,27,197221,1,8,0:0:0:0:
170,108,197307,1,8,0:0:0:0:
170,108,197393,1,0,0:0:0:0:
275,143,197480,1,0,0:0:0:0:
176,105,197566,1,8,0:0:0:0:
247,127,197825,1,0,0:0:0:0:
272,132,197911,1,8,0:0:0:0:
272,132,198083,1,0,0:0:0:0:
262,115,198256,1,8,0:0:0:0:
243,174,198342,1,0,0:0:0:0:
318,123,198514,1,0,0:0:0:0:
318,123,198600,1,8,0:0:0:0:
160,112,198687,1,8,0:0:0:0:
167,110,198773,1,8,0:0:0:0:
46,184,198859,1,8,0:0:0:0:
123,180,198945,1,0,0:0:0:0:
339,194,199462,1,0,0:0:0:0:
339,194,199549,1,0,0:0:0:0:
339,194,199635,1,8,0:0:0:0:
339,194,199980,1,0,0:0:0:0:
347,195,200152,1,0,0:0:0:0:
347,194,200497,1,8,0:0:0:0:
347,194,200669,1,0,0:0:0:0:
338,201,201014,1,8,0:0:0:0:
338,201,201359,1,0,0:0:0:0:
287,176,201531,1,8,0:0:0:0:
338,201,201704,1,0,0:0:0:0:
327,176,202221,1,0,0:0:0:0:
327,176,202307,1,0,0:0:0:0:
327,176,202393,1,8,0:0:0:0:
327,176,202738,1,0,0:0:0:0:
327,176,202911,1,8,0:0:0:0:
327,176,203256,1,8,0:0:0:0:
327,176,203428,1,0,0:0:0:0:
369,173,203600,1,0,0:0:0:0:
327,176,203773,1,12,0:0:0:0:
376,170,204031,1,0,0:0:0:0:
376,190,204118,1,8,0:0:0:0:
376,190,204290,1,8,0:0:0:0:
322,179,204462,1,4,0:0:0:0:
339,194,204980,1,0,0:0:0:0:
339,194,205066,1,0,0:0:0:0:
339,194,205152,1,8,0:0:0:0:
339,194,205497,1,0,0:0:0:0:
347,195,205669,1,0,0:0:0:0:
363,202,205842,1,8,0:0:0:0:
347,194,206014,1,8,0:0:0:0:
347,194,206187,1,0,0:0:0:0:
338,201,206531,1,8,0:0:0:0:
338,201,206876,1,0,0:0:0:0:
287,176,207049,1,8,0:0:0:0:
338,201,207221,1,0,0:0:0:0:
283,179,207566,1,8,0:0:0:0:
327,176,207738,1,0,0:0:0:0:
327,176,207825,1,0,0:0:0:0:
327,176,207911,1,8,0:0:0:0:
327,176,208256,1,0,0:0:0:0:
327,176,208428,1,8,0:0:0:0:
437,196,208600,1,0,0:0:0:0:
249,130,208773,1,8,0:0:0:0:
437,196,208830,1,8,0:0:0:0:
249,130,208888,1,8,0:0:0:0:
327,176,208945,1,0,0:0:0:0:
369,173,209118,1,0,0:0:0:0:
327,176,209290,1,12,0:0:0:0:
376,190,209635,1,12,0:0:0:0:
328,118,209980,1,0,0:0:0:0:
255,109,210325,1,8,0:0:0:0:
282,164,210497,1,0,0:0:0:0:
282,164,210669,1,8,0:0:0:0:
282,164,210756,1,8,0:0:0:0:
282,164,210842,1,0,0:0:0:0:
340,173,211014,1,12,0:0:0:0:
287,157,211187,1,4,0:0:0:0:
288,157,211531,1,8,0:0:0:0:
288,157,211618,1,8,0:0:0:0:
288,157,211704,1,0,0:0:0:0:
288,157,211876,1,0,0:0:0:0:
287,157,212049,1,8,0:0:0:0:
340,173,212221,1,8,0:0:0:0:
287,157,212307,1,8,0:0:0:0:
364,125,212393,1,0,0:0:0:0:
364,125,212566,1,8,0:0:0:0:
364,125,212738,1,0,0:0:0:0:
322,148,213083,1,8,0:0:0:0:
282,164,213256,1,0,0:0:0:0:
273,202,213342,1,0,0:0:0:0:
282,164,213428,1,8,0:0:0:0:
396,243,213514,1,8,0:0:0:0:
282,164,213600,1,8,0:0:0:0:
340,173,213773,1,0,0:0:0:0:
287,157,213945,1,8,0:0:0:0:
340,173,214118,1,0,0:0:0:0:
288,157,214290,1,8,0:0:0:0:
288,157,214376,1,8,0:0:0:0:
288,157,214462,1,0,0:0:0:0:
288,157,214635,1,0,0:0:0:0:
287,157,214807,1,12,0:0:0:0:
340,173,214980,1,0,0:0:0:0:
300,119,215066,1,0,0:0:0:0:
364,125,215152,1,8,0:0:0:0:
364,125,215325,1,8,0:0:0:0:
328,118,215497,1,4,0:0:0:0:
322,148,215842,1,8,0:0:0:0:
282,164,216014,1,0,0:0:0:0:
282,164,216100,1,0,0:0:0:0:
282,164,216187,1,8,0:0:0:0:
446,222,216273,1,0,0:0:0:0:
282,164,216359,1,8,0:0:0:0:
340,173,216531,1,0,0:0:0:0:
287,157,216704,1,0,0:0:0:0:
277,79,216876,1,8,0:0:0:0:
288,157,217049,1,8,0:0:0:0:
288,157,217135,1,8,0:0:0:0:
288,157,217221,1,0,0:0:0:0:
288,157,217393,1,0,0:0:0:0:
287,157,217566,1,8,0:0:0:0:
256,113,217652,1,0,0:0:0:0:
340,173,217738,1,8,0:0:0:0:
287,157,217825,1,8,0:0:0:0:
364,125,217911,1,0,0:0:0:0:
384,126,218083,1,8,0:0:0:0:
364,125,218256,1,0,0:0:0:0:
243,168,218428,1,8,0:0:0:0:
324,114,218514,1,0,0:0:0:0:
322,148,218600,1,8,0:0:0:0:
282,164,218773,1,0,0:0:0:0:
290,103,218859,1,0,0:0:0:0:
282,164,218945,1,8,0:0:0:0:
283,74,219031,1,8,0:0:0:0:
282,164,219118,1,8,0:0:0:0:
340,173,219290,1,0,0:0:0:0:
287,157,219462,1,8,0:0:0:0:
258,158,219549,1,8,0:0:0:0:
340,173,219635,1,0,0:0:0:0:
288,157,219807,1,8,0:0:0:0:
288,157,219865,1,8,0:0:0:0:
300,181,219922,1,8,0:0:0:0:
288,157,219980,1,0,0:0:0:0:
290,70,220066,1,8,0:0:0:0:
288,157,220152,1,0,0:0:0:0:
287,157,220325,1,12,0:0:0:0:
340,173,220497,1,0,0:0:0:0:
124,116,220583,1,0,0:0:0:0:
364,125,220669,1,8,0:0:0:0:
301,171,220756,1,0,0:0:0:0:
157,156,220842,1,0,0:0:0:0:
281,99,220928,1,0,0:0:0:0:
417,179,221014,1,8,0:0:0:0:
465,200,221704,1,8,0:0:0:0:
465,200,222393,1,8,0:0:0:0:
465,200,223083,1,8,0:0:0:0:
