osu file format v14

[General]
AudioFilename: audio.mp3
AudioLeadIn: 0
PreviewTime:173901
Countdown: 0
SampleSet: Soft
StackLeniency: 0.7
Mode: 0
LetterboxInBreaks: 0
WidescreenStoryboard: 1

[Editor]
Bookmarks: 201078,211313
DistanceSpacing: 0.4
BeatDivisor: 4
GridSize: 16
TimelineZoom: 1.5

[Metadata]
Title:Suki yo ~Two Hearts~
TitleUnicode:好きよ 〜Two Hearts〜
Artist:Nakano Nino (CV: Taketatsu Ayana)
ArtistUnicode:中野二乃 (CV: 竹達彩奈)
Creator:ckharv
Version:mnyui's Insane
Source:五等分の花嫁∬
Tags:go tou bun gotoubun no hanayome hana yome The Five Wedded Brides Quintessential Quintuplets season 2 second double integral character song mini album japanese anime pop jpop female vocal full version ver. ver xDidqh_ mnyui gelidium didah
BeatmapID:3662334
BeatmapSetID:1787575

[Difficulty]
HPDrainRate:5
CircleSize:4
OverallDifficulty:8
ApproachRate:8.8
SliderMultiplier:1.8
SliderTickRate:1

[Events]
//Background and Video events
0,0,"nino_4.jpg",0,0
//Break Periods
2,141984,158096
2,171454,172920
//Storyboard Layer 0 (Background)
//Storyboard Layer 1 (Fail)
//Storyboard Layer 2 (Pass)
//Storyboard Layer 3 (Foreground)
//Storyboard Layer 4 (Overlay)
//Storyboard Sound Samples

[TimingPoints]
-804,352.941176470588,4,2,1,50,1,0
607,-142.857142857143,4,2,1,50,0,0
5548,-142.857142857143,4,2,1,80,0,0
6254,-111.111111111111,4,2,1,80,0,0
17548,-125,4,2,1,55,0,0
22313,-125,4,2,1,60,0,0
22666,-125,4,2,1,65,0,0
23019,-111.111111111111,4,2,1,70,0,0
28843,-111.111111111111,4,2,1,65,0,0
33519,-111.111111111111,4,2,1,5,0,0
33607,-111.111111111111,4,2,1,65,0,0
37313,-125,4,2,1,55,0,0
38725,-111.111111111111,4,2,1,55,0,0
40490,-111.111111111111,4,2,1,65,0,0
45784,-111.111111111111,4,2,1,70,0,0
51431,-142.857142857143,4,2,1,55,0,0
54254,-142.857142857143,4,2,1,60,0,0
54784,-142.857142857143,4,2,1,65,0,0
55313,-142.857142857143,4,2,1,75,0,0
55843,-142.857142857143,4,2,1,55,0,0
56019,-142.857142857143,4,2,1,60,0,0
56195,-142.857142857143,4,2,1,65,0,0
56372,-142.857142857143,4,2,1,70,0,0
56548,-142.857142857143,4,2,1,75,0,0
56725,-142.857142857143,4,2,1,80,0,0
56901,-142.857142857143,4,2,1,85,0,0
57784,-142.857142857143,4,2,1,40,0,0
58137,-142.857142857143,4,2,1,45,0,0
58490,-142.857142857143,4,2,1,50,0,0
58843,-142.857142857143,4,2,1,55,0,0
59107,-142.857142857143,4,2,1,5,0,0
59195,-142.857142857143,4,2,1,80,0,0
59901,-100,4,2,1,80,0,0
71195,-125,4,2,1,65,0,0
82490,-125,4,2,1,55,0,0
83901,-125,4,2,1,80,0,0
85313,-111.111111111111,4,2,1,80,0,0
90254,-111.111111111111,4,2,1,60,0,0
95372,-111.111111111111,4,2,1,70,0,0
96431,-125,4,2,1,70,0,0
96784,-125,4,2,1,60,0,0
102607,-125,4,2,1,65,0,0
107901,-125,4,2,1,70,0,0
113548,-142.857142857143,4,2,1,55,0,0
116372,-111.111111111111,4,2,1,60,0,0
116901,-111.111111111111,4,2,1,65,0,0
117607,-111.111111111111,4,2,1,70,0,0
118490,-111.111111111111,4,2,1,65,0,0
118843,-111.111111111111,4,2,1,75,0,0
119195,-100,4,2,1,80,0,0
130490,-125,4,2,1,65,0,0
138960,-100,4,2,1,75,0,0
141078,-100,4,2,1,60,0,0
158725,-111.111111111111,4,2,1,60,0,0
167725,-99.9999999999999,4,2,1,65,0,0
168254,-90.9090909090909,4,2,1,70,0,0
168784,-111.111111111111,4,2,1,75,0,0
169137,-111.111111111111,4,2,1,65,0,0
170019,-111.111111111111,4,2,1,75,0,0
170372,-111.111111111111,4,2,1,80,0,0
174607,-111.111111111111,4,2,1,75,0,0
176195,-111.111111111111,4,2,1,65,0,0
176725,-111.111111111111,4,2,1,75,0,0
176990,-111.111111111111,4,2,1,5,0,0
177078,-100,4,2,1,80,0,0
185548,-125,4,2,1,65,0,0
194019,-125,4,2,1,75,0,0
195784,-125,4,2,1,55,0,0
196313,-166.666666666667,4,2,1,55,0,0
196843,-166.666666666667,4,2,1,55,0,0
198254,-166.666666666667,4,2,1,80,0,0
199313,-142.857142857143,4,2,1,45,0,0
199931,-142.857142857143,4,2,1,5,0,0
200019,-142.857142857143,4,2,1,50,0,0
200637,-142.857142857143,4,2,1,5,0,0
200725,-142.857142857143,4,2,1,55,0,0
201078,-111.111111111111,4,2,1,80,0,0

[Colours]
Combo1 : 253,215,198
Combo2 : 233,233,233
Combo3 : 253,159,183
Combo4 : 151,204,199

[HitObjects]
69,50,607,6,0,P|98:61|129:67,2,62.9999980773926,2|2|2,0:2|0:2|0:2,0:0:0:0:
205,91,1137,2,0,P|143:96|101:141,1,125.999996154785,2|2,0:2|0:2,0:0:0:0:
0,174,1843,2,0,P|91:169|157:233,1,188.999994232178,2|2,0:2|0:2,0:0:0:0:
157,233,2725,5,2,0:2:0:0:
62,275,2901,1,2,0:2:0:0:
338,380,3431,6,0,P|350:319|402:286,1,125.999996154785,2|2,0:2|0:2,0:0:0:0:
474,252,3960,1,2,0:2:0:0:
402,285,4137,2,0,P|336:277|295:227,1,125.999996154785,2|0,0:2|0:2,0:0:0:0:
384,147,4666,2,0,L|371:208,1,62.9999980773926,2|0,0:2|0:2,0:0:0:0:
264,327,5019,2,0,P|202:341|143:362,1,125.999996154785,2|0,0:2|0:0,0:0:0:0:
34,194,5548,5,8,0:2:0:0:
209,246,5725,1,8,0:2:0:0:
209,246,6254,6,0,P|213:205|227:167,1,80.9999975280762,6|2,1:2|0:2,0:0:0:0:
232,162,6519,1,2,0:2:0:0:
237,157,6607,1,10,0:2:0:0:
114,100,6784,1,2,0:2:0:0:
114,100,6872,1,2,0:0:0:0:
114,100,6960,2,0,L|132:178,1,80.9999975280762,2|0,1:2|0:0,0:0:0:0:
291,258,7313,1,10,0:2:0:0:
357,196,7490,6,0,P|435:197|489:255,1,161.999995056152,2|2,1:2|0:2,0:0:0:0:
352,327,8019,1,8,0:2:0:0:
291,258,8195,1,2,1:2:0:0:
291,258,8284,1,8,0:2:0:0:
291,258,8372,2,0,P|282:219|266:182,1,80.9999975280762,2|2,0:2|1:2,0:0:0:0:
443,90,8725,1,8,0:2:0:0:
370,0,8901,5,0,1:2:0:0:
370,0,8990,1,8,0:2:0:0:
370,0,9078,2,0,L|349:181,1,161.999995056152,2|10,1:2|0:2,0:0:0:0:
197,243,9607,1,2,0:2:0:0:
197,243,9695,1,2,0:0:0:0:
197,243,9784,2,0,P|139:207|37:220,1,161.999995056152,2|10,1:2|0:2,0:0:0:0:
242,363,10313,6,0,P|330:363|385:277,1,161.999995056152,4|0,1:2|0:2,0:0:0:0:
450,215,10843,1,10,0:2:0:0:
312,121,11019,1,10,0:2:0:0:
315,126,11107,1,2,1:2:0:0:
446,46,11284,1,2,0:0:0:0:
449,51,11372,1,2,1:2:0:0:
396,127,11548,1,8,0:2:0:0:
315,21,11725,5,0,1:2:0:0:
315,21,11813,1,8,0:2:0:0:
314,21,11901,2,0,P|277:37|238:47,1,80.9999975280763,6|0,1:2|0:0,0:0:0:0:
165,164,12254,2,0,L|270:193,1,80.9999975280763,10|0,0:2|0:2,0:0:0:0:
255,180,12519,1,0,0:0:0:0:
257,172,12607,2,0,P|300:198|290:323,1,161.999995056153,2|10,1:2|0:2,0:0:0:0:
182,356,13137,6,0,B|160:363|160:363|136:344|136:344|81:368|20:328,1,161.999995056153,2|0,1:2|1:2,0:0:0:0:
91,268,13666,1,10,0:2:0:0:
0,147,13843,2,0,P|20:206|24:239,1,80.9999975280763,6|0,1:2|0:2,0:0:0:0:
179,264,14195,1,2,1:2:0:0:
179,264,14284,1,8,0:2:0:0:
179,264,14372,2,0,L|201:170,1,80.9999975280763,8|8,0:2|0:2,0:0:0:0:
200,175,14637,1,8,0:2:0:0:
203,166,14725,6,0,P|266:208|350:191,1,161.999995056153,2|2,1:2|0:2,0:0:0:0:
419,240,15254,2,0,L|441:146,1,80.9999975280763,2|10,1:2|0:2,0:0:0:0:
370,117,15607,1,2,0:2:0:0:
508,211,15784,1,8,0:2:0:0:
341,278,15960,6,0,P|273:272|201:349,1,161.999995056153,6|2,1:2|1:2,0:0:0:0:
206,331,16401,1,0,1:2:0:0:
206,331,16490,1,10,0:2:0:0:
104,207,16666,5,0,1:2:0:0:
104,207,16754,1,0,1:0:0:0:
104,207,16843,1,10,0:2:0:0:
300,358,17019,1,10,0:2:0:0:
300,358,17372,1,0,0:0:0:0:
371,306,17548,6,0,P|375:236|433:199,1,144,6|0,1:2|1:2,0:0:0:0:
486,263,18078,1,2,0:2:0:0:
511,165,18254,2,0,L|370:134,1,144,2|0,1:2|1:2,0:0:0:0:
288,176,18784,1,2,0:2:0:0:
344,50,18960,6,0,P|285:88|280:157,1,144,2|0,1:2|1:2,0:0:0:0:
366,213,19490,1,2,0:2:0:0:
294,264,19666,2,0,L|152:290,1,144,2|0,1:2|1:2,0:0:0:0:
107,364,20195,5,2,0:2:0:0:
107,364,20284,1,2,0:2:0:0:
107,364,20372,2,0,P|89:285|17:262,1,144,2|0,1:2|1:2,0:0:0:0:
36,260,20901,1,0,0:0:0:0:
0,165,21078,5,2,1:2:0:0:
81,187,21254,1,2,0:2:0:0:
110,98,21431,1,2,1:2:0:0:
42,139,21607,1,2,0:2:0:0:
157,230,21784,6,0,P|209:225|268:148,1,144,2|2,1:2|1:2,0:0:0:0:
189,76,22313,1,8,0:2:0:0:
189,76,22401,1,8,0:2:0:0:
189,76,22490,1,8,1:3:0:0:
273,16,22666,2,0,P|278:51|286:86,1,72,4|4,1:3|1:3,0:0:0:0:
330,221,23019,6,0,P|409:225|464:282,1,161.999995056153,6|2,1:2|0:2,0:0:0:0:
392,348,23548,2,0,L|470:368,1,80.9999975280763,10|0,0:2|0:2,0:0:0:0:
235,320,23901,2,0,L|339:299,1,80.9999975280763,10|0,0:2|0:2,0:0:0:0:
164,384,24254,2,0,P|155:344|142:306,1,80.9999975280763,10|0,0:2|0:2,0:0:0:0:
191,103,24607,6,0,P|253:152|250:229,1,161.999995056153,8|8,0:2|0:2,0:0:0:0:
85,226,25137,2,0,P|125:222|163:208,1,80.9999975280763,2|8,0:2|0:2,0:0:0:0:
314,303,25490,1,2,0:2:0:0:
378,246,25666,2,0,P|383:205|397:167,1,80.9999975280763,10|0,0:2|0:0,0:0:0:0:
497,84,26019,6,0,P|438:86|392:49,1,121.499996292114,10|0,0:2|0:0,0:0:0:0:
380,42,26372,2,0,L|300:55,1,80.9999975280763,10|0,0:2|0:2,0:0:0:0:
210,174,26725,2,0,P|172:162|133:154,1,80.750001540184,10|0,0:2|0:2,0:0:0:0:
205,14,27078,2,0,L|228:105,1,80.9999975280763,10|0,0:2|1:2,0:0:0:0:
269,248,27431,6,0,P|191:269|153:356,1,161.999995056153,12|0,0:2|1:2,0:0:0:0:
219,370,27960,5,8,0:2:0:0:
384,218,28313,5,12,0:2:0:0:
154,73,28666,5,2,1:2:0:0:
154,73,28754,1,0,1:2:0:0:
154,73,28843,2,0,P|78:102|0:118,1,161.999995056153,6|8,1:2|0:2,0:0:0:0:
126,165,29372,1,2,0:2:0:0:
234,122,29548,2,0,L|243:41,1,80.9999975280763,2|2,1:2|0:2,0:0:0:0:
133,162,29901,2,0,P|151:198|159:237,1,80.9999975280763,8|2,0:2|0:2,0:0:0:0:
260,322,30254,6,0,P|293:298|299:210,1,121.499996292114,2|0,1:2|0:0,0:0:0:0:
294,213,30607,1,10,0:2:0:0:
335,135,30784,1,2,1:2:0:0:
335,135,30872,1,10,0:2:0:0:
335,135,30960,1,2,0:0:0:0:
460,234,31137,2,0,L|365:206,1,80.9999975280763,2|8,1:2|0:2,0:0:0:0:
439,147,31490,1,2,0:2:0:0:
312,29,31666,6,0,P|246:72|239:150,1,161.999995056153,2|8,1:2|0:2,0:0:0:0:
239,150,32195,1,2,0:2:0:0:
168,210,32372,2,0,L|91:235,1,80.9999975280763,2|2,1:2|1:2,0:0:0:0:
86,240,32637,1,2,0:2:0:0:
82,246,32725,1,10,0:2:0:0:
255,241,32901,1,2,0:2:0:0:
77,251,33078,6,0,P|151:275|167:381,1,161.999995056153,2|10,1:2|0:2,0:0:0:0:
273,384,33607,1,10,0:2:0:0:
273,384,33695,1,8,0:2:0:0:
273,384,33784,1,8,1:3:0:0:
341,318,33960,1,10,0:2:0:0:
341,318,34048,1,0,1:2:0:0:
341,318,34137,2,0,L|322:255,1,40.4999987640381,10|0,0:2|1:2,0:0:0:0:
206,219,34313,6,0,P|285:215|340:157,1,161.999995056153,6|2,1:2|1:2,0:0:0:0:
495,165,34843,2,0,P|456:157|418:143,1,80.9999975280763,10|0,0:2|0:2,0:0:0:0:
343,4,35195,2,0,L|360:84,1,80.9999975280763,10|0,0:2|1:2,0:0:0:0:
435,57,35548,1,10,0:2:0:0:
273,170,35725,1,2,0:2:0:0:
211,73,35901,6,0,P|249:86|288:94,1,80.9999975280763,8|2,0:2|0:2,0:0:0:0:
224,237,36254,2,0,L|146:258,1,80.9999975280763,8|0,0:2|1:2,0:0:0:0:
142,265,36519,1,0,1:2:0:0:
139,274,36607,1,8,0:2:0:0:
17,189,36784,1,8,0:2:0:0:
96,107,36960,2,0,L|114:200,1,80.9999975280763,8|4,1:3|0:3,0:0:0:0:
56,310,37313,6,0,P|126:304|178:352,1,144,6|0,1:2|1:2,0:0:0:0:
178,352,37843,1,0,0:0:0:0:
337,330,38019,2,2,L|355:259,2,48,10|2|2,0:2|0:0|0:0,0:0:0:0:
268,382,38372,2,0,L|252:279,1,72,10|0,0:2|1:2,0:0:0:0:
374,192,38725,6,0,P|433:244|512:246,1,161.999995056153,10|0,0:2|1:2,0:0:0:0:
466,156,39254,1,10,0:2:0:0:
328,42,39431,2,0,L|309:134,1,80.9999975280763,0|0,0:0|1:2,0:0:0:0:
265,304,39784,5,8,0:3:0:0:
275,292,39960,1,4,0:3:0:0:
285,295,40137,1,0,1:0:0:0:
280,309,40313,1,0,1:0:0:0:
181,201,40490,6,0,P|119:151|40:157,1,161.999995056153,14|0,0:2|1:2,0:0:0:0:
92,240,41019,1,2,0:2:0:0:
0,338,41195,2,0,L|104:316,1,80.9999975280763,8|2,0:2|0:2,0:0:0:0:
213,383,41548,6,0,P|224:305|285:255,1,161.999995056153,2|10,1:2|0:2,0:0:0:0:
365,182,42078,1,10,0:2:0:0:
365,182,42166,1,8,0:2:0:0:
365,182,42254,2,0,P|372:221|386:259,1,80.9999975280763,0|4,1:2|0:3,0:0:0:0:
239,178,42607,1,8,0:3:0:0:
367,74,42784,5,4,0:3:0:0:
367,74,43137,1,0,1:2:0:0:
299,21,43313,2,0,P|246:79|167:87,1,161.999995056153,12|2,0:2|1:2,0:0:0:0:
53,15,43843,1,2,0:2:0:0:
0,147,44019,1,10,0:2:0:0:
82,91,44195,1,2,0:2:0:0:
169,173,44372,6,0,P|155:211|148:251,1,80.9999975280763,2|0,1:2|0:0,0:0:0:0:
79,171,44725,1,8,0:2:0:0:
211,317,44901,1,2,1:2:0:0:
211,317,44990,1,0,1:2:0:0:
211,317,45078,2,0,L|131:343,1,80.9999975280763,8|10,0:2|0:2,0:0:0:0:
133,342,45343,1,0,1:2:0:0:
133,342,45431,1,8,0:3:0:0:
238,232,45607,1,6,0:3:0:0:
340,363,45784,6,0,P|417:373|478:322,1,161.999995056153,6|8,1:2|0:2,0:0:0:0:
320,216,46313,1,2,0:2:0:0:
415,211,46490,2,0,P|403:249|395:289,1,80.9999975280763,2|0,1:2|1:2,0:0:0:0:
263,369,46843,2,0,L|241:273,1,80.9999975280763,8|2,0:2|0:2,0:0:0:0:
167,141,47195,6,0,P|86:204|88:270,1,161.999995056153,2|10,1:2|0:2,0:0:0:0:
151,313,47725,1,2,0:2:0:0:
246,206,47901,2,0,L|264:107,1,80.9999975280763,0|0,1:2|0:2,0:0:0:0:
304,54,48254,1,10,0:2:0:0:
167,141,48431,1,2,0:2:0:0:
330,230,48607,6,0,P|398:245|453:334,1,161.999995056153,2|8,1:2|0:2,0:0:0:0:
425,204,49137,1,2,0:2:0:0:
364,324,49313,2,0,P|321:329|264:352,1,80.9999975280763,2|0,1:2|1:2,0:0:0:0:
207,384,49666,1,10,0:2:0:0:
207,384,49843,1,2,0:2:0:0:
74,256,50019,6,0,P|152:245|215:292,1,161.999995056153,2|6,1:2|1:2,0:0:0:0:
296,215,50548,6,0,L|285:263,2,40.4999987640381,10|0|2,0:2|1:2|1:2,0:0:0:0:
205,162,50901,5,10,0:2:0:0:
286,86,51078,5,10,1:3:0:0:
226,27,51254,5,6,1:3:0:0:
251,0,51431,6,0,L|239:128,2,125.999996154785,6|0|10,1:2|1:2|0:2,0:0:0:0:
133,173,52490,1,0,1:2:0:0:
133,173,52666,1,8,0:2:0:0:
67,124,52843,2,0,L|-9:140,1,62.9999980773926,0|8,1:2|0:2,0:0:0:0:
79,253,53195,6,0,P|140:260|178:307,2,125.999996154785,2|10|2,1:2|0:2|1:2,0:0:0:0:
254,379,54078,6,0,L|260:328,1,31.4999990386963,2|0,1:2|1:2,0:0:0:0:
319,261,54254,6,0,L|312:223,2,31.4999990386963,10|8|4,0:2|1:3|1:3,0:0:0:0:
341,334,54607,1,0,1:2:0:0:
192,224,54784,5,10,0:2:0:0:
192,224,54872,1,8,1:3:0:0:
192,224,54960,1,4,1:3:0:0:
223,134,55137,1,2,1:2:0:0:
321,111,55313,5,10,0:2:0:0:
160,45,55490,1,6,1:2:0:0:
160,45,55843,5,8,0:2:0:0:
78,70,56019,1,8,0:2:0:0:
0,91,56195,1,8,0:2:0:0:
0,62,56372,5,8,0:2:0:0:
93,94,56548,5,8,0:2:0:0:
218,133,56725,5,8,0:2:0:0:
377,189,56901,5,8,0:2:0:0:
256,192,57784,12,0,59107,0:2:0:0:
321,81,59195,5,10,0:2:0:0:
119,183,59372,1,8,0:2:0:0:
321,81,59901,6,0,L|229:60,1,90,6|2,1:2|0:2,0:0:0:0:
340,0,60254,1,8,0:2:0:0:
418,147,60431,1,0,0:2:0:0:
485,94,60607,2,0,P|491:55|511:6,1,90,2|0,1:2|1:2,0:0:0:0:
403,61,60960,1,10,0:2:0:0:
510,185,61137,6,0,P|421:184|350:277,1,180,0|2,1:2|1:2,0:0:0:0:
262,106,61666,2,0,L|281:194,1,90,8|2,0:2|1:2,0:0:0:0:
278,197,61931,1,8,0:2:0:0:
275,200,62019,1,0,1:2:0:0:
434,280,62195,1,2,1:2:0:0:
339,332,62372,2,0,L|358:244,1,90,8|0,0:2|0:2,0:0:0:0:
177,143,62725,5,2,1:2:0:0:
268,283,62901,1,2,0:2:0:0:
115,349,63078,1,10,0:2:0:0:
146,246,63254,1,2,0:2:0:0:
295,376,63431,2,0,P|252:361|208:356,1,90,2|0,1:2|0:0,0:0:0:0:
268,283,63784,1,10,0:2:0:0:
44,230,63960,6,0,P|135:230|199:159,1,180,2|0,1:2|1:2,0:0:0:0:
281,199,64490,1,10,0:2:0:0:
86,56,64666,2,0,L|112:153,1,90,2|2,1:2|0:0,0:0:0:0:
105,146,64931,1,8,0:2:0:0:
101,150,65019,1,2,1:2:0:0:
178,25,65195,1,8,0:2:0:0:
281,199,65372,5,2,1:2:0:0:
281,199,65460,1,10,0:2:0:0:
281,199,65548,2,0,B|386:217|351:155|471:184,1,180,6|8,1:2|0:2,0:0:0:0:
422,257,66078,1,2,0:2:0:0:
313,125,66254,2,0,P|323:81|326:36,1,90,2|0,1:2|1:2,0:0:0:0:
405,98,66607,1,10,0:2:0:0:
226,125,66784,6,0,P|178:197|208:278,1,180,2|2,1:2|1:2,0:0:0:0:
362,374,67313,1,10,0:2:0:0:
390,278,67490,2,0,L|291:298,1,90,2|2,1:2|0:2,0:0:0:0:
298,298,67754,1,10,0:2:0:0:
295,301,67843,1,2,1:2:0:0:
327,210,68019,1,8,0:2:0:0:
165,384,68195,5,0,1:2:0:0:
165,384,68284,1,8,0:2:0:0:
165,384,68372,2,0,P|134:275|50:253,1,180,6|10,1:2|0:2,0:0:0:0:
0,171,68901,2,0,L|191:139,1,180,6|2,1:2|1:2,0:0:0:0:
238,70,69431,1,8,0:2:0:0:
290,224,69607,6,0,P|375:242|456:170,1,180,6|0,1:2|1:2,0:0:0:0:
425,38,70137,1,10,0:2:0:0:
501,82,70313,1,8,0:2:0:0:
501,82,70402,1,0,1:2:0:0:
501,82,70490,1,0,1:2:0:0:
427,118,70666,2,0,L|326:101,1,90,8|4,1:3|1:3,0:0:0:0:
445,191,71019,1,0,1:2:0:0:
247,42,71195,6,0,B|171:55|186:8|83:33,2,144,6|2|10,1:2|1:2|1:2,0:0:0:0:
247,42,72254,1,2,0:2:0:0:
141,109,72431,2,0,L|0:136,1,144,0|8,1:2|0:2,0:0:0:0:
102,201,72960,1,2,1:2:0:0:
102,201,73137,2,0,L|190:217,1,72,2|8,0:0|0:2,0:0:0:0:
157,295,73490,2,0,L|86:282,1,72,2|0,0:2|1:2,0:0:0:0:
273,379,73843,5,2,0:2:0:0:
273,379,73931,1,8,1:2:0:0:
273,379,74019,2,0,P|248:312|278:250,1,144,4|0,1:2|1:2,0:0:0:0:
277,250,74548,1,2,0:0:0:0:
98,139,74725,1,10,0:0:0:0:
98,139,75078,1,0,1:2:0:0:
151,80,75254,2,0,B|234:91|209:47|316:71,1,144,4|0,1:2|1:2,0:0:0:0:
292,66,75695,1,2,0:2:0:0:
292,66,75784,1,10,0:2:0:0:
437,184,75960,5,2,1:2:0:0:
268,250,76313,1,6,1:2:0:0:
330,158,76490,1,2,0:0:0:0:
431,346,76666,5,0,1:2:0:0:
431,346,76754,1,8,0:2:0:0:
431,346,76843,1,6,1:2:0:0:
362,292,77019,2,0,P|283:295|234:345,1,144,2|2,0:2|0:2,0:0:0:0:
158,384,77548,2,0,L|145:313,1,72,8|2,0:2|0:2,0:0:0:0:
140,308,77813,1,10,0:2:0:0:
134,302,77901,1,2,1:2:0:0:
20,242,78078,6,0,P|89:231|137:179,1,144,2|2,1:2|1:2,0:0:0:0:
227,127,78607,1,2,1:2:0:0:
150,92,78784,2,0,P|168:27|166:-3,1,72,2|8,1:2|0:2,0:0:0:0:
223,143,79137,1,10,1:3:0:0:
223,143,79313,2,0,L|317:168,1,72,4|4,1:3|1:3,0:0:0:0:
479,96,79666,6,0,P|428:44|352:49,1,144,10|2,0:2|1:2,0:0:0:0:
305,175,80195,2,0,L|329:316,1,144,10|2,0:2|1:2,0:0:0:0:
386,131,80725,5,6,1:2:0:0:
62,376,81607,5,2,0:0:0:0:
62,376,81695,1,2,0:0:0:0:
62,376,81784,1,2,0:0:0:0:
62,376,82490,6,0,B|70:295|116:332|124:229,1,144,2|0,0:2|0:2,0:0:0:0:
65,199,83019,1,2,0:2:0:0:
65,199,83195,1,2,0:2:0:0:
65,199,83901,5,10,0:2:0:0:
270,279,84078,1,8,0:2:0:0:
270,278,85313,6,0,P|275:238|289:201,1,80.9999975280763,6|2,1:2|0:2,0:0:0:0:
285,197,85578,1,2,0:2:0:0:
281,193,85666,1,10,0:2:0:0:
442,155,85843,1,0,1:2:0:0:
442,155,85931,1,2,1:2:0:0:
442,155,86019,2,0,P|354:140|315:75,1,161.999995056153,2|10,1:2|0:2,0:0:0:0:
174,5,86548,6,0,L|204:173,1,161.999995056153,2|0,1:2|1:2,0:0:0:0:
278,90,87078,1,10,0:2:0:0:
113,174,87254,2,0,L|97:253,1,80.9999975280763,2|0,1:2|1:2,0:0:0:0:
86,263,87519,1,8,0:2:0:0:
90,271,87607,2,0,L|182:287,1,80.9999975280763,2|8,1:2|0:2,0:0:0:0:
283,384,87960,5,8,0:3:0:0:
283,384,88048,1,4,0:3:0:0:
283,384,88137,1,10,0:2:0:0:
332,308,88313,1,10,0:2:0:0:
332,308,88666,5,10,0:2:0:0:
275,191,88843,1,10,0:2:0:0:
275,191,89195,5,10,0:2:0:0:
388,82,89372,1,10,0:2:0:0:
388,82,89725,5,10,0:2:0:0:
506,272,89901,1,10,0:2:0:0:
421,217,90254,5,0,0:0:0:0:
423,207,90342,1,0,0:0:0:0:
425,197,90430,1,0,0:0:0:0:
427,187,90518,1,0,0:0:0:0:
430,178,90606,1,2,0:1:0:0:
286,83,90960,5,2,1:2:0:0:
286,83,93607,5,2,1:2:0:0:
214,132,93784,1,2,1:2:0:0:
214,132,95019,5,2,1:2:0:0:
139,114,95195,2,0,L|123:23,1,80.9999975280763,0|8,1:2|0:2,0:0:0:0:
124,35,95460,1,8,0:2:0:0:
124,35,95548,1,10,0:2:0:0:
287,165,95725,5,10,0:2:0:0:
39,268,96078,5,10,0:2:0:0:
100,206,96254,1,0,0:0:0:0:
243,347,96431,6,0,P|194:295|124:286,1,144,6|2,1:2|1:2,0:0:0:0:
82,381,96960,2,0,L|153:371,1,72,0|0,1:2|0:0,0:0:0:0:
256,239,97313,1,8,0:2:0:0:
256,239,97666,1,0,1:2:0:0:
193,154,97843,2,0,L|176:224,1,72,10|0,0:2|0:2,0:0:0:0:
309,301,98195,1,8,0:2:0:0:
370,252,98372,2,0,P|399:224|512:232,1,144,0|8,0:2|0:2,0:0:0:0:
466,362,98901,2,0,P|460:327|449:293,1,72,0|8,1:2|0:2,0:0:0:0:
497,221,99254,1,0,1:2:0:0:
331,162,99431,6,0,B|263:176|268:124|178:150,1,144,4|0,1:2|0:2,0:0:0:0:
70,208,99960,1,0,1:2:0:0:
94,73,100137,2,0,L|121:157,1,72,8|0,0:2|1:2,0:0:0:0:
228,230,100490,1,8,0:2:0:0:
228,230,100843,6,0,P|134:259|105:317,1,144,8|8,0:2|0:2,0:0:0:0:
246,366,101372,1,8,0:2:0:0:
320,308,101548,2,0,L|335:228,1,72,2|8,0:0|0:2,0:0:0:0:
343,231,101813,1,0,1:2:0:0:
351,228,101901,2,0,L|338:173,3,36,8|0|8|0,0:2|1:2|0:2|1:2,0:0:0:0:
496,76,102431,5,0,1:0:0:0:
479,151,102607,2,0,P|416:135|376:54,1,144,12|0,0:2|1:2,0:0:0:0:
295,106,103137,1,2,0:2:0:0:
228,0,103313,2,0,L|307:20,1,72,10|2,0:2|0:2,0:0:0:0:
304,24,103578,1,0,0:0:0:0:
298,32,103666,2,0,B|220:44|242:1|154:20,1,144,2|10,1:2|0:2,0:0:0:0:
78,76,104195,2,0,P|70:40|59:6,1,72,2|0,1:2|0:2,0:0:0:0:
160,111,104548,1,2,1:2:0:0:
19,198,104725,1,10,0:2:0:0:
160,263,104901,1,8,0:2:0:0:
160,263,105254,5,0,1:2:0:0:
114,183,105431,2,0,P|66:227|92:322,1,144,12|0,0:2|1:2,0:0:0:0:
72,300,105960,1,2,1:2:0:0:
212,352,106137,1,8,0:2:0:0:
131,382,106313,1,2,1:2:0:0:
160,263,106490,6,0,L|301:290,1,144,2|10,1:2|0:2,0:0:0:0:
366,344,107019,1,2,1:2:0:0:
373,339,107107,1,2,0:0:0:0:
334,208,107372,1,2,1:2:0:0:
334,208,107460,1,8,0:2:0:0:
334,208,107548,1,8,0:3:0:0:
301,290,107725,1,4,0:3:0:0:
471,232,107901,6,0,P|496:166|464:104,1,144,4|8,1:2|0:2,0:0:0:0:
389,113,108431,1,2,0:2:0:0:
441,15,108607,2,0,P|456:49|464:100,1,72,2|0,1:2|0:2,0:0:0:0:
334,208,108960,2,0,P|319:174|311:123,1,72,8|2,0:2|0:2,0:0:0:0:
243,27,109313,6,0,B|234:33|234:33|216:31|216:31|188:78|119:90,1,144,2|10,1:2|0:2,0:0:0:0:
3,14,109843,2,0,P|26:49|33:84,1,72,2|0,0:2|1:2,0:0:0:0:
153,167,110195,1,2,0:2:0:0:
0,192,110372,2,0,P|30:174|64:161,1,72,8|2,0:2|0:2,0:0:0:0:
272,94,110725,6,0,L|252:263,1,144,2|8,1:2|0:2,0:0:0:0:
169,242,111254,1,2,0:2:0:0:
328,298,111431,2,0,L|342:377,1,72,0|2,1:2|0:2,0:0:0:0:
245,311,111784,1,8,0:2:0:0:
342,205,111960,5,0,1:2:0:0:
342,205,112048,1,8,0:2:0:0:
342,205,112137,2,0,P|420:191|461:131,1,144,2|10,1:2|0:2,0:0:0:0:
507,73,112666,5,10,0:2:0:0:
507,73,112754,1,8,0:2:0:0:
507,73,112843,1,0,1:2:0:0:
421,23,113019,5,8,0:2:0:0:
364,70,113195,5,8,0:3:0:0:
307,25,113372,5,4,0:3:0:0:
185,85,113548,6,0,L|61:108,2,125.999996154785,2|0|10,1:2|1:2|0:2,0:0:0:0:
61,108,114607,2,0,P|112:120|137:133,1,62.9999980773926,0|8,1:2|0:2,0:0:0:0:
194,159,114960,1,0,1:2:0:0:
126,199,115137,1,8,0:2:0:0:
192,241,115313,2,0,P|126:253|82:316,1,125.999996154785,2|10,1:2|0:2,0:0:0:0:
35,355,115843,5,0,1:0:0:0:
109,384,116019,1,2,1:2:0:0:
158,329,116195,1,2,1:2:0:0:
274,278,116372,6,0,L|291:183,1,80.9999975280763,4|0,1:2|1:2,0:0:0:0:
292,194,116637,1,8,0:2:0:0:
296,190,116725,1,8,0:2:0:0:
167,119,116901,6,0,P|131:145|31:137,1,121.499996292114,6|0,1:2|0:2,0:0:0:0:
49,141,117254,1,10,0:2:0:0:
99,68,117431,1,2,1:2:0:0:
265,112,117607,6,0,P|318:65|432:67,1,161.999995056153,12|0,0:2|1:2,0:0:0:0:
410,60,118048,1,0,1:2:0:0:
414,64,118137,1,8,0:2:0:0:
511,160,118313,2,0,L|503:212,1,40.4999987640381,8|0,0:2|1:2,0:0:0:0:
407,222,118490,2,0,L|400:273,1,40.4999987640381,8|8,0:2|0:2,0:0:0:0:
459,314,118666,1,8,0:2:0:0:
334,365,118843,1,8,0:2:0:0:
334,365,118931,1,8,0:2:0:0:
334,365,119019,2,0,L|324:303,1,40.4999987640381,8|8,0:2|0:2,0:0:0:0:
262,266,119195,6,0,L|169:283,1,90,6|2,1:2|0:2,0:0:0:0:
53,363,119548,1,10,0:2:0:0:
117,215,119725,1,2,0:2:0:0:
13,185,119901,2,0,P|40:242|47:276,1,90,0|2,1:2|1:2,0:0:0:0:
191,178,120254,1,8,0:2:0:0:
137,108,120431,6,0,P|51:106|8:31,1,180,2|2,1:2|1:2,0:0:0:0:
108,17,120960,1,10,0:2:0:0:
235,93,121137,2,0,P|217:134|210:178,1,90,0|2,1:2|0:2,0:0:0:0:
206,182,121401,1,8,0:2:0:0:
202,186,121490,1,0,1:2:0:0:
72,274,121666,2,0,L|44:168,1,90,8|2,0:2|0:2,0:0:0:0:
244,290,122019,5,2,1:2:0:0:
163,339,122195,1,2,0:2:0:0:
290,369,122372,1,10,0:2:0:0:
224,291,122548,1,2,0:2:0:0:
336,201,122725,2,0,L|357:304,1,90,2|0,1:2|1:0,0:0:0:0:
436,220,123078,1,10,0:2:0:0:
246,174,123254,6,0,P|353:165|395:107,1,180,6|2,1:2|0:2,0:0:0:0:
485,150,123784,1,10,0:2:0:0:
318,11,123960,2,0,L|300:103,1,90,2|2,1:2|0:0,0:0:0:0:
305,105,124225,1,8,0:2:0:0:
311,110,124313,1,0,1:2:0:0:
405,210,124490,1,8,0:2:0:0:
343,267,124666,5,8,0:2:0:0:
343,267,124754,1,8,0:2:0:0:
343,267,124843,2,0,B|246:289|268:230|151:258,1,180,6|8,1:2|0:2,0:0:0:0:
299,186,125372,1,2,0:2:0:0:
328,356,125548,2,0,P|370:341|415:336,1,90,2|0,1:2|1:2,0:0:0:0:
343,267,125901,1,10,0:2:0:0:
222,384,126078,6,0,P|207:277|130:225,1,180,6|2,1:2|1:2,0:0:0:0:
69,279,126607,1,10,0:2:0:0:
8,132,126784,2,0,P|49:149|93:156,1,90,2|2,1:2|0:2,0:0:0:0:
97,152,127048,1,8,0:2:0:0:
101,149,127137,1,2,1:2:0:0:
233,188,127313,1,8,0:2:0:0:
194,83,127490,2,0,L|177:140,1,45,10|8,0:2|0:2,0:0:0:0:
300,242,127666,6,0,P|377:198|464:211,1,180,4|10,1:2|0:2,0:0:0:0:
326,339,128195,2,0,P|287:325|239:315,1,90,2|0,0:2|1:2,0:0:0:0:
234,319,128460,1,8,0:2:0:0:
230,323,128548,1,10,0:2:0:0:
167,228,128725,1,2,1:2:0:0:
4,360,128901,6,0,P|89:372|149:310,1,180,2|8,1:2|1:3,0:0:0:0:
149,310,129431,1,4,1:3:0:0:
89,179,129607,1,8,0:2:0:0:
89,179,129695,1,4,1:3:0:0:
89,179,129784,1,4,1:3:0:0:
19,258,129960,1,8,0:2:0:0:
181,223,130137,2,0,P|170:179|165:134,1,90,8|0,0:2|1:2,0:0:0:0:
169,129,130401,1,0,1:2:0:0:
173,121,130490,6,0,P|104:112|70:32,2,144,6|2|10,1:2|1:2|0:2,0:0:0:0:
173,121,131548,1,2,1:2:0:0:
236,76,131725,2,0,P|280:46|379:50,1,144,2|10,1:2|0:2,0:0:0:0:
425,110,132254,1,2,1:2:0:0:
425,110,132431,2,0,P|423:147|406:195,1,72,2|10,0:0|0:2,0:0:0:0:
298,227,132784,2,0,P|300:190|317:142,1,72,2|0,1:2|1:2,0:0:0:0:
389,261,133137,5,2,0:2:0:0:
389,261,133225,1,8,0:2:0:0:
389,261,133313,2,0,P|449:273|479:276,1,72,6|0,1:2|0:0,0:0:0:0:
416,347,133666,1,2,1:2:0:0:
416,347,133843,1,0,0:0:0:0:
312,378,134019,6,0,P|318:307|283:246,1,144,10|2,0:2|1:2,0:0:0:0:
238,139,134548,2,0,P|194:193|124:200,1,144,6|0,1:2|1:2,0:0:0:0:
56,154,135078,1,10,0:2:0:0:
136,64,135254,5,10,0:2:0:0:
238,139,135607,5,6,1:2:0:0:
124,200,135784,1,8,0:0:0:0:
41,293,135960,5,2,1:2:0:0:
41,293,136048,1,8,0:2:0:0:
41,292,136137,2,0,P|111:289|171:328,1,144,6|2,1:2|1:2,0:0:0:0:
171,329,136666,1,2,1:2:0:0:
299,256,136843,2,0,P|247:242|212:223,1,72,10|0,0:2|1:2,0:0:0:0:
226,238,137107,1,8,0:2:0:0:
222,242,137195,1,0,1:2:0:0:
270,384,137372,6,0,L|420:361,1,144,2|2,1:2|1:2,0:0:0:0:
412,362,137901,1,2,1:2:0:0:
381,292,138078,1,2,1:2:0:0:
452,217,138254,5,8,0:2:0:0:
508,151,138431,5,10,1:3:0:0:
483,80,138607,5,4,1:3:0:0:
422,61,138784,5,6,1:3:0:0:
337,118,138960,6,0,P|261:113|215:12,1,180,10|2,0:2|1:2,0:0:0:0:
47,200,139490,2,0,P|120:151|194:172,1,135,10|0,0:2|0:2,0:0:0:0:
169,161,139843,1,2,1:2:0:0:
334,316,140019,5,6,1:2:0:0:
334,316,141078,5,2,1:2:0:0:
256,288,141254,1,4,1:3:0:0:
178,316,141431,1,8,1:3:0:0:
256,112,141784,5,6,0:2:0:0:
181,31,158725,6,0,P|165:76|164:116,1,80.9999975280763,0|0,1:2|0:0,0:0:0:0:
70,82,159078,2,0,P|86:37|87:-3,1,80.9999975280763,2|0,1:2|1:2,0:0:0:0:
105,175,159431,2,0,P|173:134|253:139,1,161.999995056153,2|2,1:2|1:2,0:0:0:0:
253,140,159960,1,2,0:2:0:0:
352,28,160137,6,0,L|338:114,1,80.9999975280763,0|0,1:2|1:2,0:0:0:0:
501,99,160490,2,0,P|460:98|422:85,1,80.9999975280763,2|0,1:2|0:2,0:0:0:0:
401,164,160843,2,0,L|390:222,2,40.4999987640381,2|2|8,1:2|0:0|0:2,0:0:0:0:
259,243,161195,2,0,P|299:243|337:256,1,80.9999975280763,2|0,1:2|1:2,0:0:0:0:
496,371,161548,5,8,0:2:0:0:
496,371,161901,6,0,P|498:323|513:286,1,80.9999975280763,2|0,1:2|0:0,0:0:0:0:
413,280,162254,2,0,P|410:327|395:364,1,80.9999975280763,2|8,1:2|0:2,0:0:0:0:
320,303,162607,1,2,1:2:0:0:
320,303,162784,1,2,0:2:0:0:
174,384,162960,5,8,0:2:0:0:
174,384,163313,1,2,1:2:0:0:
148,285,163490,2,0,P|186:298|225:305,1,80.9999975280763,8|2,0:2|1:2,0:0:0:0:
200,222,163843,1,0,1:2:0:0:
74,342,164019,2,0,P|70:301|59:262,1,80.9999975280763,10|0,0:2|1:2,0:0:0:0:
54,257,164284,1,8,0:2:0:0:
49,252,164372,6,0,P|127:246|179:186,1,161.999995056153,6|0,1:2|1:2,0:0:0:0:
117,22,164901,2,0,P|73:57|107:171,1,161.999995056153,10|0,0:2|0:2,0:0:0:0:
83,153,165431,1,10,0:2:0:0:
255,250,165607,5,2,1:2:0:0:
255,250,165695,1,0,1:2:0:0:
255,250,165784,2,0,B|347:272|321:212|414:237,1,161.999995056153,10|2,0:2|1:2,0:0:0:0:
510,214,166313,2,0,P|499:252|496:293,1,80.9999975280763,10|0,0:2|1:2,0:0:0:0:
411,236,166666,1,10,1:3:0:0:
445,150,166843,1,6,1:3:0:0:
496,293,167019,5,0,1:2:0:0:
496,293,167107,1,0,1:2:0:0:
495,292,167195,2,0,P|417:287|355:337,1,161.999995056153,14|0,0:2|1:2,0:0:0:0:
292,176,167725,6,0,P|288:106|364:147,1,180,14|0,0:2|1:2,0:0:0:0:
272,370,168254,6,0,P|245:276|169:217,1,198.000006042481,14|0,0:2|1:2,0:0:0:0:
29,215,168784,6,0,B|15:249|-24:271|-24:271|20:261|67:302,1,161.999995056153,14|0,0:2|1:2,0:0:0:0:
52,291,169225,1,8,0:2:0:0:
52,291,169313,1,2,1:2:0:0:
146,297,169490,1,8,1:3:0:0:
168,216,169666,1,4,1:3:0:0:
159,6,170019,6,0,P|64:21|30:90,1,161.999995056153,14|8,0:2|0:2,0:0:0:0:
109,147,170548,1,8,0:2:0:0:
186,94,170725,1,8,0:2:0:0:
297,292,170901,1,8,0:2:0:0:
80,227,171078,1,8,0:2:0:0:
265,50,171254,1,8,0:2:0:0:
406,203,173549,5,10,0:2:0:0:
451,32,173725,1,8,0:2:0:0:
451,32,174254,1,2,0:0:0:0:
496,96,174431,1,0,1:2:0:0:
326,159,174607,6,0,P|285:164|248:178,1,80.9999975280763,14|2,0:2|0:2,0:0:0:0:
195,315,174960,1,10,0:2:0:0:
171,282,175048,1,8,0:2:0:0:
137,261,175136,1,8,0:2:0:0:
97,255,175224,1,8,0:2:0:0:
59,266,175313,2,0,L|43:203,1,40.4999987640381,10|8,0:2|0:2,0:0:0:0:
4,133,175490,6,0,P|82:125|128:61,1,161.999995056153,6|2,1:2|1:2,0:0:0:0:
81,0,176019,1,10,0:2:0:0:
204,107,176195,1,10,1:3:0:0:
204,107,176284,1,8,1:3:0:0:
204,107,176372,1,4,1:3:0:0:
123,143,176548,1,2,1:2:0:0:
196,14,176725,2,0,P|234:27|273:35,1,80.9999975280763,8|0,0:2|0:0,0:0:0:0:
361,191,177078,6,0,L|252:213,1,90,6|2,1:2|0:2,0:0:0:0:
299,121,177431,1,10,0:2:0:0:
431,250,177607,1,2,0:2:0:0:
480,184,177784,2,0,P|486:141|502:88,1,90,2|0,1:2|1:2,0:0:0:0:
401,109,178137,1,10,0:2:0:0:
509,270,178313,6,0,P|412:288|366:368,1,180,2|0,1:2|1:2,0:0:0:0:
223,263,178843,1,10,0:2:0:0:
319,171,179019,2,0,P|317:216|306:260,1,90,2|0,1:2|0:0,0:0:0:0:
146,361,179372,2,0,P|134:317|132:272,1,90,0|8,1:2|0:2,0:0:0:0:
220,171,179725,5,2,1:2:0:0:
220,171,179813,1,8,0:2:0:0:
220,171,179901,1,6,1:2:0:0:
145,106,180078,2,0,P|102:122|59:129,1,90,0|8,0:0|0:2,0:0:0:0:
133,193,180431,1,2,1:2:0:0:
224,86,180607,2,0,P|235:28|248:-5,1,90,2|2,1:2|0:2,0:0:0:0:
145,106,180960,1,10,0:2:0:0:
304,199,181137,6,0,P|372:146|470:173,1,180,4|0,1:2|1:2,0:0:0:0:
361,127,181666,1,10,0:2:0:0:
448,260,181843,2,0,P|438:304|434:348,1,90,6|0,1:2|0:0,0:0:0:0:
374,228,182195,1,2,1:2:0:0:
512,328,182372,1,8,0:2:0:0:
349,384,182548,5,0,1:2:0:0:
349,384,182637,1,8,0:2:0:0:
349,384,182725,2,0,L|237:355,1,90,6|0,1:2|0:0,0:0:0:0:
425,292,183078,1,10,0:2:0:0:
340,203,183254,2,0,P|335:247|321:290,1,90,0|0,1:2|1:2,0:0:0:0:
162,350,183607,1,0,1:2:0:0:
229,272,183784,1,10,0:2:0:0:
194,158,183960,6,0,P|129:217|43:209,1,180,6|8,1:2|0:2,0:0:0:0:
43,209,184401,1,0,1:2:0:0:
43,209,184490,1,8,1:3:0:0:
0,118,184666,1,8,0:2:0:0:
0,118,184754,1,8,0:2:0:0:
0,118,184843,1,0,1:2:0:0:
112,16,185019,2,0,L|101:65,1,45,8|8,0:2|0:2,0:0:0:0:
85,133,185195,5,8,0:2:0:0:
124,152,185283,1,0,1:2:0:0:
169,150,185371,1,0,1:2:0:0:
206,126,185459,1,0,1:2:0:0:
226,86,185547,1,6,1:2:0:0:
317,71,185725,2,0,P|302:103|295:139,1,72,2|0,0:0|1:2,0:0:0:0:
295,139,186078,1,2,1:2:0:0:
447,144,186254,2,0,L|378:126,1,72,10|2,0:2|0:2,0:0:0:0:
395,49,186607,1,2,1:2:0:0:
352,212,186784,6,0,P|422:218|476:264,1,144,2|10,1:2|0:2,0:0:0:0:
502,342,187313,1,2,1:2:0:0:
381,364,187490,1,2,0:2:0:0:
377,350,187578,1,2,0:2:0:0:
377,335,187666,1,10,0:2:0:0:
381,322,187754,1,2,0:2:0:0:
388,310,187843,2,0,L|437:323,1,36,2|2,1:2|0:2,0:0:0:0:
317,205,188019,5,2,1:2:0:0:
307,208,188137,2,0,L|323:267,1,48,2|2,0:2|0:2,0:0:0:0:
286,383,188372,6,0,P|230:341|159:341,1,144,6|2,1:2|1:2,0:0:0:0:
93,384,188901,1,2,1:2:0:0:
24,295,189078,2,0,P|5:239|0:181,1,108,10|0,0:2|0:0,0:0:0:0:
6,182,189431,1,2,1:2:0:0:
123,87,189607,6,0,P|146:155|152:228,1,144,6|0,1:2|1:2,0:0:0:0:
45,100,190137,1,10,0:2:0:0:
233,172,190313,5,10,0:2:0:0:
233,172,190490,1,0,1:0:0:0:
295,16,190666,1,6,1:2:0:0:
409,200,191019,5,2,1:2:0:0:
409,200,191107,1,8,0:2:0:0:
409,200,191195,1,6,1:2:0:0:
488,141,191372,2,0,P|494:176|507:209,1,72,2|0,0:0|1:2,0:0:0:0:
508,210,191725,1,2,0:2:0:0:
386,330,191901,2,0,P|374:261|408:199,1,144,10|2,0:2|1:2,0:0:0:0:
338,95,192431,6,0,P|268:98|214:53,1,144,0|2,1:2|1:2,0:0:0:0:
289,14,192960,1,2,1:2:0:0:
258,136,193137,2,0,P|222:138|188:149,1,72,2|10,1:2|0:2,0:0:0:0:
98,29,193490,5,8,1:3:0:0:
43,80,193666,5,4,1:3:0:0:
58,122,193843,5,4,1:3:0:0:
107,199,194019,6,0,L|94:280,1,72,10|0,0:2|1:0,0:0:0:0:
25,204,194372,1,2,0:2:0:0:
0,350,194548,2,0,P|41:294|110:283,1,144,10|2,0:2|1:2,0:0:0:0:
256,384,195078,5,6,1:2:0:0:
256,384,195784,1,2,0:0:0:0:
328,334,195960,1,2,0:0:0:0:
328,334,196048,1,2,0:0:0:0:
328,334,196137,1,2,0:0:0:0:
246,300,196313,2,0,L|179:314,2,53.9999983520508,2|2|2,0:0|0:0|0:0,0:0:0:0:
352,384,196843,6,0,P|369:318|407:286,1,107.999996704102,2|0,0:2|0:2,0:0:0:0:
469,279,197372,1,2,0:2:0:0:
469,279,197548,1,2,0:2:0:0:
469,279,198254,5,10,0:2:0:0:
393,89,198431,1,8,0:2:0:0:
76,354,199313,6,0,B|155:324|141:266|90:307|90:307|74:242|25:294|77:349,2,251.999992309571,2|2|2,0:2|0:2|0:2,0:0:0:0:
373,49,201078,6,0,P|413:44|452:33,1,80.9999975280763,4|2,1:2|0:2,0:0:0:0:
457,38,201343,1,2,0:2:0:0:
462,43,201431,2,0,L|477:122,1,80.9999975280763,10|0,0:2|0:2,0:0:0:0:
394,215,201784,2,0,P|326:172|247:180,1,161.999995056153,2|10,1:2|0:2,0:0:0:0:
31,33,202313,6,0,P|108:101|177:85,1,161.999995056153,2|0,1:2|1:2,0:0:0:0:
247,180,202843,1,10,0:2:0:0:
139,255,203019,2,0,P|152:218|162:178,1,80.9999975280763,2|0,1:2|0:2,0:0:0:0:
53,218,203372,1,2,1:2:0:0:
147,343,203548,1,8,0:2:0:0:
147,343,203636,1,0,1:2:0:0:
147,343,203725,2,0,L|199:328,1,40.4999987640381,0|0,1:2|1:2,0:0:0:0:
297,384,203901,6,0,P|292:343|279:305,1,80.9999975280763,2|0,1:2|0:0,0:0:0:0:
410,227,204254,2,0,L|395:306,1,80.9999975280763,8|0,0:2|0:2,0:0:0:0:
387,310,204519,1,0,1:0:0:0:
382,315,204607,2,0,P|434:373|512:375,1,161.999995056153,2|8,1:2|0:2,0:0:0:0:
298,214,205137,6,0,P|259:225|219:230,1,80.9999975280763,6|0,1:2|0:2,0:0:0:0:
219,230,205490,1,0,1:2:0:0:
302,126,205666,1,10,0:2:0:0:
427,242,205843,1,2,1:2:0:0:
427,242,206195,1,0,1:2:0:0:
476,82,206372,1,8,0:2:0:0:
399,27,206548,5,0,1:2:0:0:
399,27,206637,1,8,0:2:0:0:
399,27,206725,2,0,P|396:67|383:105,1,80.9999975280763,6|0,1:2|0:0,0:0:0:0:
229,166,207078,2,0,P|216:127|213:87,1,80.9999975280763,10|0,0:2|1:2,0:0:0:0:
337,198,207431,2,0,P|417:204|473:259,1,161.999995056153,2|10,1:2|0:2,0:0:0:0:
253,281,207960,6,0,B|239:295|239:295|215:291|215:291|177:335|88:329,1,161.999995056153,2|0,1:2|1:2,0:0:0:0:
137,240,208490,1,10,0:2:0:0:
338,310,208666,2,0,P|416:324|476:377,1,161.999995056153,4|0,1:2|1:2,0:0:0:0:
476,377,209107,1,8,0:2:0:0:
476,377,209195,1,8,1:3:0:0:
437,244,209372,1,4,1:3:0:0:
229,384,209548,5,10,0:2:0:0:
325,237,209725,1,10,0:2:0:0:
325,237,210078,5,10,0:2:0:0:
172,144,210255,1,10,0:2:0:0:
172,144,210607,5,10,0:2:0:0:
308,24,210784,1,10,0:2:0:0:
308,24,211137,5,10,0:2:0:0:
221,236,211313,1,10,0:2:0:0:
