osu file format v14

[General]
AudioFilename: audio.mp3
AudioLeadIn: 0
PreviewTime: 173901
Countdown: 0
SampleSet: Soft
StackLeniency: 0.7
Mode: 0
LetterboxInBreaks: 0
WidescreenStoryboard: 0

[Editor]
Bookmarks: 59901,119195
DistanceSpacing: 1.1
BeatDivisor: 4
GridSize: 32
TimelineZoom: 1.5

[Metadata]
Title:Suki yo ~Two Hearts~
TitleUnicode:好きよ 〜Two Hearts〜
Artist:Nakano Nino (CV: Taketatsu Ayana)
ArtistUnicode:中野二乃 (CV: 竹達彩奈)
Creator:ckharv
Version:Tsundere
Source:五等分の花嫁∬
Tags:go tou bun gotoubun no hanayome hana yome The Five Wedded Brides Quintessential Quintuplets season 2 second double integral character song mini album japanese anime pop jpop female vocal full version ver. ver xDidqh_ mnyui gelidium didah
BeatmapID:3662336
BeatmapSetID:1787575

[Difficulty]
HPDrainRate:5
CircleSize:4
OverallDifficulty:8.8
ApproachRate:9.2
SliderMultiplier:1.9
SliderTickRate:1

[Events]
//Background and Video events
0,0,"nino_4.jpg",0,0
//Break Periods
2,141984,158155
//Storyboard Layer 0 (Background)
//Storyboard Layer 1 (Fail)
//Storyboard Layer 2 (Pass)
//Storyboard Layer 3 (Foreground)
//Storyboard Layer 4 (Overlay)
//Storyboard Sound Samples

[TimingPoints]
-804,352.941176470588,4,2,1,50,1,0
607,-153.846153846154,4,2,1,50,0,0
5548,-153.846153846154,4,2,1,80,0,0
6254,-100,4,2,1,80,0,0
17548,-133.333333333333,4,2,1,55,0,0
22313,-133.333333333333,4,2,1,60,0,0
22666,-133.333333333333,4,2,1,65,0,0
23019,-117.647058823529,4,2,1,70,0,0
28843,-117.647058823529,4,2,1,65,0,0
33519,-117.647058823529,4,2,1,5,0,0
33607,-117.647058823529,4,2,1,65,0,0
37313,-117.647058823529,4,2,1,55,0,0
40490,-117.647058823529,4,2,1,65,0,0
45784,-108.695652173913,4,2,1,70,0,0
51431,-133.333333333333,4,2,1,55,0,0
54254,-133.333333333333,4,2,1,60,0,0
54784,-133.333333333333,4,2,1,65,0,0
55313,-133.333333333333,4,2,1,75,0,0
55843,-133.333333333333,4,2,1,55,0,0
56019,-133.333333333333,4,2,1,60,0,0
56195,-133.333333333333,4,2,1,65,0,0
56372,-133.333333333333,4,2,1,70,0,0
56548,-133.333333333333,4,2,1,75,0,0
56725,-133.333333333333,4,2,1,80,0,0
56901,-133.333333333333,4,2,1,85,0,0
57784,-133.333333333333,4,2,1,40,0,0
58137,-133.333333333333,4,2,1,45,0,0
58490,-133.333333333333,4,2,1,50,0,0
58843,-133.333333333333,4,2,1,55,0,0
59107,-133.333333333333,4,2,1,5,0,0
59195,-133.333333333333,4,2,1,80,0,0
59901,-95.2380952380952,4,2,1,80,0,0
71195,-133.333333333333,4,2,1,65,0,0
79666,-111.111111111111,4,2,1,65,0,0
82490,-166.666666666667,4,2,1,55,0,0
83901,-166.666666666667,4,2,1,80,0,0
85313,-100,4,2,1,80,0,0
90254,-100,4,2,1,60,0,0
95195,-133.333333333333,4,2,1,60,0,0
95372,-133.333333333333,4,2,1,70,0,0
96784,-133.333333333333,4,2,1,60,0,0
102254,-117.647058823529,4,2,1,60,0,0
102607,-117.647058823529,4,2,1,65,0,0
107901,-108.695652173913,4,2,1,70,0,0
113548,-133.333333333333,4,2,1,55,0,0
116372,-108.695652173913,4,2,1,60,0,0
116901,-108.695652173913,4,2,1,65,0,0
117607,-108.695652173913,4,2,1,70,0,0
118490,-108.695652173913,4,2,1,65,0,0
118843,-108.695652173913,4,2,1,75,0,0
119195,-95.2380952380952,4,2,1,80,0,0
130490,-133.333333333333,4,2,1,65,0,0
138960,-108.695652173913,4,2,1,75,0,0
141078,-117.647058823529,4,2,1,60,0,0
167195,-100,4,2,1,60,0,0
167725,-100,4,2,1,65,0,0
168254,-100,4,2,1,70,0,0
168784,-100,4,2,1,75,0,0
169137,-100,4,2,1,65,0,0
170019,-100,4,2,1,75,0,0
170372,-117.647058823529,4,2,1,80,0,0
174607,-108.695652173913,4,2,1,75,0,0
175490,-95.2380952380952,4,2,1,75,0,0
176195,-95.2380952380952,4,2,1,65,0,0
176725,-117.647058823529,4,2,1,75,0,0
176990,-108.695652173913,4,2,1,5,0,0
177078,-95.2380952380952,4,2,1,80,0,0
185019,-133.333333333333,4,2,1,80,0,0
185548,-133.333333333333,4,2,1,65,0,0
194019,-108.695652173913,4,2,1,75,0,0
196843,-166.666666666667,4,2,1,55,0,0
198254,-166.666666666667,4,2,1,80,0,0
199313,-133.333333333333,4,2,1,45,0,0
199931,-133.333333333333,4,2,1,5,0,0
200019,-133.333333333333,4,2,1,50,0,0
200637,-133.333333333333,4,2,1,5,0,0
200725,-100,4,2,1,55,0,0
201078,-100,4,2,1,80,0,0

[Colours]
Combo1 : 253,215,198
Combo2 : 233,233,233
Combo3 : 253,159,183
Combo4 : 151,204,199

[HitObjects]
97,262,607,6,0,P|89:230|74:199,2,61.7499971733095,2|2|2,0:2|0:2|0:2,0:2:0:0:
60,343,1137,2,0,P|100:305|179:315,1,123.499994346619,2|2,0:2|0:2,0:2:0:0:
283,201,1843,2,0,P|233:217|174:177,1,123.499994346619,2|0,0:2|0:2,0:2:0:0:
129,98,2372,1,2,0:2:0:0:
257,306,2725,5,2,0:2:0:0:
257,306,2901,1,2,0:2:0:0:
478,74,3431,6,0,P|446:81|417:90,2,61.7499971733095,2|2|2,0:2|0:2|0:2,0:2:0:0:
478,74,3960,1,2,0:2:0:0:
377,156,4137,2,0,P|365:93|344:32,1,123.499994346619,2|0,0:2|0:2,0:2:0:0:
288,160,4666,2,0,P|247:148|218:141,1,61.7499971733095,2|0,0:2|0:2,0:2:0:0:
155,73,5019,2,0,P|194:60|233:50,1,61.7499971733095,2|0,0:2|0:2,0:2:0:0:
20,26,5548,5,8,0:2:0:0:
87,261,5725,1,8,0:2:0:0:
87,261,6254,6,0,P|69:314|60:357,1,95,6|2,1:2|0:2,0:2:0:0:
78,384,6519,1,2,0:2:0:0:
78,384,6607,2,0,P|136:371|185:364,1,95,10|0,0:2|0:2,0:2:0:0:
444,239,6960,2,0,P|375:228|329:104,1,190,2|10,1:2|0:2,0:2:0:0:
73,263,7490,6,0,P|141:251|266:207,1,190,2|2,1:2|0:2,0:2:0:0:
469,63,8019,1,8,0:2:0:0:
412,164,8195,1,2,1:2:0:0:
412,164,8284,1,8,0:2:0:0:
412,164,8372,2,0,P|359:141|317:127,1,95,2|2,0:2|1:2,0:2:0:0:
167,10,8725,1,8,0:2:0:0:
42,193,8901,1,0,1:2:0:0:
42,193,8990,1,8,0:2:0:0:
42,193,9078,6,0,P|71:252|100:333,1,142.5,2|0,1:2|0:2,0:2:0:0:
78,364,9431,2,0,P|23:353|6:288,1,95,10|0,0:2|0:2,0:2:0:0:
207,227,9784,2,0,B|251:193|257:128|257:128|224:87|227:37,1,190,2|10,1:2|0:2,0:2:0:0:
435,195,10313,6,0,P|360:183|240:140,1,190,4|0,1:2|0:2,0:2:0:0:
23,14,10843,1,10,0:2:0:0:
104,151,11019,1,10,0:2:0:0:
104,151,11107,1,2,1:2:0:0:
334,16,11372,1,2,1:2:0:0:
230,230,11548,1,8,0:2:0:0:
329,332,11725,1,0,1:2:0:0:
329,332,11813,1,8,0:2:0:0:
329,332,11901,6,0,P|385:310|477:294,1,142.5,6|0,1:2|0:2,0:2:0:0:
493,263,12254,2,0,P|467:212|396:202,1,95,10|0,0:2|0:2,0:2:0:0:
213,316,12607,2,0,P|244:263|269:131,1,190,2|10,1:2|0:2,0:2:0:0:
39,203,13137,6,0,B|81:178|81:178|151:174|224:246,1,190,2|0,1:2|1:2,0:2:0:0:
385,73,13666,1,10,0:2:0:0:
240,2,13843,2,0,P|264:65|275:107,1,95,6|0,1:2|0:2,0:2:0:0:
213,316,14195,1,2,1:2:0:0:
213,316,14284,1,8,0:2:0:0:
213,316,14372,1,8,0:2:0:0:
412,232,14548,1,8,0:2:0:0:
412,232,14637,1,8,0:2:0:0:
412,232,14725,6,0,P|350:217|303:199,1,95,2|2,1:2|1:2,0:2:0:0:
228,117,15078,1,2,0:2:0:0:
94,336,15254,2,0,P|156:321|203:303,1,95,2|10,1:2|0:2,0:2:0:0:
249,224,15607,1,2,0:2:0:0:
419,360,15784,1,8,0:2:0:0:
385,111,15960,6,0,P|360:187|330:314,1,190,6|2,1:2|1:2,0:2:0:0:
333,328,16401,1,0,1:2:0:0:
333,328,16490,1,10,0:2:0:0:
470,244,16666,1,0,1:2:0:0:
250,85,16843,5,10,0:2:0:0:
420,361,17019,1,10,0:2:0:0:
186,223,17548,6,0,P|132:208|56:269,1,142.500005435944,6|0,1:2|1:2,0:2:0:0:
142,333,18078,1,2,0:2:0:0:
142,333,18254,2,0,P|198:316|297:303,1,142.500005435944,2|0,1:2|1:2,0:2:0:0:
377,360,18784,1,2,0:2:0:0:
377,360,18960,6,0,P|332:324|342:230,1,142.500005435944,2|0,1:2|1:2,0:2:0:0:
433,165,19490,2,0,P|382:156|350:139,1,71.2500027179719,2|2,0:2|1:2,0:2:0:0:
299,81,19843,2,0,P|257:99|218:106,1,71.2500027179719,2|0,0:2|1:2,0:2:0:0:
161,190,20195,1,2,0:2:0:0:
161,190,20284,1,2,0:2:0:0:
161,190,20372,6,0,P|147:127|108:28,2,142.500005435944,2|0|2,1:2|1:2|1:2,0:2:0:0:
108,277,21254,1,2,0:2:0:0:
20,248,21431,1,2,1:2:0:0:
118,368,21607,1,2,0:2:0:0:
191,220,21784,6,0,B|211:206|226:199|226:199|281:200|339:236,1,142.500005435944,2|2,1:2|1:2,0:2:0:0:
472,350,22313,1,8,0:2:0:0:
443,359,22401,1,8,0:2:0:0:
412,370,22490,1,8,1:3:0:0:
491,207,22666,1,4,1:3:0:0:
325,323,22843,1,4,1:3:0:0:
357,99,23019,6,0,P|377:162|406:269,1,161.500003080368,6|2,1:2|0:2,0:2:0:0:
271,164,23548,2,0,P|219:153|181:140,1,80.750001540184,10|0,0:2|0:2,0:2:0:0:
423,272,23901,2,0,P|475:261|513:248,1,80.750001540184,10|0,0:2|0:2,0:2:0:0:
267,152,24254,2,0,P|215:141|177:128,1,80.750001540184,10|0,0:2|0:2,0:2:0:0:
49,360,24607,6,0,B|85:340|85:340|144:332|212:398,1,161.500003080368,8|8,0:2|0:2,0:2:0:0:
306,253,25137,2,0,P|258:269|226:276,1,80.750001540184,2|8,0:2|0:2,0:2:0:0:
100,207,25490,1,2,0:2:0:0:
274,141,25666,2,0,P|297:91|301:20,1,121.125002310276,10|0,0:2|0:2,0:2:0:0:
333,11,26019,6,0,P|398:27|448:30,1,80.750001540184,10|0,0:2|0:2,0:2:0:0:
187,135,26372,2,0,P|121:118|71:115,1,80.750001540184,10|0,0:2|0:2,0:2:0:0:
341,3,26725,2,0,P|406:19|456:22,1,80.750001540184,10|0,0:2|0:2,0:2:0:0:
282,196,27078,1,10,0:2:0:0:
405,127,27254,1,0,1:2:0:0:
426,351,27431,6,0,P|406:307|382:232,1,121.125002310276,12|0,0:2|0:2,0:2:0:0:
377,222,27784,1,0,1:2:0:0:
200,333,27960,5,8,0:2:0:0:
80,137,28313,5,12,0:2:0:0:
296,12,28666,5,2,1:2:0:0:
296,12,28754,1,0,1:2:0:0:
296,12,28843,2,0,P|265:71|233:166,1,161.500003080368,6|8,1:2|0:2,0:2:0:0:
205,278,29372,1,2,0:2:0:0:
78,132,29548,1,2,1:2:0:0:
0,259,29725,2,0,P|44:252|96:226,1,80.750001540184,2|8,0:2|0:2,0:2:0:0:
182,129,30078,1,2,0:2:0:0:
278,298,30254,6,0,P|323:319|369:323,1,80.750001540184,2|0,1:2|1:2,0:2:0:0:
512,199,30607,1,10,0:2:0:0:
460,379,30784,1,2,1:2:0:0:
458,362,30872,2,0,P|446:320|397:228,1,121.125002310276,10|2,0:2|1:2,0:2:0:0:
288,80,31313,1,8,0:2:0:0:
375,164,31490,1,2,0:2:0:0:
497,28,31666,6,0,P|433:21|363:97,1,161.500003080368,2|8,1:2|0:2,0:2:0:0:
250,224,32195,1,2,0:2:0:0:
166,107,32372,2,0,P|130:84|81:92,1,80.750001540184,2|2,1:2|1:2,0:2:0:0:
64,115,32637,1,2,0:2:0:0:
64,115,32725,1,10,0:2:0:0:
206,0,32901,1,2,0:2:0:0:
402,158,33078,6,0,P|350:186|253:210,1,121.125002310276,2|0,1:2|0:2,0:2:0:0:
257,187,33431,2,0,P|230:175|198:175,1,40.375000770092,10|0,0:2|0:2,0:2:0:0:
107,373,33607,1,10,0:2:0:0:
133,381,33695,1,8,0:2:0:0:
165,373,33784,1,8,1:3:0:0:
195,339,33872,1,8,1:3:0:0:
197,289,33960,1,10,0:2:0:0:
159,250,34048,1,0,1:2:0:0:
116,217,34137,1,10,0:2:0:0:
104,163,34225,1,0,1:2:0:0:
129,112,34313,5,6,1:2:0:0:
134,110,34666,1,2,1:2:0:0:
321,25,34843,2,0,P|281:14|244:0,1,80.750001540184,10|0,0:2|0:2,0:2:0:0:
424,138,35195,2,0,P|463:127|500:112,1,80.750001540184,10|0,0:2|1:2,0:2:0:0:
254,230,35548,1,10,0:2:0:0:
387,286,35725,1,2,0:2:0:0:
378,96,35901,6,0,P|361:159|346:205,1,80.750001540184,8|2,0:2|0:2,0:2:0:0:
219,2,36254,1,8,0:2:0:0:
92,127,36431,2,0,P|68:136|39:138,1,40.375000770092,0|0,1:2|1:2,0:2:0:0:
275,147,36607,1,8,0:2:0:0:
105,30,36784,1,8,0:2:0:0:
152,216,36960,2,0,P|170:169|190:133,1,80.750001540184,8|4,1:3|0:3,0:2:0:0:
19,249,37313,6,0,P|63:288|123:381,2,161.500003080368,6|0|8,1:2|1:2|0:2,0:2:0:0:
207,189,38372,1,10,0:2:0:0:
207,189,38548,1,0,1:2:0:0:
114,17,38725,6,0,P|96:65|78:166,1,121.125002310276,10|0,0:2|0:2,0:2:0:0:
83,149,39078,1,0,1:2:0:0:
301,275,39254,6,0,P|252:266|183:338,1,121.125002310276,10|0,0:2|0:2,0:2:0:0:
190,319,39607,1,0,1:2:0:0:
309,97,39784,6,0,P|343:112|369:115,1,40.375000770092,8|8,0:3|0:3,0:2:0:0:
459,196,39960,2,0,P|478:189|495:180,1,40.375000770092,4|4,0:3|0:3,0:2:0:0:
376,376,40490,6,0,P|349:337|315:214,1,161.500003080368,14|0,0:2|1:2,0:2:0:0:
189,372,41019,1,2,0:2:0:0:
105,313,41195,2,0,P|55:331|17:338,1,80.750001540184,8|2,0:2|0:2,0:2:0:0:
155,166,41548,6,0,P|205:190|332:228,1,161.500003080368,2|10,1:2|0:2,0:2:0:0:
488,111,42078,1,10,0:2:0:0:
488,111,42166,1,8,0:2:0:0:
488,111,42254,1,0,1:2:0:0:
329,34,42431,1,4,0:3:0:0:
439,176,42607,1,8,0:3:0:0:
372,360,42784,5,4,0:3:0:0:
365,356,43137,1,0,1:2:0:0:
187,281,43313,2,0,P|251:264|351:228,1,161.500003080368,12|2,0:2|1:2,0:2:0:0:
205,175,43843,1,2,0:2:0:0:
275,5,44019,1,10,0:2:0:0:
144,62,44195,1,2,0:2:0:0:
353,130,44372,6,0,P|296:122|202:94,1,121.125002310276,2|0,1:2|0:2,0:2:0:0:
217,92,44725,1,8,0:2:0:0:
112,205,44901,1,2,1:2:0:0:
112,205,44990,1,0,1:2:0:0:
112,205,45078,1,8,0:2:0:0:
207,277,45254,1,10,0:2:0:0:
207,277,45343,1,0,1:2:0:0:
207,277,45431,1,8,0:3:0:0:
183,384,45607,1,6,0:3:0:0:
403,230,45784,6,0,P|351:254|223:288,1,174.79999413208,6|8,1:2|0:2,0:2:0:0:
398,349,46313,1,2,0:2:0:0:
272,193,46490,2,0,P|278:153|294:107,1,87.3999970660401,2|0,1:2|1:2,0:2:0:0:
163,305,46843,2,0,P|152:266|147:216,1,87.3999970660401,8|2,0:2|0:2,0:2:0:0:
3,13,47195,6,0,P|22:56|142:70,1,174.79999413208,2|10,1:2|0:2,0:2:0:0:
230,0,47725,1,2,0:2:0:0:
404,110,47901,2,0,P|354:120|313:135,1,87.3999970660401,0|0,1:2|0:2,0:2:0:0:
178,267,48254,1,10,0:2:0:0:
84,201,48431,1,2,0:2:0:0:
228,374,48607,6,0,P|249:326|269:198,1,174.79999413208,2|8,1:2|0:2,0:2:0:0:
400,335,49137,1,2,0:2:0:0:
467,247,49313,2,0,P|458:204|439:164,1,87.3999970660401,2|0,1:2|1:2,0:2:0:0:
334,0,49666,1,10,0:2:0:0:
459,41,49843,1,2,0:2:0:0:
309,180,50019,6,0,B|265:204|265:204|195:204|159:159,1,131.09999559906,2|0,1:2|0:0,0:2:0:0:
166,164,50372,1,6,1:2:0:0:
113,20,50548,2,0,P|92:27|71:32,1,43.6999985330201,10|0,0:2|1:2,0:2:0:0:
237,111,50725,1,2,1:2:0:0:
356,20,50901,1,10,0:2:0:0:
433,76,51078,1,10,1:3:0:0:
490,42,51254,1,6,1:3:0:0:
399,247,51431,6,0,P|392:218|357:108,2,142.500005435944,6|0|10,1:2|1:2|0:2,0:2:0:0:
221,346,52490,2,0,P|268:356|303:371,1,71.2500027179719,0|8,1:2|0:2,0:2:0:0:
379,264,52843,2,0,P|332:274|297:289,1,71.2500027179719,0|8,1:2|0:2,0:2:0:0:
175,115,53195,5,2,1:2:0:0:
234,236,53548,5,10,0:2:0:0:
136,330,53901,5,2,1:2:0:0:
3,262,54078,2,0,L|14:219,1,35.625001358986,2|0,1:2|1:2,0:2:0:0:
36,134,54254,5,10,0:2:0:0:
36,134,54343,1,8,1:3:0:0:
36,134,54431,1,4,1:3:0:0:
162,9,54607,1,0,1:2:0:0:
278,209,54784,5,10,0:2:0:0:
278,209,54872,1,8,1:3:0:0:
278,209,54960,1,4,1:3:0:0:
186,93,55137,1,2,1:2:0:0:
375,156,55313,1,10,0:2:0:0:
130,263,55490,5,6,1:2:0:0:
129,269,55843,5,8,0:2:0:0:
165,348,56019,5,8,0:2:0:0:
258,381,56195,5,8,0:2:0:0:
373,371,56372,5,8,0:2:0:0:
483,298,56548,5,8,0:2:0:0:
512,157,56725,5,8,0:2:0:0:
432,10,56901,5,8,0:2:0:0:
256,192,57784,12,0,59107,0:2:0:0:
85,175,59195,5,10,0:2:0:0:
354,31,59372,1,8,0:2:0:0:
354,31,59901,6,0,P|421:52|476:65,1,99.7499969558717,6|2,1:2|0:2,0:2:0:0:
275,247,60254,1,8,0:2:0:0:
436,149,60431,1,0,0:2:0:0:
201,22,60607,1,2,1:2:0:0:
331,123,60784,1,0,1:2:0:0:
121,256,60960,1,10,0:2:0:0:
229,126,61137,6,0,P|131:155|37:179,1,199.499993911743,0|2,1:2|1:2,0:2:0:0:
177,377,61666,1,8,0:2:0:0:
85,280,61843,1,2,1:2:0:0:
85,280,61931,1,8,0:2:0:0:
85,280,62019,1,0,1:2:0:0:
303,351,62195,1,2,1:2:0:0:
340,204,62372,2,0,P|388:191|439:174,1,99.7499969558717,8|0,0:2|0:2,0:2:0:0:
230,6,62725,5,2,1:2:0:0:
336,115,62901,1,2,0:2:0:0:
108,237,63078,1,10,0:2:0:0:
142,96,63254,1,2,0:2:0:0:
304,360,63431,2,0,P|291:300|254:184,1,149.624995433808,2|0,1:2|0:2,0:2:0:0:
255,190,63784,1,10,0:2:0:0:
21,357,63960,6,0,P|88:332|226:292,1,199.499993911743,2|0,1:2|1:2,0:2:0:0:
428,129,64490,1,10,0:2:0:0:
493,261,64666,2,0,P|429:244|343:216,1,149.624995433808,2|8,1:2|0:2,0:2:0:0:
282,159,65019,2,0,P|287:133|297:111,1,49.8749984779358,2|0,1:2|1:2,0:2:0:0:
312,367,65195,1,8,0:2:0:0:
30,180,65372,1,2,1:2:0:0:
30,180,65460,1,10,0:2:0:0:
30,180,65548,6,0,B|65:158|65:158|141:149|204:227,1,199.499993911743,6|8,1:2|0:2,0:2:0:0:
471,100,66078,1,2,0:2:0:0:
329,0,66254,2,0,P|347:65|355:105,1,99.7499969558717,2|0,1:2|1:2,0:2:0:0:
295,358,66607,1,10,0:2:0:0:
505,287,66784,6,0,P|438:269|304:224,1,199.499993911743,2|2,1:2|1:2,0:2:0:0:
198,363,67313,1,10,0:2:0:0:
17,154,67490,2,0,P|34:202|49:256,1,99.7499969558717,2|2,1:2|0:2,0:2:0:0:
53,275,67754,1,10,0:2:0:0:
53,275,67843,1,2,1:2:0:0:
221,173,68019,1,8,0:2:0:0:
27,10,68195,5,0,1:2:0:0:
27,10,68284,1,8,0:2:0:0:
27,10,68372,2,0,P|95:34|221:65,1,199.499993911743,6|10,1:2|0:2,0:2:0:0:
497,207,68901,2,0,B|459:185|459:185|380:175|319:261,1,199.499993911743,6|2,1:2|1:2,0:2:0:0:
227,381,69431,1,8,0:2:0:0:
2,188,69607,6,0,P|52:174|136:253,1,149.624995433808,6|0,1:2|0:2,0:2:0:0:
135,248,69960,1,0,1:2:0:0:
296,30,70137,1,10,0:2:0:0:
421,113,70313,1,8,0:2:0:0:
395,122,70402,1,0,1:2:0:0:
369,132,70490,1,0,1:2:0:0:
498,218,70666,1,8,1:3:0:0:
407,297,70843,1,4,1:3:0:0:
441,377,71019,1,0,1:2:0:0:
317,236,71195,6,0,P|254:232|202:304,2,142.500005435944,6|2|10,1:2|1:2|1:2,0:2:0:0:
462,149,72254,1,2,0:2:0:0:
462,149,72431,2,0,P|400:147|353:73,1,142.500005435944,0|8,1:2|0:2,0:2:0:0:
324,0,72960,1,2,1:2:0:0:
249,110,73137,1,2,0:0:0:0:
249,110,73225,1,2,0:0:0:0:
249,110,73313,2,0,P|205:121|173:133,1,71.2500027179719,8|2,0:2|0:2,0:2:0:0:
64,31,73666,2,0,P|108:42|140:54,1,71.2500027179719,0|2,1:2|0:2,0:2:0:0:
151,58,73931,1,8,1:2:0:0:
151,58,74019,6,0,P|136:114|123:207,1,142.500005435944,4|0,1:2|1:2,0:2:0:0:
182,284,74548,1,2,0:0:0:0:
31,177,74725,1,10,0:0:0:0:
209,380,75078,1,0,1:2:0:0:
209,380,75254,2,0,P|235:336|334:326,1,142.500005435944,4|0,1:2|1:2,0:2:0:0:
343,332,75695,1,0,0:2:0:0:
343,332,75784,1,10,0:2:0:0:
208,184,75960,5,2,1:2:0:0:
361,36,76313,5,6,1:2:0:0:
489,191,76666,5,0,1:2:0:0:
489,191,76754,1,8,0:2:0:0:
489,191,76843,2,0,P|455:179|420:171,1,71.2500027179719,6|2,1:2|0:2,0:2:0:0:
350,73,77195,2,0,P|316:84|281:92,1,71.2500027179719,2|2,1:2|0:2,0:2:0:0:
177,225,77548,1,8,0:2:0:0:
104,124,77725,2,0,P|79:115|64:107,1,35.625001358986,2|10,0:2|0:2,0:2:0:0:
262,171,77901,1,2,1:2:0:0:
113,334,78078,6,0,P|88:292|68:185,1,142.500005435944,2|2,1:2|1:2,0:2:0:0:
136,35,78607,1,2,1:2:0:0:
322,110,78784,1,2,1:2:0:0:
169,269,78960,1,8,0:2:0:0:
209,345,79137,1,10,1:3:0:0:
293,365,79313,1,4,1:3:0:0:
369,331,79490,1,4,1:3:0:0:
476,146,79666,6,0,P|415:171|336:197,1,128.249996086121,10|0,0:2|0:2,0:2:0:0:
345,204,80019,1,2,1:2:0:0:
144,12,80195,6,0,P|205:37|284:63,1,128.249996086121,10|0,0:2|0:2,0:2:0:0:
275,70,80548,1,2,1:2:0:0:
61,284,80725,5,6,1:2:0:0:
61,284,82490,2,0,P|121:283|158:337,1,113.999996520996,2|0,0:2|0:2,0:2:0:0:
238,238,83019,1,2,0:2:0:0:
238,238,83195,1,2,0:2:0:0:
98,69,83901,5,10,0:2:0:0:
250,367,84078,1,8,0:2:0:0:
250,367,85313,6,0,P|310:349|363:340,1,95,6|2,1:2|0:2,0:2:0:0:
370,323,85578,1,2,0:2:0:0:
370,323,85666,2,0,P|359:258|343:205,1,95,10|0,0:2|0:2,0:2:0:0:
485,44,86019,2,0,P|461:101|312:93,1,190,2|10,1:2|0:2,0:2:0:0:
69,3,86548,6,0,P|142:21|173:158,1,190,2|0,1:2|1:2,0:2:0:0:
59,329,87078,1,10,0:2:0:0:
177,248,87254,2,0,P|117:230|54:202,1,95,2|0,1:2|1:2,0:2:0:0:
58,205,87519,1,8,0:2:0:0:
58,205,87607,2,0,P|80:151|98:91,1,95,2|8,1:2|0:2,0:2:0:0:
230,333,87960,1,8,0:3:0:0:
230,333,88048,1,4,0:3:0:0:
230,333,88137,5,10,0:2:0:0:
10,120,88313,1,10,0:2:0:0:
304,29,88666,5,10,0:2:0:0:
137,302,88843,1,10,0:2:0:0:
455,186,89195,5,10,0:2:0:0:
143,72,89372,1,10,0:2:0:0:
314,368,89725,5,10,0:2:0:0:
409,19,89901,1,10,0:2:0:0:
185,174,90254,5,0,0:0:0:0:
197,171,90343,5,0,0:0:0:0:
204,181,90431,5,0,0:0:0:0:
197,192,90519,5,0,0:0:0:0:
185,187,90607,5,2,0:1:0:0:
66,78,90960,5,2,1:2:0:0:
66,78,93607,5,2,1:2:0:0:
66,78,93784,1,2,1:2:0:0:
156,177,95019,5,2,1:2:0:0:
66,243,95195,2,0,P|100:252|134:263,1,71.2500027179719,0|8,1:2|0:2,0:2:0:0:
134,263,95460,1,8,0:2:0:0:
134,263,95548,1,10,0:2:0:0:
237,56,95725,5,10,0:2:0:0:
462,153,96078,5,10,0:2:0:0:
355,362,96431,6,0,P|363:303|382:212,1,142.500005435944,6|2,1:2|1:2,0:2:0:0:
323,143,96960,2,0,P|294:179|199:176,2,142.500005435944,0|8|0,1:2|0:2|1:2,0:2:0:0:
305,48,97843,1,10,0:2:0:0:
305,48,98019,6,0,P|361:66|391:73,2,71.2500027179719,0|8|0,0:2|0:2|0:2,0:2:0:0:
430,154,98548,2,0,P|464:146|498:135,1,71.2500027179719,0|8,1:2|0:2,0:2:0:0:
374,240,98901,2,0,P|339:230|305:218,1,71.2500027179719,0|8,1:2|0:2,0:2:0:0:
160,132,99254,1,0,1:2:0:0:
187,325,99431,6,0,P|199:279|231:188,1,142.500005435944,4|0,1:2|0:2,0:2:0:0:
86,119,99960,2,0,P|109:184|117:215,1,71.2500027179719,0|8,1:2|0:2,0:2:0:0:
191,100,100313,1,0,1:2:0:0:
34,251,100490,1,8,0:2:0:0:
34,251,100843,6,0,P|94:266|179:298,1,142.500005435944,8|8,0:2|0:2,0:2:0:0:
250,381,101372,2,0,P|316:357|380:340,1,106.875004076958,8|0,0:2|0:2,0:2:0:0:
372,337,101725,6,0,P|381:299|384:288,1,35.625001358986,8|0,0:2|1:2,0:2:0:0:
318,177,101901,2,0,P|331:189|343:201,1,35.625001358986,8|0,0:2|1:2,0:2:0:0:
490,221,102078,2,0,P|473:226|455:231,1,35.625001358986,8|0,0:2|1:2,0:2:0:0:
235,13,102607,6,0,P|218:64|193:177,1,161.500003080368,12|0,0:2|1:2,0:2:0:0:
180,303,103137,1,2,0:2:0:0:
55,183,103313,2,0,P|80:242|86:268,1,80.750001540184,10|2,0:2|0:2,0:2:0:0:
239,381,103666,6,0,P|263:333|382:322,1,161.500003080368,2|10,1:2|0:2,0:2:0:0:
478,212,104195,2,0,P|423:194|385:176,1,80.750001540184,2|0,1:2|0:2,0:2:0:0:
274,37,104548,1,2,1:2:0:0:
456,111,104725,1,10,0:2:0:0:
247,238,104901,5,8,0:2:0:0:
243,242,105254,1,0,1:2:0:0:
74,90,105431,2,0,P|98:160|121:265,1,161.500003080368,12|0,0:2|1:2,0:2:0:0:
81,369,105960,1,2,1:2:0:0:
220,279,106137,1,8,0:2:0:0:
333,360,106313,1,2,1:2:0:0:
475,221,106490,6,0,P|429:240|316:275,1,161.500003080368,2|10,1:2|0:2,0:2:0:0:
442,107,107019,1,2,1:2:0:0:
448,111,107372,2,0,P|478:123|490:126,1,40.375000770092,2|8,1:2|0:2,0:2:0:0:
280,17,107548,1,8,0:3:0:0:
359,132,107725,1,4,0:3:0:0:
174,289,107901,6,0,P|110:266|-1:241,1,174.79999413208,4|8,1:2|0:2,0:2:0:0:
117,383,108431,1,2,0:2:0:0:
260,276,108607,2,0,P|276:228|275:172,1,87.3999970660401,2|0,1:2|0:2,0:2:0:0:
126,98,108960,2,0,P|149:134|160:176,1,87.3999970660401,8|2,0:2|0:2,0:2:0:0:
235,374,109313,6,0,P|260:331|384:320,1,174.79999413208,2|10,1:2|0:2,0:2:0:0:
512,166,109843,2,0,P|461:186|413:195,1,87.3999970660401,2|0,0:2|1:2,0:2:0:0:
314,84,110195,2,0,P|298:34|292:0,1,87.3999970660401,2|8,0:2|0:2,0:2:0:0:
214,163,110548,1,2,0:2:0:0:
16,17,110725,6,0,P|72:38|196:75,1,174.79999413208,2|8,1:2|0:2,0:2:0:0:
44,217,111254,2,0,P|63:165|73:126,1,87.3999970660401,2|0,0:2|1:2,0:2:0:0:
201,281,111607,2,0,P|181:232|171:193,1,87.3999970660401,2|8,0:2|0:2,0:2:0:0:
76,345,111960,2,0,P|55:336|34:330,1,43.6999985330201,0|8,1:2|0:2,0:2:0:0:
226,258,112137,6,0,B|267:242|267:242|307:264|307:264|355:234|409:235,1,174.79999413208,2|10,1:2|0:2,0:2:0:0:
467,81,112666,1,10,0:2:0:0:
449,53,112754,1,8,0:2:0:0:
418,33,112843,1,0,1:2:0:0:
385,28,112931,1,0,1:2:0:0:
352,37,113019,1,8,0:2:0:0:
289,157,113195,1,8,0:3:0:0:
201,104,113372,1,4,0:3:0:0:
134,223,113548,6,0,P|88:235|-3:269,2,142.500005435944,2|0|10,1:2|1:2|0:2,0:2:0:0:
290,366,114607,2,0,P|245:353|208:337,1,71.2500027179719,0|8,1:2|0:2,0:2:0:0:
323,278,114960,2,0,P|368:265|405:249,1,71.2500027179719,0|8,1:2|0:2,0:2:0:0:
241,146,115313,5,2,1:2:0:0:
155,257,115666,5,10,0:2:0:0:
25,217,116019,5,2,1:2:0:0:
12,82,116195,1,2,1:2:0:0:
166,13,116372,6,0,P|145:62|124:129,1,87.3999970660401,4|0,1:2|1:2,0:2:0:0:
133,94,116637,1,8,0:2:0:0:
133,94,116725,1,8,0:2:0:0:
240,310,116901,6,0,P|293:322|355:270,1,131.09999559906,6|0,1:2|0:2,0:2:0:0:
358,262,117254,1,10,0:2:0:0:
238,85,117431,1,2,1:2:0:0:
479,123,117607,6,0,P|422:147|313:180,1,174.79999413208,12|0,0:2|1:2,0:2:0:0:
299,186,118048,1,0,1:2:0:0:
299,186,118137,1,8,0:2:0:0:
189,364,118313,2,0,P|226:373|248:387,1,43.6999985330201,8|0,0:2|1:2,0:2:0:0:
33,243,118490,1,8,0:2:0:0:
45,269,118578,1,8,0:2:0:0:
52,299,118666,1,8,0:2:0:0:
215,97,118843,1,8,0:2:0:0:
195,142,118931,1,8,0:2:0:0:
181,192,119019,1,8,0:2:0:0:
173,233,119107,1,8,0:2:0:0:
170,262,119195,6,0,P|108:245|65:227,1,99.7499969558717,6|2,1:2|0:2,0:2:0:0:
324,109,119548,2,0,P|368:93|420:78,1,99.7499969558717,10|2,0:2|0:2,0:2:0:0:
200,14,119901,1,0,1:2:0:0:
364,206,120078,1,2,1:2:0:0:
188,146,120254,1,8,0:2:0:0:
474,2,120431,6,0,B|419:-21|400:36|400:36|440:151,1,199.499993911743,2|2,1:2|1:2,0:2:0:0:
512,299,120960,1,10,0:2:0:0:
399,384,121137,1,0,1:2:0:0:
399,384,121225,1,0,1:2:0:0:
399,384,121313,2,0,P|407:355|412:327,1,49.8749984779358,2|8,0:2|0:2,0:2:0:0:
305,180,121490,1,0,1:2:0:0:
228,349,121666,2,0,P|177:368|125:379,1,99.7499969558717,8|2,0:2|0:2,0:2:0:0:
0,145,122019,5,2,1:2:0:0:
78,277,122195,1,2,0:2:0:0:
268,37,122372,1,10,0:2:0:0:
232,186,122548,1,2,0:2:0:0:
406,367,122725,2,0,P|447:322|460:236,1,149.624995433808,2|0,1:2|0:2,0:2:0:0:
452,220,123078,1,10,0:2:0:0:
91,99,123254,6,0,B|124:131|124:131|196:157|274:78,1,199.499993911743,6|2,1:2|0:2,0:2:0:0:
106,346,123784,1,10,0:2:0:0:
271,271,123960,2,0,P|205:256|98:221,1,149.624995433808,2|8,1:2|0:2,0:2:0:0:
59,172,124313,2,0,P|45:210|43:235,1,49.8749984779358,0|2,1:2|0:2,0:2:0:0:
191,24,124490,1,8,0:2:0:0:
439,249,124666,1,8,0:2:0:0:
439,249,124754,1,8,0:2:0:0:
439,249,124843,6,0,B|471:208|471:208|478:128|413:56,1,199.499993911743,6|8,1:2|0:2,0:2:0:0:
210,194,125372,1,2,0:2:0:0:
94,64,125548,2,0,P|149:84|191:95,1,99.7499969558717,2|0,1:2|1:2,0:2:0:0:
12,331,125901,1,10,0:2:0:0:
72,155,126078,6,0,P|94:221|132:365,1,199.499993911743,6|2,1:2|1:2,0:2:0:0:
235,199,126607,1,10,0:2:0:0:
376,360,126784,2,0,P|435:341|484:331,1,99.7499969558717,2|2,1:2|0:2,0:2:0:0:
491,319,127048,1,8,0:2:0:0:
491,319,127137,1,2,1:2:0:0:
360,171,127313,1,8,0:2:0:0:
285,314,127490,2,0,P|262:307|237:303,1,49.8749984779358,10|8,0:2|0:2,0:2:0:0:
460,235,127666,6,0,P|486:187|467:83,1,149.624995433808,4|0,1:2|0:2,0:2:0:0:
458,82,128019,1,10,0:2:0:0:
257,27,128195,2,0,P|307:15|357:-1,1,99.7499969558717,2|0,0:2|1:2,0:2:0:0:
353,0,128460,1,8,0:2:0:0:
353,0,128548,1,10,0:2:0:0:
202,204,128725,1,2,1:2:0:0:
57,68,128901,6,0,P|113:82|173:108,1,99.7499969558717,2|0,1:2|0:2,0:2:0:0:
278,240,129254,1,8,1:3:0:0:
411,180,129431,1,4,1:3:0:0:
285,363,129607,1,8,0:2:0:0:
285,363,129695,1,4,1:3:0:0:
285,363,129784,1,4,1:3:0:0:
132,209,129960,1,8,0:2:0:0:
58,344,130137,1,8,0:2:0:0:
251,253,130313,1,0,1:2:0:0:
251,253,130401,1,0,1:2:0:0:
251,253,130490,6,0,P|184:278|106:296,2,142.500005435944,6|2|10,1:2|1:2|0:2,0:2:0:0:
433,153,131548,1,2,1:2:0:0:
432,152,131724,2,0,P|362:135|296:110,1,142.500005435944,2|10,1:2|0:2,0:2:0:0:
243,30,132254,1,2,1:2:0:0:
151,130,132431,1,2,0:0:0:0:
151,130,132519,1,2,0:0:0:0:
151,130,132607,2,0,P|143:95|131:61,1,71.2500027179719,10|0,0:2|1:2,0:2:0:0:
43,149,132960,2,0,P|32:181|27:222,1,71.2500027179719,0|2,1:2|0:2,0:2:0:0:
37,254,133225,1,8,0:2:0:0:
37,254,133313,6,0,P|106:233|175:221,1,142.500005435944,6|2,1:2|1:2,0:2:0:0:
267,281,133843,1,2,0:0:0:0:
151,130,134019,1,10,0:0:0:0:
354,19,134372,1,2,1:2:0:0:
354,19,134548,2,0,P|364:89|381:158,1,142.500005435944,6|0,1:2|1:2,0:2:0:0:
401,268,135078,1,10,0:2:0:0:
185,332,135254,5,10,0:2:0:0:
127,125,135607,5,6,1:2:0:0:
350,61,135960,5,2,1:2:0:0:
350,61,136048,1,8,0:2:0:0:
350,61,136137,2,0,P|400:80|487:103,1,142.500005435944,6|2,1:2|1:2,0:2:0:0:
397,187,136666,1,2,1:2:0:0:
261,89,136843,2,0,P|256:27|274:-1,1,71.2500027179719,10|0,0:2|1:2,0:2:0:0:
271,9,137107,1,8,0:2:0:0:
271,9,137195,1,0,1:2:0:0:
27,34,137372,6,0,P|82:56|170:81,1,142.500005435944,2|2,1:2|1:2,0:2:0:0:
246,179,137901,1,2,1:2:0:0:
378,35,138078,1,2,1:2:0:0:
512,166,138254,1,8,0:2:0:0:
433,206,138431,1,10,1:3:0:0:
409,287,138607,1,4,1:3:0:0:
452,367,138784,1,6,1:3:0:0:
305,235,138960,6,0,P|249:225|181:301,1,131.09999559906,10|0,0:2|0:2,0:2:0:0:
187,286,139313,1,2,1:2:0:0:
34,87,139490,6,0,P|73:135|138:140,1,131.09999559906,10|0,0:2|0:2,0:2:0:0:
153,126,139843,1,2,1:2:0:0:
19,363,140019,5,6,1:2:0:0:
340,122,141078,2,0,P|382:137|430:146,2,80.750001540184,2|4|8,1:2|1:3|1:3,0:2:0:0:
216,12,141784,5,6,0:2:0:0:
447,345,158725,6,0,P|456:296|473:220,1,121.125002310276,0|0,1:2|0:2,0:2:0:0:
464,193,159078,2,0,P|418:212|367:225,1,80.750001540184,2|0,1:2|1:2,0:2:0:0:
249,79,159431,2,0,P|295:97|408:126,1,161.500003080368,2|2,1:2|1:2,0:2:0:0:
306,275,159960,1,2,0:2:0:0:
306,275,160137,6,0,P|293:222|286:162,1,80.750001540184,0|0,1:2|0:2,0:2:0:0:
226,352,160490,2,0,P|213:299|206:239,1,80.750001540184,2|0,1:2|0:2,0:2:0:0:
40,318,160843,1,2,1:2:0:0:
141,355,161019,1,8,0:2:0:0:
125,193,161195,2,0,P|118:232|108:271,1,80.750001540184,2|0,1:2|1:2,0:2:0:0:
14,108,161548,5,8,0:2:0:0:
19,115,161901,2,0,P|83:103|149:84,1,121.125002310276,2|0,1:2|0:2,0:2:0:0:
157,75,162254,2,0,P|168:28|147:-11,1,80.750001540184,2|8,1:2|0:2,0:2:0:0:
303,79,162607,1,2,1:2:0:0:
231,149,162784,1,2,0:2:0:0:
383,4,162960,5,8,0:2:0:0:
388,8,163313,1,2,1:2:0:0:
504,79,163490,2,0,P|457:93|420:109,1,80.750001540184,8|2,0:2|1:2,0:2:0:0:
360,190,163843,1,0,1:2:0:0:
244,46,164019,2,0,P|290:60|327:76,1,80.750001540184,10|0,0:2|1:2,0:2:0:0:
346,90,164284,1,8,0:2:0:0:
346,90,164372,6,0,P|324:164|308:250,1,161.500003080368,6|0,1:2|1:2,0:2:0:0:
253,371,164901,2,0,P|225:331|100:337,1,161.500003080368,10|0,0:2|0:2,0:2:0:0:
13,177,165431,1,10,0:2:0:0:
119,240,165607,1,2,1:2:0:0:
119,240,165695,1,0,1:2:0:0:
119,240,165784,6,0,P|133:160|156:83,1,161.500003080368,10|2,0:2|1:2,0:2:0:0:
306,164,166313,2,0,P|262:172|219:184,1,80.750001540184,10|0,0:2|1:2,0:2:0:0:
142,309,166666,1,10,1:3:0:0:
238,378,166843,1,6,1:3:0:0:
371,279,167019,1,0,1:2:0:0:
371,279,167107,1,0,1:2:0:0:
371,279,167195,6,0,P|296:258|316:337,1,190,14|0,0:2|1:2,0:2:0:0:
424,173,167725,6,0,P|494:144|484:223,1,190,14|0,0:2|1:2,0:2:0:0:
374,61,168254,6,0,B|326:55|296:14|296:14|286:69|253:99,1,190,14|0,0:2|1:2,0:2:0:0:
210,217,168784,6,0,B|177:186|166:131|166:131|137:172|89:177,1,190,14|0,0:2|1:2,0:2:0:0:
90,178,169225,1,8,0:2:0:0:
90,178,169313,1,2,1:2:0:0:
0,307,169490,1,8,1:3:0:0:
106,373,169666,1,4,1:3:0:0:
111,377,170019,6,0,P|168:358|300:326,1,190,14|8,0:2|0:2,0:2:0:0:
186,249,170548,1,8,0:2:0:0:
367,175,170725,1,8,0:2:0:0:
187,91,170901,1,8,0:2:0:0:
372,317,171078,1,8,0:2:0:0:
435,2,171254,1,8,0:2:0:0:
348,361,173549,5,10,0:2:0:0:
216,83,173725,1,8,0:2:0:0:
216,83,174431,6,0,L|186:124,1,40.375000770092,0|0,1:2|1:2,0:2:0:0:
29,323,174607,1,14,0:2:0:0:
231,274,174784,1,2,0:2:0:0:
101,105,174960,1,10,0:2:0:0:
63,147,175048,1,8,0:2:0:0:
63,203,175137,1,8,0:2:0:0:
99,245,175225,1,8,0:2:0:0:
137,270,175313,1,10,0:2:0:0:
138,317,175401,1,8,0:2:0:0:
122,358,175490,6,0,P|138:257|150:205,1,149.624995433808,6|0,1:2|0:2,0:2:0:0:
156,182,175843,1,2,1:2:0:0:
364,384,176019,1,10,0:2:0:0:
488,281,176195,1,10,1:3:0:0:
466,290,176284,1,8,1:3:0:0:
442,299,176372,1,4,1:3:0:0:
280,232,176548,1,2,1:2:0:0:
445,5,176725,2,0,P|430:66|414:147,1,121.125002310276,8|0,0:2|0:2,0:2:0:0:
414,150,177078,6,0,P|472:130|528:116,1,99.7499969558717,6|2,1:2|0:2,0:2:0:0:
250,263,177431,2,0,P|297:277|344:295,1,99.7499969558717,10|2,0:2|0:2,0:2:0:0:
49,74,177784,1,2,1:2:0:0:
245,133,177960,1,0,1:2:0:0:
51,261,178137,1,10,0:2:0:0:
130,12,178313,6,0,P|151:92|181:227,1,199.499993911743,2|0,1:2|1:2,0:2:0:0:
405,96,178843,1,10,0:2:0:0:
304,363,179019,2,0,P|255:307|173:313,1,149.624995433808,2|0,1:2|0:2,0:2:0:0:
166,319,179372,1,0,1:2:0:0:
17,177,179548,1,8,0:2:0:0:
264,13,179725,1,2,1:2:0:0:
264,13,179813,1,8,0:2:0:0:
264,13,179901,6,0,P|246:83|229:168,1,149.624995433808,6|0,1:2|0:2,0:2:0:0:
227,182,180254,1,8,0:2:0:0:
401,335,180431,2,0,P|449:322|497:308,1,99.7499969558717,2|2,1:2|1:2,1:2:0:0:
345,200,180784,1,2,0:2:0:0:
239,376,180960,1,8,0:2:0:0:
22,216,181137,6,0,P|83:237|229:274,1,199.499993911743,4|0,1:2|1:2,0:2:0:0:
466,115,181666,1,10,0:2:0:0:
318,346,181843,2,0,P|335:271|352:159,1,149.624995433808,6|0,1:2|0:2,0:2:0:0:
350,177,182195,1,2,1:2:0:0:
131,2,182372,1,8,0:2:0:0:
270,134,182548,1,0,1:2:0:0:
270,134,182637,1,8,0:2:0:0:
270,134,182725,6,0,P|313:86|413:113,1,149.624995433808,6|0,1:2|0:2,0:2:0:0:
411,108,183078,1,10,0:2:0:0:
234,306,183254,2,0,P|168:289|125:281,1,99.7499969558717,0|0,1:2|1:2,0:2:0:0:
37,130,183607,1,0,1:2:0:0:
216,212,183784,1,10,0:2:0:0:
44,352,183960,6,0,P|56:287|83:194,1,149.624995433808,6|0,1:2|0:2,0:2:0:0:
144,85,184313,2,0,P|158:112|163:133,1,49.8749984779358,8|0,0:2|1:2,0:2:0:0:
248,309,184490,1,8,1:3:0:0:
458,228,184666,1,8,0:2:0:0:
458,228,184754,1,8,0:2:0:0:
458,228,184843,1,0,1:2:0:0:
324,24,185019,1,8,0:2:0:0:
282,37,185107,1,8,0:2:0:0:
257,77,185195,1,8,0:2:0:0:
255,124,185284,1,0,1:2:0:0:
276,158,185372,1,0,1:2:0:0:
301,172,185460,1,0,1:2:0:0:
320,178,185548,6,0,P|261:161|175:142,1,142.500005435944,6|0,1:2|1:2,0:2:0:0:
106,254,186078,2,0,P|138:244|158:241,1,35.625001358986,2|2,1:2|0:2,0:2:0:0:
3,109,186254,2,0,P|27:159|37:201,1,71.2500027179719,10|2,0:2|0:0,0:0:0:0:
123,21,186607,2,2,P|116:37|112:54,1,35.625001358986,2|2,1:2|0:2,0:2:0:0:
235,214,186784,6,0,P|263:173|237:77,1,142.500005435944,2|10,1:2|0:2,0:2:0:0:
311,0,187313,1,2,1:2:0:0:
460,40,187490,1,2,0:2:0:0:
424,58,187578,1,2,0:2:0:0:
403,91,187666,1,10,0:2:0:0:
401,128,187754,1,2,0:2:0:0:
418,163,187843,2,2,P|427:177|446:193,1,35.625001358986,2|2,1:2|0:2,0:2:0:0:
482,215,188019,5,2,1:2:0:0:
512,274,188137,5,2,0:2:0:0:
493,339,188254,5,2,0:2:0:0:
442,373,188372,6,0,P|396:358|298:334,1,142.500005435944,6|2,1:2|1:2,0:2:0:0:
177,379,188901,1,2,1:2:0:0:
207,228,189078,2,0,P|231:272|261:377,1,142.500005435944,10|2,0:2|1:2,0:2:0:0:
75,267,189607,6,0,P|35:247|11:141,1,142.500005435944,6|0,1:2|1:2,0:2:0:0:
55,50,190137,1,10,0:2:0:0:
282,90,190313,5,10,0:2:0:0:
282,90,190490,1,0,1:0:0:0:
239,301,190666,5,6,1:2:0:0:
22,275,191019,5,2,1:2:0:0:
22,275,191107,1,8,0:2:0:0:
22,275,191195,2,0,P|104:252|169:240,1,142.500005435944,6|0,1:2|1:2,0:2:0:0:
233,155,191725,1,2,0:2:0:0:
357,259,191901,2,0,P|332:293|227:297,1,142.500005435944,10|2,0:2|1:2,0:2:0:0:
129,163,192431,6,0,P|142:112|161:21,1,142.500005435944,2|2,1:2|1:2,0:2:0:0:
52,85,192960,1,2,1:2:0:0:
233,155,193137,1,2,1:2:0:0:
433,8,193313,1,10,0:2:0:0:
354,50,193490,1,8,1:3:0:0:
337,136,193666,1,4,1:3:0:0:
396,200,193843,1,4,1:3:0:0:
191,372,194019,6,0,P|224:327|317:328,1,131.09999559906,10|0,0:2|0:2,0:2:0:0:
316,328,194372,1,2,1:2:0:0:
100,249,194548,6,0,P|51:220|32:133,1,131.09999559906,10|0,0:2|0:2,0:2:0:0:
36,129,194901,1,2,1:2:0:0:
250,0,195078,5,6,1:2:0:0:
418,292,196843,2,0,P|379:285|328:345,1,113.999996520996,2|0,0:2|0:2,0:2:0:0:
247,247,197372,1,2,0:2:0:0:
247,247,197548,1,2,0:2:0:0:
438,132,198254,5,10,0:2:0:0:
147,332,198431,1,8,0:2:0:0:
62,200,199313,6,0,B|-18:196|-20:133|41:161|41:161|44:90|100:131|62:205,1,249.375009512902,2|0,0:2|0:2,0:2:0:0:
150,120,200019,6,0,B|90:61|130:14|158:77|158:77|211:27|215:91|156:117,1,249.375009512902,2|0,0:2|0:2,0:2:0:0:
221,210,200725,6,0,B|205:162|234:146|234:186|234:186|273:172|263:209|224:207,1,142.5,2|0,0:2|0:2,0:2:0:0:
234,210,201078,6,0,P|296:189|362:176,1,95,4|2,1:2|0:2,0:2:0:0:
343,156,201343,1,2,0:2:0:0:
343,156,201431,2,0,P|329:84|310:37,1,95,10|0,0:2|0:2,0:2:0:0:
512,319,201784,2,0,P|442:299|359:394,1,190,2|10,1:2|0:2,0:2:0:0:
44,260,202313,6,0,P|105:247|235:207,1,190,2|0,1:2|1:2,0:2:0:0:
0,127,202843,1,10,0:2:0:0:
141,4,203019,2,0,P|124:66|113:114,1,95,2|0,1:2|0:2,0:2:0:0:
196,359,203372,1,2,1:2:0:0:
442,155,203548,1,8,0:2:0:0:
396,137,203636,1,0,1:2:0:0:
352,150,203724,1,0,1:2:0:0:
322,187,203812,1,0,1:2:0:0:
316,232,203901,6,0,P|291:129|274:75,1,142.5,2|0,1:2|0:2,0:2:0:0:
275,61,204254,2,0,P|235:97|185:96,1,95,8|0,0:2|0:2,0:2:0:0:
10,311,204607,2,0,P|67:249|168:266,1,190,2|8,1:2|0:2,0:2:0:0:
28,50,205137,6,0,P|50:111|61:154,1,95,6|0,1:2|0:2,0:2:0:0:
99,332,205490,1,0,1:2:0:0:
343,195,205666,1,10,0:2:0:0:
207,360,205843,1,2,1:2:0:0:
212,365,206195,1,0,1:2:0:0:
431,278,206372,1,8,0:2:0:0:
285,78,206548,1,0,1:2:0:0:
285,78,206637,1,8,0:2:0:0:
285,78,206725,6,0,P|266:143|243:257,1,142.5,6|0,1:2|0:2,0:2:0:0:
273,246,207078,2,0,P|325:228|345:186,1,95,10|0,0:2|1:2,0:2:0:0:
168,8,207431,2,0,B|133:23|110:82|110:82|65:44|14:49,1,190,2|10,1:2|0:2,0:2:0:0:
264,188,207960,6,0,B|305:171|305:171|345:194|345:194|393:163|447:164,1,190,2|0,1:2|1:2,0:2:0:0:
326,383,208490,1,10,0:2:0:0:
207,288,208666,2,0,P|152:314|62:332,1,142.5,4|0,1:2|0:2,0:2:0:0:
17,217,209019,2,0,P|30:238|39:260,1,47.5,0|8,1:2|0:2,0:2:0:0:
136,207,209195,1,8,1:3:0:0:
188,106,209372,1,4,1:3:0:0:
115,9,209548,5,10,0:2:0:0:
292,289,209725,1,10,0:2:0:0:
18,218,210078,5,10,0:2:0:0:
362,104,210255,1,10,0:2:0:0:
115,373,210607,5,10,0:2:0:0:
221,19,210784,1,10,0:2:0:0:
455,223,211137,5,10,0:2:0:0:
69,135,211313,1,10,0:2:0:0:
