osu file format v14

[General]
AudioFilename: audio.mp3
AudioLeadIn: 0
PreviewTime:173901
Countdown: 0
SampleSet: Soft
StackLeniency: 0.7
Mode: 0
LetterboxInBreaks: 0
WidescreenStoryboard: 1

[Editor]
Bookmarks: 28843,59901,119195
DistanceSpacing: 1.1
BeatDivisor: 4
GridSize: 32
TimelineZoom: 1.4

[Metadata]
Title:Suki yo ~Two Hearts~
TitleUnicode:好きよ 〜Two Hearts〜
Artist:Nakano Nino (CV: Taketatsu Ayana)
ArtistUnicode:中野二乃 (CV: 竹達彩奈)
Creator:ckharv
Version:Easy
Source:五等分の花嫁∬
Tags:go tou bun gotoubun no hanayome hana yome The Five Wedded Brides Quintessential Quintuplets season 2 second double integral character song mini album japanese anime pop jpop female vocal full version ver. ver xDidqh_ mnyui gelidium didah
BeatmapID:3662332
BeatmapSetID:1787575

[Difficulty]
HPDrainRate:2
CircleSize:3
OverallDifficulty:2
ApproachRate:3
SliderMultiplier:0.799999999999999
SliderTickRate:1

[Events]
//Background and Video events
0,0,"nino_4.jpg",0,0
//Break Periods
2,91160,93755
2,141984,157285
//Storyboard Layer 0 (Background)
//Storyboard Layer 1 (Fail)
//Storyboard Layer 2 (Pass)
//Storyboard Layer 3 (Foreground)
//Storyboard Layer 4 (Overlay)
//Storyboard Sound Samples

[TimingPoints]
-804,352.941176470588,4,2,1,50,1,0
5548,-100,4,2,1,80,0,0
17548,-100,4,2,1,55,0,0
22313,-100,4,2,1,60,0,0
22666,-100,4,2,1,65,0,0
23019,-100,4,2,1,70,0,0
28843,-100,4,2,1,65,0,0
33519,-100,4,2,1,5,0,0
33607,-100,4,2,1,65,0,0
37313,-100,4,2,1,55,0,0
40490,-100,4,2,1,65,0,0
45784,-100,4,2,1,70,0,0
51431,-100,4,2,1,55,0,0
54254,-100,4,2,1,60,0,0
54784,-100,4,2,1,65,0,0
55313,-100,4,2,1,75,0,0
55843,-100,4,2,1,55,0,0
56019,-100,4,2,1,60,0,0
56195,-100,4,2,1,65,0,0
56372,-100,4,2,1,70,0,0
56548,-100,4,2,1,75,0,0
56725,-100,4,2,1,80,0,0
56901,-100,4,2,1,85,0,0
57784,-100,4,2,1,40,0,0
58137,-100,4,2,1,45,0,0
58490,-100,4,2,1,50,0,0
58843,-100,4,2,1,55,0,0
59107,-100,4,2,1,5,0,0
59195,-100,4,2,1,80,0,0
71195,-100,4,2,1,65,0,0
82490,-100,4,2,1,55,0,0
83901,-100,4,2,1,80,0,0
90254,-100,4,2,1,60,0,0
95372,-100,4,2,1,70,0,0
96784,-100,4,2,1,60,0,0
102607,-100,4,2,1,65,0,0
107901,-100,4,2,1,70,0,0
113548,-100,4,2,1,55,0,0
116372,-100,4,2,1,60,0,0
116901,-100,4,2,1,65,0,0
117607,-100,4,2,1,70,0,0
118490,-100,4,2,1,65,0,0
118843,-100,4,2,1,75,0,0
119195,-100,4,2,1,80,0,0
130490,-100,4,2,1,65,0,0
138960,-100,4,2,1,75,0,0
141078,-100,4,2,1,60,0,0
167725,-100,4,2,1,65,0,0
168254,-100,4,2,1,70,0,0
168784,-100,4,2,1,75,0,0
169137,-100,4,2,1,65,0,0
170019,-100,4,2,1,75,0,0
170372,-100,4,2,1,80,0,0
174607,-100,4,2,1,75,0,0
176195,-100,4,2,1,65,0,0
176725,-100,4,2,1,75,0,0
176990,-100,4,2,1,5,0,0
177078,-100,4,2,1,80,0,0
185548,-100,4,2,1,65,0,0
194019,-100,4,2,1,75,0,0
196843,-100,4,2,1,55,0,0
198254,-100,4,2,1,80,0,0
199313,-100,4,2,1,45,0,0
199931,-100,4,2,1,5,0,0
200019,-100,4,2,1,50,0,0
200637,-100,4,2,1,5,0,0
200725,-100,4,2,1,55,0,0
201078,-100,4,2,1,80,0,0

[Colours]
Combo1 : 253,215,198
Combo2 : 233,233,233
Combo3 : 253,159,183
Combo4 : 151,204,199

[HitObjects]
87,275,607,6,0,P|46:223|86:93,1,200,2|2,0:2|0:2,0:0:0:0:
135,37,1843,2,0,L|271:59,1,120,2|2,0:2|0:2,0:0:0:0:
312,121,2725,1,2,0:2:0:0:
460,26,3431,6,0,L|433:232,1,200,2|0,0:2|0:0,0:0:0:0:
421,311,4666,2,0,L|340:334,1,79.9999999999999,2|2,0:2|0:2,0:0:0:0:
219,376,5548,2,0,L|168:366,1,40,8|8,0:2|0:2,0:0:0:0:
69,295,6254,5,6,1:2:0:0:
27,217,6607,1,10,0:2:0:0:
89,155,6960,2,0,L|218:181,1,120,2|2,1:2|1:2,0:0:0:0:
301,86,8019,2,0,L|281:-10,2,79.9999999999999,8|2|8,0:2|0:2|0:2,0:0:0:0:
365,145,9078,5,2,1:2:0:0:
370,232,9431,1,10,0:2:0:0:
304,293,9784,2,0,P|262:261|190:271,1,120,2|4,1:2|1:2,0:0:0:0:
104,360,10843,2,0,L|19:376,2,79.9999999999999,10|0|8,0:2|0:0|0:2,0:0:0:0:
163,295,11901,5,6,1:2:0:0:
105,228,12254,1,10,0:2:0:0:
159,158,12607,2,0,L|283:179,1,120,2|2,1:2|1:2,0:0:0:0:
389,107,13666,2,0,L|471:89,2,79.9999999999999,10|0|8,0:2|0:2|0:2,0:0:0:0:
323,48,14725,6,0,P|293:24|242:25,1,79.9999999999999,2|2,1:2|0:2,0:0:0:0:
186,79,15431,1,10,0:2:0:0:
234,201,15960,2,0,P|294:229|352:207,1,120,6|10,1:2|0:2,0:0:0:0:
412,268,16843,2,0,L|403:307,1,40,10|10,0:2|0:2,0:0:0:0:
278,350,17548,6,0,B|217:358|217:358|188:340|188:340|124:350,2,160,6|2|2,1:2|1:2|1:2,0:0:0:0:
182,201,19666,1,2,1:2:0:0:
313,78,20372,6,0,P|354:117|350:219,1,160,2|2,1:2|1:2,0:0:0:0:
211,312,21784,2,0,L|86:330,1,120,2|8,1:2|0:2,0:0:0:0:
30,266,22666,1,4,1:3:0:0:
82,195,23019,6,0,L|200:177,1,120,6|10,1:2|0:2,0:0:0:0:
249,103,23901,1,10,0:2:0:0:
335,89,24254,1,10,0:2:0:0:
420,111,24607,2,0,P|449:156|427:267,1,160,8|8,0:2|0:2,0:0:0:0:
404,339,25666,1,10,0:2:0:0:
324,300,26019,6,0,L|232:314,1,79.9999999999999,10|10,0:2|0:2,0:0:0:0:
183,374,26725,2,0,L|103:361,1,79.9999999999999,10|10,0:2|0:2,0:0:0:0:
44,296,27431,2,0,P|21:253|44:178,1,120,12|8,0:2|0:2,0:0:0:0:
109,137,28313,1,12,0:2:0:0:
184,28,28843,6,0,P|224:62|260:67,1,79.9999999999999,6|8,1:2|0:2,0:0:0:0:
308,132,29548,2,0,P|360:137|392:121,1,79.9999999999999,2|8,1:2|0:2,0:0:0:0:
463,166,30254,2,0,L|442:297,1,120,2|2,1:2|1:2,0:0:0:0:
435,372,31137,1,2,1:2:0:0:
339,281,31666,6,0,P|306:258|256:261,1,79.9999999999999,2|8,1:2|0:2,0:0:0:0:
196,203,32372,2,0,P|153:209|122:242,1,79.9999999999999,2|10,1:2|0:2,0:0:0:0:
53,184,33078,2,0,L|69:52,1,120,2|10,1:2|0:2,0:0:0:0:
138,12,33960,1,10,0:2:0:0:
198,75,34313,5,6,1:2:0:0:
311,4,34843,1,10,0:2:0:0:
389,42,35195,1,10,0:2:0:0:
404,128,35548,2,0,P|446:152|484:145,2,79.9999999999999,10|8|8,0:2|0:2|0:2,0:0:0:0:
331,177,36607,2,0,L|245:197,1,79.9999999999999,8|8,0:2|1:3,0:0:0:0:
206,269,37313,6,0,L|46:246,1,160,6|8,1:2|0:2,0:0:0:0:
5,168,38372,1,10,0:2:0:0:
38,86,38725,2,0,P|82:49|152:56,1,120,10|10,0:2|0:2,0:0:0:0:
237,142,39784,1,8,0:3:0:0:
366,22,40490,5,14,0:2:0:0:
444,61,40843,2,0,P|466:109|453:149,1,79.9999999999999,0|8,1:2|0:2,0:0:0:0:
396,193,41548,2,0,B|363:242|363:242|387:305,1,120,2|10,1:2|0:2,0:0:0:0:
278,378,42607,1,8,0:3:0:0:
102,366,43313,5,12,0:2:0:0:
38,305,43666,2,0,P|21:264|31:226,1,79.9999999999999,2|10,1:2|0:2,0:0:0:0:
108,193,44372,2,0,B|129:135|129:135|96:86,1,120,2|2,1:2|1:2,0:0:0:0:
205,11,45431,1,8,0:3:0:0:
270,69,45784,6,0,L|361:55,1,79.9999999999999,6|8,1:2|0:2,0:0:0:0:
433,83,46490,1,2,1:2:0:0:
465,164,46843,1,8,0:2:0:0:
426,243,47195,2,0,P|379:286|285:274,1,160,2|0,1:2|1:2,0:0:0:0:
234,206,48254,1,10,0:2:0:0:
169,146,48607,6,0,L|80:161,1,79.9999999999999,2|8,1:2|0:2,0:0:0:0:
34,228,49313,2,0,L|49:323,1,79.9999999999999,2|10,1:2|0:2,0:0:0:0:
110,368,50019,2,0,B|156:358|156:358|177:368|177:368|230:357,1,120,2|10,1:2|0:2,0:0:0:0:
316,262,51078,1,10,1:3:0:0:
254,198,51431,6,0,L|281:30,2,160,6|10|0,1:2|0:2|1:2,0:0:0:0:
316,262,53195,2,0,L|394:247,1,79.9999999999999,2|10,1:2|0:2,0:0:0:0:
458,185,53901,1,2,1:2:0:0:
424,103,54254,6,0,P|383:56|318:46,1,120,10|10,0:2|0:2,0:0:0:0:
154,69,55490,1,6,1:2:0:0:
88,127,55843,2,0,P|63:196|87:244,1,120,8|8,0:2|0:2,0:0:0:0:
138,301,56725,2,0,L|186:290,1,40,8|8,0:2|0:2,0:0:0:0:
354,375,57784,6,0,L|387:202,2,160,2|2|10,0:0|0:0|0:2,0:0:0:0:
195,298,59901,6,0,P|159:278|111:290,1,79.9999999999999,6|8,1:2|0:2,0:0:0:0:
43,242,60607,2,0,L|18:116,1,120,2|0,1:2|1:2,0:0:0:0:
3,37,61490,1,2,1:2:0:0:
86,10,61843,2,0,L|213:38,1,120,2|8,1:2|0:2,0:0:0:0:
287,11,62725,5,2,1:2:0:0:
340,80,63078,1,10,0:2:0:0:
260,117,63431,2,0,P|237:164|248:203,1,79.9999999999999,2|10,1:2|0:2,0:0:0:0:
261,228,63960,1,2,1:2:0:0:
298,354,64490,2,0,P|329:326|370:327,1,79.9999999999999,10|0,0:2|0:0,0:0:0:0:
443,365,65195,1,8,0:2:0:0:
501,299,65548,6,0,L|486:205,1,79.9999999999999,6|8,1:2|0:2,0:0:0:0:
415,169,66254,2,0,L|436:42,1,120,2|2,1:2|1:2,0:0:0:0:
361,1,67137,1,2,1:2:0:0:
278,32,67490,1,2,1:2:0:0:
277,120,67843,1,2,1:2:0:0:
361,221,68372,6,0,P|389:267|366:334,1,120,6|6,1:2|1:2,0:0:0:0:
289,357,69254,1,2,1:2:0:0:
211,315,69607,2,0,L|119:300,1,79.9999999999999,6|0,1:2|1:2,0:0:0:0:
60,250,70313,2,0,P|48:208|77:130,1,120,8|4,0:2|1:3,0:0:0:0:
112,60,71195,6,0,B|179:105|179:105|259:74,1,160,6|10,1:2|1:2,0:0:0:0:
371,16,72431,2,0,P|400:59|385:132,1,120,0|2,1:2|1:2,0:0:0:0:
321,178,73313,1,8,0:2:0:0:
352,260,73666,1,0,1:2:0:0:
284,316,74019,6,0,B|226:324|226:324|196:348|196:348|123:360,1,160,4|8,1:2|0:2,0:0:0:0:
26,281,75254,2,0,L|46:118,1,160,4|2,1:2|1:2,0:0:0:0:
54,34,76313,1,6,1:2:0:0:
155,118,76843,6,0,P|212:159|303:129,1,160,6|8,1:2|0:2,0:0:0:0:
360,23,78078,2,0,L|481:40,1,120,2|2,1:2|1:2,0:0:0:0:
503,124,78960,1,8,0:2:0:0:
475,207,79313,1,4,1:3:0:0:
383,214,79666,6,0,P|352:243|346:322,1,120,10|10,0:2|0:2,0:0:0:0:
223,370,80725,1,6,1:2:0:0:
22,209,82490,6,0,P|73:162|166:195,1,160,2|2,0:2|0:2,0:0:0:0:
266,332,83901,2,0,L|316:339,1,40,10|8,0:2|0:2,0:0:0:0:
460,71,85313,5,6,1:2:0:0:
384,25,85666,1,10,0:2:0:0:
326,91,86019,2,0,L|199:114,1,120,2|2,1:2|1:2,0:0:0:0:
104,30,87078,2,0,P|67:6|16:14,2,79.9999999999999,10|0|8,0:2|1:2|0:2,0:0:0:0:
124,115,88137,5,10,0:2:0:0:
45,221,88666,1,10,0:2:0:0:
100,340,89195,1,10,0:2:0:0:
231,357,89725,1,10,0:2:0:0:
323,262,90254,6,0,L|307:173,1,79.9999999999999,0|2,0:0|0:1,0:0:0:0:
277,100,90960,1,2,1:2:0:0:
465,68,95195,6,0,P|427:57|354:105,1,120,0|10,1:2|0:2,0:0:0:0:
327,175,96078,1,10,0:2:0:0:
247,139,96431,2,0,L|125:124,1,120,6|0,1:2|1:2,0:0:0:0:
57,175,97313,2,0,P|35:218|41:254,1,79.9999999999999,8|0,0:2|1:2,0:0:0:0:
96,315,98019,6,0,P|156:306|203:344,2,120,0|0|8,0:2|1:2|0:2,0:0:0:0:
38,248,99431,2,0,P|32:204|92:110,1,160,4|8,1:2|0:2,0:0:0:0:
162,59,100490,1,8,0:2:0:0:
219,125,100843,6,0,B|263:112|263:112|287:123|287:123|344:106,2,120,8|8|8,0:2|0:2|0:2,0:0:0:0:
148,286,102607,1,12,0:2:0:0:
202,355,102960,2,0,P|252:373|291:358,1,79.9999999999999,0|10,1:2|0:2,0:0:0:0:
351,320,103666,6,0,L|332:198,1,120,2|2,1:2|1:2,0:0:0:0:
272,136,104548,2,0,L|286:50,1,79.9999999999999,2|8,1:2|0:2,0:0:0:0:
161,7,105431,1,12,0:2:0:0:
82,46,105784,2,0,P|59:89|64:121,1,79.9999999999999,0|8,1:2|0:2,0:0:0:0:
119,186,106490,2,0,L|253:167,1,120,2|2,1:2|1:2,0:0:0:0:
335,80,107548,1,8,0:3:0:0:
385,151,107901,6,0,P|436:171|473:158,1,79.9999999999999,4|8,1:2|0:2,0:0:0:0:
495,246,108607,1,2,1:2:0:0:
471,330,108960,1,8,0:2:0:0:
391,366,109313,2,0,P|346:331|278:339,2,120,2|2|8,1:2|0:2|0:2,0:0:0:0:
471,330,110725,6,0,L|491:252,1,79.9999999999999,2|8,1:2|0:2,0:0:0:0:
462,168,111431,1,0,1:2:0:0:
377,142,111784,1,8,0:2:0:0:
315,206,112137,2,0,L|198:230,1,120,2|10,1:2|0:2,0:0:0:0:
119,123,113195,1,8,0:3:0:0:
170,51,113548,6,0,P|221:29|311:86,1,160,2|10,1:2|0:2,0:0:0:0:
354,150,114607,2,0,L|438:134,1,79.9999999999999,0|0,1:2|1:2,0:0:0:0:
484,206,115313,2,0,L|469:299,1,79.9999999999999,2|10,1:2|0:2,0:0:0:0:
413,361,116019,1,2,1:2:0:0:
335,319,116372,6,0,L|207:341,1,120,4|6,1:2|1:2,0:0:0:0:
129,326,117254,2,0,P|110:282|126:240,1,79.9999999999999,10|12,0:2|0:2,0:0:0:0:
235,193,118137,2,0,B|268:129|268:129|236:36,1,160,8|8,0:2|0:2,0:0:0:0:
318,8,119195,6,0,L|415:22,1,79.9999999999999,6|10,1:2|0:2,0:0:0:0:
471,66,119901,2,0,P|482:125|451:195,1,120,0|2,1:2|1:2,0:0:0:0:
398,241,120784,2,0,L|317:226,1,79.9999999999999,2|0,1:2|1:2,0:0:0:0:
255,287,121490,1,0,1:2:0:0:
143,361,122019,6,0,L|61:350,1,79.9999999999999,2|10,1:2|0:2,0:0:0:0:
11,278,122725,2,0,L|29:188,1,79.9999999999999,2|10,1:2|0:2,0:0:0:0:
38,157,123254,1,6,1:2:0:0:
73,29,123784,2,0,P|116:54|156:47,1,79.9999999999999,10|0,0:2|0:0,0:0:0:0:
223,11,124490,1,8,0:2:0:0:
282,75,124843,6,0,L|266:161,1,79.9999999999999,6|8,1:2|0:2,0:0:0:0:
209,220,125548,2,0,L|231:345,1,120,2|6,1:2|1:2,0:0:0:0:
306,382,126431,1,2,1:2:0:0:
371,323,126784,1,2,1:2:0:0:
452,356,127137,1,2,1:2:0:0:
490,229,127666,6,0,L|475:104,1,120,4|2,1:2|0:2,0:0:0:0:
425,37,128548,1,10,0:2:0:0:
357,93,128901,2,0,P|325:113|270:106,1,79.9999999999999,2|8,1:2|1:3,0:0:0:0:
213,165,129607,2,0,L|234:295,1,120,8|8,0:2|0:2,0:0:0:0:
169,348,130490,6,0,P|119:371|26:324,1,160,6|10,1:2|0:2,0:0:0:0:
34,197,131725,2,0,L|48:64,1,120,2|2,1:2|1:2,0:0:0:0:
111,18,132607,1,10,0:2:0:0:
198,31,132960,1,0,1:2:0:0:
253,99,133313,6,0,B|284:165|284:165|246:255,1,160,6|10,1:2|0:2,0:0:0:0:
304,365,134548,2,0,L|475:336,1,160,6|10,1:2|0:2,0:0:0:0:
503,259,135607,1,6,1:2:0:0:
382,204,136137,6,0,B|359:142|359:142|396:56,1,160,6|10,1:2|0:2,0:0:0:0:
272,11,137372,2,0,L|182:25,1,79.9999999999999,2|2,1:2|1:2,0:0:0:0:
129,84,138078,1,2,1:2:0:0:
160,166,138431,1,10,1:3:0:0:
287,131,138960,6,0,P|323:119|404:164,1,120,10|10,0:2|0:2,0:0:0:0:
448,271,140019,1,6,1:2:0:0:
198,357,141078,2,0,L|113:343,1,79.9999999999999,2|8,1:2|1:3,0:0:0:0:
50,288,141784,1,6,0:2:0:0:
344,342,158725,6,0,L|178:314,1,160,0|2,1:2|1:2,0:0:0:0:
114,367,159784,1,2,1:2:0:0:
41,316,160137,2,0,P|10:243|45:165,1,160,0|2,1:2|1:2,0:0:0:0:
99,108,161195,1,2,1:2:0:0:
172,155,161548,6,0,B|247:184|247:184|322:125,1,160,8|2,0:2|1:2,0:0:0:0:
362,60,162607,1,2,1:2:0:0:
442,95,162960,2,0,P|476:138|466:253,1,160,8|2,0:2|1:2,0:0:0:0:
433,317,164019,1,10,0:2:0:0:
353,278,164372,6,0,L|187:304,1,160,6|0,1:2|1:0,0:0:0:0:
129,243,165431,1,10,0:2:0:0:
181,172,165784,2,0,P|219:151|262:161,1,79.9999999999999,10|2,0:2|1:2,0:0:0:0:
332,116,166490,1,0,1:2:0:0:
313,29,166843,1,6,1:3:0:0:
224,11,167195,6,0,L|93:34,1,120,14|14,0:2|0:2,0:0:0:0:
46,150,168254,2,0,L|62:275,1,120,14|14,0:2|0:2,0:0:0:0:
147,369,169313,1,2,1:2:0:0:
228,335,169666,1,4,1:3:0:0:
311,306,170019,6,0,P|333:266|199:113,1,280,14|8,0:2|0:2,0:0:0:0:
372,44,173548,2,0,L|417:49,1,40,10|8,0:2|0:2,0:0:0:0:
490,154,174254,6,0,L|481:251,1,79.9999999999999,2|14,0:0|0:2,0:0:0:0:
471,321,174960,1,10,0:2:0:0:
345,360,175490,2,0,P|309:335|267:339,2,79.9999999999999,6|2|10,1:2|1:2|1:3,0:0:0:0:
471,324,176725,1,8,0:2:0:0:
502,241,177078,5,6,1:2:0:0:
447,171,177431,1,10,0:2:0:0:
379,228,177784,2,0,L|287:215,1,79.9999999999999,2|10,1:2|0:2,0:0:0:0:
256,210,178313,1,2,1:2:0:0:
166,307,178843,2,0,L|77:324,1,79.9999999999999,10|0,0:2|1:0,0:0:0:0:
20,265,179548,1,8,0:2:0:0:
81,202,179901,6,0,P|98:153|83:116,1,79.9999999999999,6|8,1:2|0:2,0:0:0:0:
140,54,180607,2,0,L|266:77,1,120,2|4,1:2|1:2,0:0:0:0:
329,23,181490,1,0,1:2:0:0:
387,96,181843,2,0,L|371:184,1,79.9999999999999,6|2,1:2|1:2,0:0:0:0:
287,275,182725,6,0,P|245:244|169:251,1,120,6|0,1:2|1:2,0:0:0:0:
108,297,183607,1,0,1:2:0:0:
36,246,183960,2,0,P|22:201|36:164,1,79.9999999999999,6|8,1:2|0:2,0:0:0:0:
83,99,184666,2,0,L|204:83,1,120,8|8,0:2|0:2,0:0:0:0:
275,34,185548,6,0,P|324:77|420:70,1,160,6|10,1:2|0:2,0:0:0:0:
489,182,186784,2,0,L|474:308,1,120,2|2,1:2|1:2,0:0:0:0:
415,366,187666,1,10,0:2:0:0:
327,353,188019,1,2,1:2:0:0:
262,292,188372,6,0,P|246:245|284:143,1,160,6|10,1:2|0:2,0:0:0:0:
223,26,189607,2,0,L|59:53,1,160,6|10,1:2|0:2,0:0:0:0:
16,125,190666,1,6,1:2:0:0:
81,239,191195,6,0,B|158:271|158:271|225:223,1,160,6|10,1:2|0:2,0:0:0:0:
325,145,192431,2,0,L|455:165,1,120,0|2,1:2|1:2,0:0:0:0:
502,228,193313,1,10,0:2:0:0:
493,315,193666,1,4,1:3:0:0:
416,358,194019,6,0,P|365:320|298:326,1,120,10|10,0:2|0:2,0:0:0:0:
193,381,195078,1,6,1:2:0:0:
21,182,196843,6,0,P|69:141|171:158,1,160,2|2,0:2|0:2,0:0:0:0:
297,260,198254,2,0,L|351:249,1,40,10|8,0:2|0:2,0:0:0:0:
460,77,201078,5,4,1:2:0:0:
384,31,201431,1,10,0:2:0:0:
327,98,201784,2,0,L|203:80,1,120,2|2,1:2|1:2,0:0:0:0:
105,167,202843,2,0,L|25:181,2,79.9999999999999,10|0|8,0:2|0:2|0:2,0:0:0:0:
170,225,203901,5,2,1:2:0:0:
129,303,204254,1,8,0:2:0:0:
196,359,204607,2,0,P|244:326|315:339,1,120,2|6,1:2|1:2,0:0:0:0:
419,269,205666,2,0,L|500:280,2,79.9999999999999,10|0|8,0:2|0:0|0:2,0:0:0:0:
343,223,206725,5,6,1:2:0:0:
385,146,207078,1,10,0:2:0:0:
315,91,207431,2,0,L|185:111,1,120,2|2,1:2|1:2,0:0:0:0:
69,71,208490,2,0,P|69:26|94:-5,2,79.9999999999999,10|0|8,0:2|0:0|1:3,0:0:0:0:
124,139,209548,5,10,0:2:0:0:
88,266,210078,1,10,0:2:0:0:
174,365,210607,1,10,0:2:0:0:
305,350,211137,1,10,0:2:0:0:
