osu file format v14

[General]
AudioFilename: audio.mp3
AudioLeadIn: 0
PreviewTime: 59756
Countdown: 0
SampleSet: Soft
StackLeniency: 0.7
Mode: 3
LetterboxInBreaks: 0
SpecialStyle: 0
WidescreenStoryboard: 0

[Editor]
Bookmarks: 639,6286,17580,28874,40168,59933,71227,82521,85344,90991,102286,113580,119227,141815,147462,158756,174286,185580,201109
DistanceSpacing: 1.4
BeatDivisor: 4
GridSize: 16
TimelineZoom: 2.000005

[Metadata]
Title:Suki yo ~Two Hearts~
TitleUnicode:好きよ 〜Two Hearts〜
Artist:Nakano Nino (CV: Taketatsu Ayana)
ArtistUnicode:中野二乃 (CV: 竹達彩奈)
Creator:Drum-Hitnormal
Version:Insane
Source:五等分の花嫁∬
Tags:gotoubun no hanayome 2nd season the quintessential quintuplets anime japanese pop jpop j-pop j full ver version キャラクターソング・ミニアルバム character song mini album pccg-1965 リンク・プラン LINK・PLAN dudehacker ML-ysg keksikosu 廣澤優也 Hirosawa Yuya HANO 結城アイラ Yuuki Aira sukiyo
BeatmapID:2934371
BeatmapSetID:1424956

[Difficulty]
HPDrainRate:8
CircleSize:4
OverallDifficulty:8
ApproachRate:5
SliderMultiplier:1.4
SliderTickRate:1

[Events]
//Background and Video events
0,0,"73726785_p0.jpg",0,0
//Break Periods
//Storyboard Layer 0 (Background)
//Storyboard Layer 1 (Fail)
//Storyboard Layer 2 (Pass)
//Storyboard Layer 3 (Foreground)
//Storyboard Layer 4 (Overlay)
//Storyboard Sound Samples
Sample,112344,0,"Hat Open.wav",35
Sample,158227,0,"Hat Close.wav",40
Sample,201991,0,"Hat Open.wav",35

[TimingPoints]
639,352.941176470588,4,2,1,60,1,0
5580,-142.857142857143,4,2,1,60,0,0
5668,-76.9230769230769,4,2,1,60,0,0
5756,-142.857142857143,4,2,1,60,0,0
5844,-76.9230769230769,4,2,1,60,0,0
5933,-100,4,2,1,60,0,0
16874,-142.857142857143,4,2,1,60,0,0
16962,-76.9230769230769,4,2,1,60,0,0
17050,-142.857142857143,4,2,1,60,0,0
17138,-76.9230769230769,4,2,1,60,0,0
17227,-100,4,2,1,60,0,0
42638,-142.857142857143,4,2,1,60,0,0
42727,-76.9230769230769,4,2,1,60,0,0
42815,-142.857142857143,4,2,1,60,0,0
42903,-76.9230769230769,4,2,1,60,0,0
42991,-100,4,2,1,60,0,0
59227,-142.857142857143,4,2,1,60,0,0
59315,-76.9230769230769,4,2,1,60,0,0
59403,-142.857142857143,4,2,1,60,0,0
59491,-76.9230769230769,4,2,1,60,0,0
59580,-100,4,2,1,60,0,0
59933,-100,4,2,1,60,0,1
82521,-100,4,2,1,60,0,0
83933,-142.857142857143,4,2,1,60,0,0
84021,-76.9230769230769,4,2,1,60,0,0
84109,-142.857142857143,4,2,1,60,0,0
84197,-76.9230769230769,4,2,1,60,0,0
84286,-100,4,2,1,60,0,0
88168,-142.857142857143,4,2,1,60,0,0
88256,-76.9230769230769,4,2,1,60,0,0
88344,-142.857142857143,4,2,1,60,0,0
88433,-76.9230769230769,4,2,1,60,0,0
88521,-100,4,2,1,60,0,0
88697,-142.857142857143,4,2,1,60,0,0
88786,-76.9230769230769,4,2,1,60,0,0
88874,-142.857142857143,4,2,1,60,0,0
88962,-76.9230769230769,4,2,1,60,0,0
89050,-100,4,2,1,60,0,0
89227,-142.857142857143,4,2,1,60,0,0
89315,-76.923076923077,4,2,1,60,0,0
89403,-142.857142857143,4,2,1,60,0,0
89491,-76.923076923077,4,2,1,60,0,0
89580,-100,4,2,1,60,0,0
89756,-142.857142857143,4,2,1,60,0,0
89844,-76.923076923077,4,2,1,60,0,0
89933,-142.857142857143,4,2,1,60,0,0
90021,-76.923076923077,4,2,1,60,0,0
90109,-100,4,2,1,60,0,0
119227,-100,4,2,1,60,0,1
140050,-100,4,2,1,60,0,0
173580,-142.857142857143,4,2,1,60,0,0
173668,-76.9230769230769,4,2,1,60,0,0
173756,-142.857142857143,4,2,1,60,0,0
173844,-76.9230769230769,4,2,1,60,0,0
173933,-100,4,2,1,60,0,0
174638,-100,4,2,1,60,0,1
176756,-100,4,2,1,60,0,0
177109,-100,4,2,1,60,0,1
196874,-100,4,2,1,60,0,0
198286,-142.857142857143,4,2,1,60,0,0
198374,-76.9230769230769,4,2,1,60,0,0
198462,-142.857142857143,4,2,1,60,0,0
198550,-76.9230769230769,4,2,1,60,0,0
198638,-100,4,2,1,60,0,0
209580,-142.857142857143,4,2,1,60,0,0
209668,-76.9230769230769,4,2,1,60,0,0
209756,-142.857142857143,4,2,1,60,0,0
209844,-76.9230769230769,4,2,1,60,0,0
209933,-100,4,2,1,60,0,0
210109,-142.857142857143,4,2,1,60,0,0
210197,-76.9230769230769,4,2,1,60,0,0
210286,-142.857142857143,4,2,1,60,0,0
210374,-76.9230769230769,4,2,1,60,0,0
210462,-100,4,2,1,60,0,0
210638,-142.857142857143,4,2,1,60,0,0
210727,-76.9230769230769,4,2,1,60,0,0
210815,-142.857142857143,4,2,1,60,0,0
210903,-76.9230769230769,4,2,1,60,0,0
210991,-100,4,2,1,60,0,0
211168,-142.857142857143,4,2,1,60,0,0
211256,-76.9230769230769,4,2,1,60,0,0
211344,-142.857142857143,4,2,1,60,0,0
211433,-76.9230769230769,4,2,1,60,0,0
211521,-100,4,2,1,60,0,0

[HitObjects]
64,192,639,5,0,0:0:0:0:
448,192,639,1,0,0:0:0:0:
320,192,815,1,0,0:0:0:0:
64,192,991,1,0,0:0:0:0:
192,192,991,1,0,0:0:0:0:
320,192,1168,1,0,0:0:0:0:
448,192,1168,128,0,1521:0:0:0:0:
192,192,1344,1,0,0:0:0:0:
320,192,1521,128,0,1874:0:0:0:0:
64,192,1521,1,0,0:0:0:0:
448,192,1697,1,0,0:0:0:0:
64,192,1874,1,0,0:0:0:0:
192,192,1874,128,0,2403:0:0:0:0:
320,192,2050,1,0,0:0:0:0:
320,192,2403,1,0,0:0:0:0:
448,192,2403,128,0,2756:0:0:0:0:
320,192,2756,1,0,0:0:0:0:
64,192,2756,1,0,0:0:0:0:
192,192,2933,1,0,0:0:0:0:
320,192,2933,1,0,0:0:0:0:
64,192,3109,128,0,3462:0:0:0:0:
448,192,3109,1,0,0:0:0:0:
192,192,3462,1,0,0:0:0:0:
448,192,3462,1,0,0:0:0:0:
320,192,3638,1,0,0:0:0:0:
64,192,3815,1,0,0:0:0:0:
192,192,3815,1,0,0:0:0:0:
320,192,3991,1,0,0:0:0:0:
448,192,3991,128,0,4344:0:0:0:0:
192,192,4168,1,0,0:0:0:0:
64,192,4344,1,0,0:0:0:0:
320,192,4344,128,0,4697:0:0:0:0:
448,192,4521,1,0,0:0:0:0:
192,192,4697,128,0,4874:0:0:0:0:
64,192,4697,1,0,0:0:0:0:
448,192,4874,128,0,5227:0:0:0:0:
64,192,5050,128,0,5491:0:0:0:0:
320,192,5050,1,0,0:0:0:0:
192,192,5227,128,0,5491:0:0:0:0:
64,192,5580,1,8,0:0:0:0:
320,192,5580,1,0,0:0:0:50:Tom3.wav
448,192,5580,1,0,0:0:0:0:
64,192,5756,1,8,0:0:0:0:
320,192,5756,1,0,0:0:0:50:Tom3.wav
448,192,5756,1,0,0:0:0:0:
64,192,6286,1,4,0:0:0:0:
320,192,6286,1,2,0:0:0:0:
448,192,6286,1,0,0:0:0:0:
320,192,6462,1,0,0:0:0:0:
448,192,6638,1,0,0:0:0:0:
64,192,6638,1,8,0:0:0:0:
192,192,6638,1,2,0:0:0:0:
320,192,6815,1,0,0:0:0:35:Hat Open.wav
192,192,6903,1,8,0:0:0:0:
64,192,6991,1,2,0:0:0:0:
320,192,6991,1,0,0:0:0:0:
448,192,6991,1,0,0:0:0:0:
448,192,7168,1,0,0:0:0:35:Hat Open.wav
64,192,7344,1,8,0:0:0:0:
192,192,7344,1,0,0:0:0:0:
320,192,7344,1,0,0:0:0:0:
64,192,7521,128,2,7874:0:0:0:0:
320,192,7521,1,0,0:0:0:35:Hat Open.wav
448,192,7521,1,0,0:0:0:0:
320,192,7874,1,2,0:0:0:0:
448,192,7874,1,0,0:0:0:35:Hat Open.wav
192,192,8050,1,0,0:0:0:0:
64,192,8050,1,8,0:0:0:0:
448,192,8050,1,0,0:0:0:0:
192,192,8227,1,0,0:0:0:35:Hat Open.wav
64,192,8227,1,2,0:0:0:0:
320,192,8315,1,8,0:0:0:0:
448,192,8315,1,0,0:0:0:0:
64,192,8580,1,2,0:0:0:0:
320,192,8580,1,0,0:0:0:35:Hat Open.wav
448,192,8580,1,0,0:0:0:0:
192,192,8756,1,0,0:0:0:0:
320,192,8756,1,0,0:0:0:0:
64,192,8756,1,8,0:0:0:0:
320,192,8933,1,8,0:0:0:0:
448,192,8933,1,0,0:0:0:0:
64,192,9021,1,8,0:0:0:0:
192,192,9021,1,0,0:0:0:0:
320,192,9109,1,4,0:0:0:0:
448,192,9109,1,2,0:0:0:0:
192,192,9286,1,0,0:0:0:35:Hat Open.wav
448,192,9462,1,0,0:0:0:0:
320,192,9462,1,8,0:0:0:0:
64,192,9462,1,2,0:0:0:0:
192,192,9638,1,0,0:0:0:35:Hat Open.wav
320,192,9727,1,8,0:0:0:0:
64,192,9815,1,2,0:0:0:0:
192,192,9815,1,0,0:0:0:0:
448,192,9815,1,0,0:0:0:0:
320,192,9991,1,2,0:0:0:0:
448,192,9991,1,0,0:0:0:35:Hat Open.wav
448,192,10168,1,0,0:0:0:0:
64,192,10168,1,8,0:0:0:0:
192,192,10168,1,0,0:0:0:0:
64,192,10344,1,2,0:0:0:0:
192,192,10344,1,4,0:0:0:0:
320,192,10344,128,0,10697:0:0:0:0:
192,192,10697,1,2,0:0:0:0:
448,192,10697,1,0,0:0:0:35:Hat Open.wav
448,192,10874,1,0,0:0:0:0:
320,192,10874,1,0,0:0:0:0:
192,192,10874,1,8,0:0:0:0:
64,192,11050,1,2,0:0:0:0:
192,192,11050,1,0,0:0:0:35:Hat Open.wav
320,192,11138,1,8,0:0:0:0:
448,192,11138,1,0,0:0:0:0:
64,192,11403,1,2,0:0:0:0:
192,192,11403,1,0,0:0:0:0:
448,192,11403,1,0,0:0:0:0:
192,192,11580,1,8,0:0:0:0:
320,192,11580,1,0,0:0:0:0:
448,192,11580,1,0,0:0:0:0:
64,192,11756,1,8,0:0:0:0:
192,192,11756,1,0,0:0:0:0:
320,192,11844,1,8,0:0:0:0:
448,192,11844,1,0,0:0:0:0:
192,192,11933,1,4,0:0:0:0:
64,192,11933,1,2,0:0:0:0:
320,192,12109,1,0,0:0:0:0:
64,192,12286,1,8,0:0:0:0:
192,192,12286,1,2,0:0:0:0:
448,192,12286,1,0,0:0:0:0:
320,192,12462,1,0,0:0:0:0:
192,192,12550,1,8,0:0:0:0:
320,192,12638,1,0,0:0:0:0:
64,192,12638,1,2,0:0:0:0:
448,192,12638,1,0,0:0:0:0:
192,192,12815,1,0,0:0:0:35:Hat Open.wav
64,192,12991,1,8,0:0:0:0:
192,192,12991,1,0,0:0:0:0:
448,192,12991,1,0,0:0:0:0:
320,192,13168,1,4,0:0:0:0:
64,192,13168,128,2,13521:0:0:0:0:
448,192,13168,1,0,0:0:0:0:
448,192,13521,1,0,0:0:0:35:Hat Open.wav
320,192,13521,1,2,0:0:0:0:
448,192,13697,1,0,0:0:0:0:
192,192,13697,1,0,0:0:0:0:
64,192,13697,1,8,0:0:0:0:
64,192,13874,1,2,0:0:0:0:
192,192,13874,1,4,0:0:0:0:
320,192,13874,1,0,0:0:0:0:
320,192,14050,1,0,0:0:0:0:
64,192,14227,1,2,0:0:0:0:
192,192,14227,1,0,0:0:0:0:
448,192,14227,1,0,0:0:0:0:
320,192,14315,1,8,0:0:0:0:
64,192,14403,1,8,0:0:0:0:
192,192,14403,1,0,0:0:0:0:
320,192,14580,1,8,0:0:0:0:
448,192,14580,1,0,0:0:0:0:
64,192,14668,1,8,0:0:0:0:
192,192,14668,1,0,0:0:0:0:
448,192,14756,1,4,0:0:0:0:
320,192,14756,128,2,14933:0:0:0:0:
192,192,14933,128,0,15109:0:0:0:0:
64,192,15109,128,0,15286:0:0:0:40:Ride.wav
320,192,15286,1,2,0:0:0:0:
448,192,15286,128,0,15462:0:0:0:0:
64,192,15462,1,8,0:0:0:0:
192,192,15462,1,0,0:0:0:40:Ride.wav
320,192,15462,128,0,15638:0:0:0:0:
192,192,15638,128,0,15815:0:0:0:0:
320,192,15815,1,8,0:0:0:0:
448,192,15815,1,0,0:0:0:0:
64,192,15991,1,2,0:0:0:0:
192,192,15991,1,0,0:0:0:40:Ride.wav
448,192,15991,128,0,16344:0:0:0:0:
64,192,16344,1,2,0:0:0:0:
192,192,16344,1,0,0:0:0:0:
320,192,16433,1,0,0:0:0:50:Tom2.wav
192,192,16521,1,0,0:0:0:0:
448,192,16521,1,0,0:0:0:0:
64,192,16521,1,8,0:0:0:0:
64,192,16697,1,0,0:0:0:50:Tom2.wav
448,192,16697,1,0,0:0:0:0:
320,192,16756,1,0,0:0:0:0:
192,192,16815,1,0,0:0:0:0:
64,192,16874,1,8,0:0:0:0:
320,192,16874,1,2,0:0:0:0:
448,192,16874,1,0,0:0:0:50:Tom3.wav
448,192,17050,1,0,0:0:0:50:Tom3.wav
64,192,17050,1,8,0:0:0:0:
320,192,17050,1,0,0:0:0:35:Hat Open.wav
192,192,17403,1,0,0:0:0:0:
64,192,17580,1,4,0:0:0:0:
192,192,17580,128,2,17933:0:0:0:0:
448,192,17580,1,0,0:0:0:0:
64,192,17933,1,2,0:0:0:0:
448,192,17933,1,0,0:0:0:50:Hat Close.wav
320,192,18109,1,0,0:0:0:35:Hat Close.wav
320,192,18286,128,2,18638:0:0:0:0:
448,192,18286,1,0,0:0:0:50:Hat Close.wav
64,192,18462,1,0,0:0:0:35:Hat Close.wav
192,192,18638,1,2,0:0:0:0:
448,192,18638,1,0,0:0:0:50:Hat Close.wav
64,192,18815,1,0,0:0:0:35:Hat Close.wav
64,192,18991,128,2,19344:0:0:0:0:
320,192,18991,1,0,0:0:0:50:Hat Close.wav
448,192,19168,1,0,0:0:0:35:Hat Close.wav
192,192,19344,1,2,0:0:0:0:
320,192,19344,1,0,0:0:0:50:Hat Close.wav
448,192,19521,1,0,0:0:0:35:Hat Close.wav
64,192,19697,1,2,0:0:0:0:
448,192,19697,128,0,20050:0:0:0:50:Hat Close.wav
192,192,19874,1,0,0:0:0:35:Hat Close.wav
320,192,20050,1,0,0:0:0:50:Hat Close.wav
64,192,20050,1,2,0:0:0:0:
320,192,20227,1,0,0:0:0:35:Hat Close.wav
192,192,20315,1,0,0:0:0:35:Hat Close.wav
64,192,20403,128,2,20756:0:0:0:0:
448,192,20403,1,0,0:0:0:50:Hat Close.wav
320,192,20580,1,0,0:0:0:35:Hat Close.wav
192,192,20756,1,2,0:0:0:0:
448,192,20756,1,0,0:0:0:50:Hat Close.wav
320,192,20933,1,0,0:0:0:35:Hat Close.wav
64,192,21109,1,2,0:0:0:0:
320,192,21109,128,0,21462:0:0:0:50:Hat Close.wav
192,192,21286,1,0,0:0:0:35:Hat Close.wav
64,192,21462,1,2,0:0:0:0:
448,192,21462,1,0,0:0:0:50:Hat Close.wav
192,192,21638,1,0,0:0:0:35:Hat Close.wav
192,192,21815,128,2,22168:0:0:0:0:
448,192,21815,1,0,0:0:0:50:Hat Close.wav
320,192,21991,1,0,0:0:0:35:Hat Close.wav
448,192,22168,1,0,0:0:0:50:Hat Close.wav
64,192,22168,1,2,0:0:0:0:
320,192,22344,1,8,0:0:0:0:
448,192,22344,1,0,0:0:0:0:
64,192,22433,1,8,0:0:0:0:
192,192,22433,1,0,0:0:0:0:
320,192,22521,1,0,0:0:0:50:Tom1.wav
448,192,22521,1,0,0:0:0:0:
320,192,22697,1,0,0:0:0:0:
192,192,22697,1,0,0:0:0:50:Tom2.wav
64,192,22874,1,0,0:0:0:50:Tom2.wav
192,192,22874,1,0,0:0:0:0:
64,192,23050,128,2,23403:0:0:0:0:
320,192,23050,1,4,0:0:0:0:
448,192,23050,1,0,0:0:0:0:
192,192,23227,1,0,0:0:0:0:
448,192,23403,1,0,0:0:0:0:
320,192,23403,1,2,0:0:0:0:
192,192,23580,1,0,0:0:0:35:Hat Open.wav
448,192,23580,1,0,0:0:0:0:
64,192,23580,1,8,0:0:0:0:
320,192,23756,1,0,0:0:0:0:
64,192,23933,1,8,0:0:0:0:
320,192,23933,1,0,0:0:0:35:Hat Open.wav
448,192,23933,1,0,0:0:0:0:
192,192,24109,1,2,0:0:0:0:
448,192,24109,1,0,0:0:0:0:
64,192,24286,1,8,0:0:0:0:
192,192,24286,1,0,0:0:0:35:Hat Open.wav
320,192,24286,1,0,0:0:0:0:
320,192,24462,1,2,0:0:0:0:
448,192,24462,1,0,0:0:0:0:
64,192,24638,1,8,0:0:0:0:
192,192,24638,1,0,0:0:0:35:Hat Open.wav
448,192,24638,1,0,0:0:0:0:
320,192,24991,1,0,0:0:0:0:
192,192,24991,1,0,0:0:0:35:Hat Open.wav
64,192,24991,1,8,0:0:0:0:
192,192,25168,1,0,0:0:0:0:
448,192,25168,1,0,0:0:0:0:
64,192,25344,1,8,0:0:0:0:
320,192,25344,1,0,0:0:0:35:Hat Open.wav
448,192,25344,1,0,0:0:0:0:
192,192,25521,1,2,0:0:0:0:
320,192,25521,1,0,0:0:0:0:
64,192,25697,1,8,0:0:0:0:
192,192,25697,1,0,0:0:0:35:Hat Open.wav
448,192,25697,1,0,0:0:0:0:
320,192,25874,1,2,0:0:0:0:
448,192,25874,1,0,0:0:0:0:
64,192,26050,1,8,0:0:0:0:
192,192,26050,128,4,26403:0:0:0:0:
320,192,26050,1,2,0:0:0:0:
320,192,26403,1,0,0:0:0:35:Hat Open.wav
64,192,26403,1,8,0:0:0:0:
448,192,26403,1,0,0:0:0:0:
64,192,26580,1,0,0:0:0:50:Hat Close.wav
192,192,26756,1,8,0:0:0:0:
320,192,26756,1,0,0:0:0:35:Hat Open.wav
448,192,26756,1,0,0:0:0:0:
64,192,26933,1,2,0:0:0:0:
320,192,26933,1,0,0:0:0:0:
64,192,27109,1,8,0:0:0:0:
192,192,27109,1,0,0:0:0:35:Hat Open.wav
448,192,27109,1,0,0:0:0:0:
320,192,27286,1,0,0:0:0:0:
192,192,27286,1,2,0:0:0:0:
64,192,27462,128,8,27815:0:0:0:0:
320,192,27462,1,0,0:0:0:35:Hat Open.wav
448,192,27462,1,0,0:0:0:0:
192,192,27815,1,8,0:0:0:0:
320,192,27815,1,0,0:0:0:0:
448,192,27815,1,0,0:0:0:0:
320,192,27991,128,0,28168:0:0:0:0:
192,192,27991,1,0,0:0:0:35:Hat Open.wav
64,192,27991,1,2,0:0:0:0:
64,192,28344,1,2,0:0:0:0:
320,192,28344,1,4,0:0:0:0:
448,192,28344,128,0,28697:0:0:0:0:
64,192,28697,1,8,0:0:0:0:
192,192,28697,1,0,0:0:0:0:
320,192,28786,1,8,0:0:0:0:
448,192,28786,1,0,0:0:0:0:
192,192,28874,128,4,29227:0:0:0:0:
64,192,28874,1,2,0:0:0:0:
64,192,29227,1,8,0:0:0:0:
320,192,29227,1,2,0:0:0:0:
448,192,29227,1,0,0:0:0:0:
192,192,29403,1,0,0:0:0:35:Hat Open.wav
64,192,29580,1,2,0:0:0:0:
448,192,29580,128,0,29933:0:0:0:0:
320,192,29756,1,0,0:0:0:35:Hat Open.wav
320,192,29933,1,0,0:0:0:0:
64,192,29933,1,8,0:0:0:0:
192,192,29933,1,2,0:0:0:0:
192,192,30109,1,0,0:0:0:35:Hat Open.wav
64,192,30286,128,2,30638:0:0:0:0:
448,192,30286,1,0,0:0:0:0:
192,192,30462,1,0,0:0:0:35:Hat Open.wav
192,192,30638,1,8,0:0:0:0:
320,192,30638,1,2,0:0:0:0:
448,192,30638,1,0,0:0:0:0:
64,192,30815,1,0,0:0:0:35:Hat Open.wav
320,192,30859,1,0,0:0:0:0:
64,192,30991,1,2,0:0:0:0:
192,192,30991,1,0,0:0:0:0:
448,192,31168,1,0,0:0:0:35:Hat Open.wav
448,192,31344,1,0,0:0:0:0:
192,192,31344,1,8,0:0:0:0:
320,192,31344,1,2,0:0:0:0:
64,192,31521,1,0,0:0:0:35:Hat Open.wav
64,192,31697,1,2,0:0:0:0:
320,192,31697,128,0,32050:0:0:0:0:
192,192,31874,1,0,0:0:0:35:Hat Open.wav
64,192,32050,1,8,0:0:0:0:
192,192,32050,1,2,0:0:0:0:
448,192,32050,1,0,0:0:0:0:
320,192,32227,1,0,0:0:0:35:Hat Open.wav
320,192,32403,1,2,0:0:0:0:
448,192,32403,128,0,32668:0:0:0:0:
64,192,32580,1,0,0:0:0:35:Hat Open.wav
192,192,32609,1,0,0:0:0:0:
64,192,32756,1,8,0:0:0:0:
320,192,32756,1,2,0:0:0:0:
448,192,32756,1,0,0:0:0:0:
192,192,32933,1,0,0:0:0:35:Hat Open.wav
192,192,33109,1,2,0:0:0:0:
448,192,33109,1,0,0:0:0:0:
320,192,33286,1,0,0:0:0:35:Hat Open.wav
64,192,33462,1,8,0:0:0:0:
192,192,33462,1,2,0:0:0:0:
448,192,33462,1,0,0:0:0:0:
320,192,33638,1,0,0:0:0:35:Hat Open.wav
64,192,33727,1,8,0:0:0:0:
192,192,33727,1,0,0:0:0:0:
320,192,33815,1,2,0:0:0:0:
448,192,33815,1,0,0:0:0:50:Tom1.wav
192,192,33991,1,0,0:0:0:0:
64,192,33991,1,8,0:0:0:0:
320,192,34080,1,8,0:0:0:0:
448,192,34080,1,0,0:0:0:0:
64,192,34168,1,8,0:0:0:0:
192,192,34168,1,0,0:0:0:0:
64,192,34344,1,4,0:0:0:0:
320,192,34344,1,2,0:0:0:0:
448,192,34344,128,0,34697:0:0:0:0:
192,192,34521,1,0,0:0:0:0:
64,192,34697,1,2,0:0:0:0:
192,192,34697,1,0,0:0:0:0:
64,192,34874,1,8,0:0:0:0:
320,192,34874,1,0,0:0:0:35:Hat Open.wav
448,192,34874,1,0,0:0:0:0:
192,192,35050,1,0,0:0:0:0:
320,192,35227,1,0,0:0:0:35:Hat Open.wav
448,192,35227,1,0,0:0:0:0:
64,192,35227,1,8,0:0:0:0:
64,192,35403,1,2,0:0:0:0:
192,192,35403,1,0,0:0:0:0:
192,192,35580,1,8,0:0:0:0:
320,192,35580,1,0,0:0:0:35:Hat Open.wav
448,192,35580,1,0,0:0:0:0:
320,192,35756,1,0,0:0:0:0:
64,192,35756,1,2,0:0:0:0:
448,192,35933,1,0,0:0:0:0:
192,192,35933,1,0,0:0:0:35:Hat Open.wav
64,192,35933,1,8,0:0:0:0:
320,192,36109,1,2,0:0:0:0:
448,192,36109,1,0,0:0:0:0:
64,192,36286,1,8,0:0:0:0:
192,192,36286,1,0,0:0:0:35:Hat Open.wav
320,192,36286,1,0,0:0:0:0:
64,192,36462,1,2,0:0:0:0:
448,192,36462,1,0,0:0:0:0:
320,192,36521,1,8,0:0:0:20:soft-hitclap.wav
192,192,36580,1,8,0:0:0:30:soft-hitclap.wav
64,192,36638,1,8,0:0:0:0:
320,192,36638,1,0,0:0:0:0:
448,192,36638,1,0,0:0:0:0:
192,192,36815,1,2,0:0:0:0:
320,192,36815,1,0,0:0:0:50:Tom1.wav
64,192,36991,1,0,0:0:0:50:Tom2.wav
192,192,36991,1,0,0:0:0:0:
448,192,37168,1,0,0:0:0:0:
320,192,37168,1,0,0:0:0:50:Tom1.wav
64,192,37344,1,2,0:0:0:0:
192,192,37344,1,4,0:0:0:0:
448,192,37344,1,0,0:0:0:0:
320,192,37521,1,0,0:0:0:0:
64,192,37580,1,0,0:0:0:0:
448,192,37697,1,0,0:0:0:40:Ride.wav
320,192,37815,1,0,0:0:0:0:
64,192,37874,1,2,0:0:0:0:
192,192,37933,1,0,0:0:0:0:
320,192,37991,1,0,0:0:0:0:
64,192,38050,1,8,0:0:0:0:
192,192,38050,1,0,0:0:0:40:Ride.wav
448,192,38050,1,0,0:0:0:0:
320,192,38168,1,0,0:0:0:0:
192,192,38286,1,0,0:0:0:0:
448,192,38403,1,0,0:0:0:0:
320,192,38403,1,0,0:0:0:40:Ride.wav
64,192,38403,1,8,0:0:0:0:
192,192,38580,1,2,0:0:0:0:
320,192,38580,1,0,0:0:0:0:
64,192,38756,128,4,39109:0:0:0:0:
192,192,38756,1,2,0:0:0:0:
448,192,38756,1,0,0:0:0:0:
320,192,38933,1,0,0:0:0:0:
448,192,39109,1,0,0:0:0:0:
320,192,39109,1,0,0:0:0:0:
192,192,39109,1,8,0:0:0:0:
64,192,39286,1,2,0:0:0:0:
192,192,39286,1,4,0:0:0:0:
448,192,39286,128,0,39638:0:0:0:0:
64,192,39638,1,8,0:0:0:0:
192,192,39638,1,0,0:0:0:0:
320,192,39638,1,0,0:0:0:0:
448,192,39815,1,0,0:0:0:0:
64,192,39815,128,2,40168:0:0:0:0:
320,192,39815,1,4,0:0:0:0:
192,192,39991,128,0,40168:0:0:0:50:Tom1.wav
320,192,40168,1,0,0:0:0:50:Tom3.wav
448,192,40168,1,0,0:0:0:0:
192,192,40344,1,2,0:0:0:0:
320,192,40344,1,0,0:0:0:0:
64,192,40521,1,8,0:0:0:0:
192,192,40521,1,4,0:0:0:0:
448,192,40521,128,0,40874:0:0:0:0:
64,192,40874,1,0,0:0:0:35:Hat Open.wav
192,192,41050,1,2,0:0:0:0:
448,192,41050,1,0,0:0:0:0:
320,192,41227,1,0,0:0:0:35:Hat Open.wav
64,192,41227,1,8,0:0:0:0:
448,192,41227,1,0,0:0:0:0:
320,192,41403,1,0,0:0:0:0:
192,192,41403,1,2,0:0:0:0:
448,192,41580,1,0,0:0:0:35:Hat Open.wav
192,192,41580,128,0,41933:0:0:0:0:
64,192,41933,1,8,0:0:0:0:
320,192,41933,1,0,0:0:0:35:Hat Open.wav
448,192,41933,1,0,0:0:0:0:
192,192,42109,1,0,0:0:0:0:
64,192,42109,1,2,0:0:0:0:
320,192,42197,1,8,0:0:0:0:
448,192,42197,1,0,0:0:0:0:
64,192,42286,1,0,0:0:0:35:Hat Open.wav
192,192,42286,1,0,0:0:0:0:
192,192,42462,1,2,0:0:0:0:
320,192,42462,1,0,0:0:0:50:Tom3.wav
448,192,42462,1,0,0:0:0:0:
448,192,42638,1,0,0:0:0:0:
320,192,42638,1,0,0:0:0:50:Tom3.wav
64,192,42638,1,8,0:0:0:0:
64,192,42815,1,8,0:0:0:0:
320,192,42815,1,0,0:0:0:50:Tom3.wav
448,192,42815,1,0,0:0:0:0:
192,192,43168,1,2,0:0:0:0:
448,192,43168,1,0,0:0:0:0:
64,192,43344,1,8,0:0:0:0:
320,192,43344,1,4,0:0:0:0:
448,192,43344,128,0,43697:0:0:0:0:
64,192,43697,1,0,0:0:0:35:Hat Open.wav
320,192,43874,1,2,0:0:0:0:
448,192,43874,1,0,0:0:0:0:
64,192,44050,1,8,0:0:0:0:
192,192,44050,1,0,0:0:0:35:Hat Open.wav
448,192,44050,1,0,0:0:0:0:
320,192,44227,1,0,0:0:0:0:
64,192,44227,1,2,0:0:0:0:
320,192,44403,1,0,0:0:0:35:Hat Open.wav
448,192,44403,1,0,0:0:0:0:
192,192,44403,1,2,0:0:0:0:
192,192,44580,1,0,0:0:0:0:
64,192,44756,1,8,0:0:0:0:
320,192,44756,1,0,0:0:0:35:Hat Open.wav
448,192,44756,1,0,0:0:0:0:
320,192,44933,1,2,0:0:0:0:
448,192,44933,1,0,0:0:0:0:
192,192,45021,1,0,0:0:0:0:
64,192,45021,1,8,0:0:0:0:
320,192,45109,1,8,0:0:0:0:
448,192,45109,1,0,0:0:0:0:
64,192,45286,1,8,0:0:0:0:
192,192,45286,1,0,0:0:0:0:
320,192,45374,1,8,0:0:0:0:
448,192,45374,1,0,0:0:0:0:
64,192,45462,1,0,0:0:0:50:Tom1.wav
192,192,45462,1,0,0:0:0:0:
320,192,45550,1,0,0:0:0:50:Tom1.wav
64,192,45638,1,0,0:0:0:50:Tom2.wav
448,192,45638,1,0,0:0:0:0:
192,192,45727,1,0,0:0:0:50:Tom2.wav
64,192,45815,1,2,0:0:0:0:
320,192,45815,1,4,0:0:0:0:
448,192,45815,128,0,46168:0:0:0:0:
192,192,46168,1,2,0:0:0:0:
320,192,46168,1,0,0:0:0:0:
64,192,46168,1,8,0:0:0:0:
320,192,46344,1,0,0:0:0:35:Hat Open.wav
64,192,46521,128,2,46874:0:0:0:0:
192,192,46521,1,0,0:0:0:0:
448,192,46521,1,0,0:0:0:0:
320,192,46697,1,0,0:0:0:35:Hat Open.wav
320,192,46874,1,8,0:0:0:0:
192,192,46874,1,2,0:0:0:0:
448,192,46874,1,0,0:0:0:0:
192,192,47050,1,0,0:0:0:35:Hat Open.wav
64,192,47227,1,2,0:0:0:0:
320,192,47227,128,0,47580:0:0:0:0:
448,192,47227,1,0,0:0:0:0:
192,192,47403,1,0,0:0:0:35:Hat Open.wav
64,192,47580,1,8,0:0:0:0:
192,192,47580,1,2,0:0:0:0:
448,192,47580,1,0,0:0:0:0:
64,192,47756,1,0,0:0:0:35:Hat Open.wav
320,192,47933,1,2,0:0:0:0:
448,192,47933,1,0,0:0:0:0:
64,192,48109,1,0,0:0:0:35:Hat Open.wav
192,192,48286,1,2,0:0:0:0:
320,192,48286,1,8,0:0:0:0:
448,192,48286,1,0,0:0:0:0:
320,192,48462,1,0,0:0:0:35:Hat Open.wav
448,192,48638,128,0,48991:0:0:0:0:
192,192,48638,1,0,0:0:0:0:
64,192,48638,1,2,0:0:0:0:
320,192,48815,1,0,0:0:0:35:Hat Open.wav
64,192,48991,1,8,0:0:0:0:
192,192,48991,1,2,0:0:0:0:
320,192,48991,1,0,0:0:0:0:
192,192,49168,1,0,0:0:0:35:Hat Open.wav
320,192,49344,1,0,0:0:0:0:
448,192,49344,1,0,0:0:0:0:
64,192,49344,128,2,49697:0:0:0:0:
192,192,49521,1,0,0:0:0:35:Hat Open.wav
192,192,49697,1,8,0:0:0:0:
320,192,49697,1,2,0:0:0:0:
448,192,49697,1,0,0:0:0:0:
448,192,49874,1,0,0:0:0:35:Hat Open.wav
192,192,50050,1,0,0:0:0:0:
64,192,50050,1,2,0:0:0:0:
320,192,50050,128,0,50403:0:0:0:0:
448,192,50227,1,2,0:0:0:0:
448,192,50403,1,0,0:0:0:0:
64,192,50403,1,8,0:0:0:0:
192,192,50403,1,0,0:0:0:0:
64,192,50580,1,0,0:0:0:0:
192,192,50580,1,0,0:0:0:0:
448,192,50638,1,8,0:0:0:20:soft-hitclap.wav
320,192,50697,1,8,0:0:0:35:soft-hitclap.wav
64,192,50756,1,8,0:0:0:0:
192,192,50756,1,0,0:0:0:0:
320,192,50933,1,8,0:0:0:0:
448,192,50933,1,0,0:0:0:0:
64,192,51109,1,0,0:0:0:50:Tom2.wav
448,192,51109,1,0,0:0:0:0:
192,192,51286,1,0,0:0:0:50:Tom3.wav
320,192,51286,1,0,0:0:0:0:
64,192,51462,1,4,0:0:0:0:
192,192,51462,1,2,0:0:0:0:
448,192,51462,128,0,51815:0:0:0:0:
320,192,51638,1,0,0:0:0:0:
64,192,51815,1,2,0:0:0:0:
192,192,51815,1,0,0:0:0:40:Ride.wav
320,192,51886,1,0,0:0:0:0:
448,192,51956,1,0,0:0:0:0:
192,192,52027,1,0,0:0:0:0:
320,192,52097,1,0,0:0:0:0:
64,192,52168,128,8,52874:0:0:0:0:
448,192,52168,1,0,0:0:0:40:Ride.wav
192,192,52256,1,0,0:0:0:0:
320,192,52344,1,0,0:0:0:0:
192,192,52521,1,2,0:0:0:0:
448,192,52521,1,0,0:0:0:40:Ride.wav
320,192,52697,1,8,0:0:0:0:
320,192,52874,1,2,0:0:0:0:
448,192,52874,1,0,0:0:0:40:Ride.wav
192,192,53050,1,0,0:0:0:0:
448,192,53050,1,0,0:0:0:0:
64,192,53050,1,8,0:0:0:0:
192,192,53227,1,2,0:0:0:0:
320,192,53227,1,0,0:0:0:40:Ride.wav
320,192,53403,1,0,0:0:0:0:
64,192,53580,1,8,0:0:0:0:
192,192,53580,1,0,0:0:0:40:Ride.wav
448,192,53580,1,0,0:0:0:0:
448,192,53756,1,0,0:0:0:0:
320,192,53756,1,0,0:0:0:50:Tom3.wav
64,192,53933,1,0,0:0:0:40:Ride.wav
192,192,53933,1,0,0:0:0:50:Tom3.wav
320,192,54109,1,8,0:0:0:0:
448,192,54109,1,0,0:0:0:0:
64,192,54197,1,8,0:0:0:0:
192,192,54197,1,0,0:0:0:0:
448,192,54286,1,0,0:0:0:0:
320,192,54286,1,0,0:0:0:50:Tom1.wav
192,192,54374,1,0,0:0:0:0:
64,192,54374,1,0,0:0:0:50:Tom1.wav
320,192,54462,1,0,0:0:0:50:Tom2.wav
448,192,54462,1,0,0:0:0:0:
64,192,54638,1,0,0:0:0:50:Tom3.wav
448,192,54638,1,0,0:0:0:0:
64,192,54815,1,0,0:0:0:50:Tom1.wav
192,192,54815,1,0,0:0:0:0:
320,192,54903,1,0,0:0:0:50:Tom1.wav
448,192,54903,1,0,0:0:0:0:
64,192,54991,1,0,0:0:0:50:Tom3.wav
192,192,54991,1,0,0:0:0:0:
192,192,55168,1,0,0:0:0:50:Tom2.wav
320,192,55168,1,0,0:0:0:0:
320,192,55344,1,0,0:0:0:0:
448,192,55344,1,0,0:0:0:0:
64,192,55344,1,8,0:0:0:0:
192,192,55521,1,2,0:0:0:0:
448,192,55521,1,0,0:0:0:0:
64,192,55521,128,4,55874:0:0:0:0:
192,192,55874,1,8,0:0:0:0:
320,192,55874,1,0,0:0:0:50:Tom3.wav
448,192,55874,1,0,0:0:0:0:
192,192,56050,1,2,0:0:0:0:
320,192,56050,1,0,0:0:0:50:Tom3.wav
448,192,56050,1,0,0:0:0:0:
448,192,56227,1,0,0:0:0:0:
320,192,56227,1,0,0:0:0:50:Tom3.wav
192,192,56227,1,8,0:0:0:0:
64,192,56403,1,8,0:0:0:0:
192,192,56403,1,0,0:0:0:50:Tom3.wav
448,192,56403,1,0,0:0:0:0:
64,192,56580,1,8,0:0:0:0:
192,192,56580,1,0,0:0:0:50:Tom3.wav
448,192,56580,1,0,0:0:0:0:
448,192,56756,1,0,0:0:0:0:
192,192,56756,1,0,0:0:0:50:Tom3.wav
64,192,56756,1,8,0:0:0:0:
64,192,56933,1,8,0:0:0:0:
192,192,56933,1,0,0:0:0:50:Tom3.wav
448,192,56933,1,0,0:0:0:0:
64,192,57815,128,0,58521:0:0:0:0:
320,192,58521,128,0,59227:0:0:0:0:
192,192,59227,1,0,0:0:0:35:Hat Open.wav
448,192,59227,1,0,0:0:0:50:Tom3.wav
64,192,59227,1,8,0:0:0:0:
64,192,59403,1,8,0:0:0:0:
192,192,59403,1,0,0:0:0:35:Hat Open.wav
448,192,59403,1,0,0:0:0:50:Tom3.wav
320,192,59756,1,0,0:0:0:0:
64,192,59933,1,2,0:0:0:0:
192,192,59933,1,4,0:0:0:0:
320,192,59933,128,0,60286:0:0:0:0:
448,192,60109,1,0,0:0:0:0:
448,192,60286,1,0,0:0:0:0:
64,192,60286,1,2,0:0:0:0:
192,192,60286,1,8,0:0:0:0:
192,192,60462,1,0,0:0:0:35:Hat Open.wav
64,192,60638,1,2,0:0:0:0:
320,192,60638,1,0,0:0:0:0:
448,192,60638,128,0,60991:0:0:0:0:
192,192,60815,1,0,0:0:0:35:Hat Open.wav
64,192,60991,1,8,0:0:0:0:
192,192,60991,1,0,0:0:0:0:
320,192,60991,1,0,0:0:0:0:
64,192,61168,128,2,61521:0:0:0:0:
320,192,61168,1,4,0:0:0:0:
448,192,61168,1,0,0:0:0:0:
192,192,61521,1,2,0:0:0:0:
448,192,61521,1,0,0:0:0:35:Hat Open.wav
320,192,61697,1,0,0:0:0:0:
448,192,61697,1,0,0:0:0:0:
64,192,61697,1,8,0:0:0:0:
64,192,61874,1,2,0:0:0:0:
192,192,61874,1,0,0:0:0:35:Hat Open.wav
320,192,61962,1,8,0:0:0:0:
448,192,61962,1,0,0:0:0:0:
64,192,62227,1,2,0:0:0:0:
192,192,62227,1,0,0:0:0:35:Hat Open.wav
448,192,62227,1,0,0:0:0:0:
192,192,62403,1,8,0:0:0:0:
320,192,62403,1,0,0:0:0:0:
448,192,62403,1,0,0:0:0:0:
64,192,62580,1,0,0:0:0:35:Hat Open.wav
320,192,62756,1,0,0:0:0:0:
448,192,62756,1,0,0:0:0:0:
64,192,62756,1,2,0:0:0:0:
192,192,62933,1,0,0:0:0:35:Hat Open.wav
192,192,63109,1,2,0:0:0:0:
64,192,63109,1,8,0:0:0:0:
320,192,63109,1,0,0:0:0:0:
448,192,63286,1,0,0:0:0:35:Hat Open.wav
64,192,63462,1,2,0:0:0:0:
192,192,63462,128,0,63815:0:0:0:0:
448,192,63462,1,0,0:0:0:0:
320,192,63638,1,0,0:0:0:35:Hat Open.wav
64,192,63815,1,8,0:0:0:0:
320,192,63815,1,0,0:0:0:0:
448,192,63815,1,0,0:0:0:0:
448,192,63991,128,0,64344:0:0:0:0:
192,192,63991,1,4,0:0:0:0:
64,192,63991,1,2,0:0:0:0:
320,192,64168,1,0,0:0:0:0:
192,192,64344,1,2,0:0:0:0:
320,192,64344,1,0,0:0:0:35:Hat Open.wav
64,192,64521,1,8,0:0:0:0:
192,192,64521,1,0,0:0:0:0:
448,192,64521,1,0,0:0:0:0:
448,192,64697,1,0,0:0:0:0:
64,192,64697,128,2,65050:0:0:0:0:
320,192,64697,1,4,0:0:0:0:
192,192,64874,1,0,0:0:0:0:
320,192,64962,1,8,0:0:0:0:
192,192,65050,1,2,0:0:0:0:
448,192,65050,1,0,0:0:0:35:Hat Open.wav
64,192,65227,1,8,0:0:0:0:
320,192,65227,1,0,0:0:0:0:
448,192,65227,1,0,0:0:0:0:
64,192,65403,1,8,0:0:0:0:
192,192,65491,1,8,0:0:0:0:
64,192,65580,1,4,0:0:0:0:
320,192,65580,1,2,0:0:0:0:
448,192,65580,1,0,0:0:0:0:
320,192,65756,1,0,0:0:0:0:
192,192,65933,1,2,0:0:0:0:
448,192,65933,1,0,0:0:0:0:
64,192,65933,1,8,0:0:0:0:
320,192,66109,1,0,0:0:0:35:Hat Open.wav
64,192,66286,1,2,0:0:0:0:
320,192,66286,1,0,0:0:0:0:
448,192,66286,1,0,0:0:0:0:
192,192,66462,1,0,0:0:0:35:Hat Open.wav
320,192,66638,1,0,0:0:0:0:
448,192,66638,1,0,0:0:0:0:
64,192,66638,1,8,0:0:0:0:
64,192,66815,1,2,0:0:0:0:
192,192,66815,1,4,0:0:0:0:
448,192,66815,128,0,67168:0:0:0:0:
64,192,67168,1,2,0:0:0:0:
192,192,67168,1,0,0:0:0:35:Hat Open.wav
64,192,67344,1,8,0:0:0:0:
320,192,67344,1,0,0:0:0:0:
448,192,67344,1,0,0:0:0:0:
448,192,67521,1,0,0:0:0:0:
192,192,67521,1,2,0:0:0:0:
320,192,67521,1,0,0:0:0:35:Hat Open.wav
192,192,67697,1,0,0:0:0:0:
320,192,67786,1,8,0:0:0:0:
448,192,67786,1,0,0:0:0:0:
64,192,67874,1,2,0:0:0:0:
192,192,67874,1,0,0:0:0:35:Hat Open.wav
64,192,68050,1,8,0:0:0:0:
320,192,68050,1,0,0:0:0:0:
448,192,68050,1,0,0:0:0:0:
448,192,68227,1,8,0:0:0:0:
320,192,68315,1,8,0:0:0:0:
192,192,68403,1,2,0:0:0:0:
64,192,68403,128,4,68756:0:0:0:0:
448,192,68403,1,0,0:0:0:0:
192,192,68756,1,8,0:0:0:0:
320,192,68756,1,2,0:0:0:0:
448,192,68933,128,0,69286:0:0:0:0:
64,192,68933,1,0,0:0:0:35:Hat Open.wav
192,192,69109,1,2,0:0:0:0:
64,192,69286,1,0,0:0:0:35:Hat Open.wav
320,192,69286,1,0,0:0:0:0:
192,192,69462,1,8,0:0:0:0:
320,192,69462,1,0,0:0:0:0:
448,192,69462,1,0,0:0:0:0:
448,192,69638,1,0,0:0:0:0:
192,192,69638,128,4,69991:0:0:0:0:
64,192,69638,1,2,0:0:0:0:
320,192,69991,1,2,0:0:0:0:
448,192,69991,1,0,0:0:0:35:Hat Open.wav
64,192,70168,1,8,0:0:0:0:
192,192,70168,1,0,0:0:0:0:
448,192,70168,1,0,0:0:0:0:
320,192,70344,1,2,0:0:0:0:
192,192,70433,1,8,0:0:0:0:
448,192,70521,1,0,0:0:0:0:
64,192,70521,1,8,0:0:0:0:
320,192,70521,1,0,0:0:0:0:
192,192,70697,1,0,0:0:0:50:Tom1.wav
320,192,70697,1,0,0:0:0:0:
64,192,70874,1,0,0:0:0:50:Tom2.wav
192,192,70874,1,0,0:0:0:0:
64,192,71050,1,0,0:0:0:50:Tom3.wav
448,192,71050,1,0,0:0:0:0:
320,192,71227,1,2,0:0:0:0:
192,192,71227,1,4,0:0:0:0:
448,192,71227,1,0,0:0:0:0:
192,192,71403,1,0,0:0:0:0:
64,192,71580,1,2,0:0:0:0:
320,192,71580,1,0,0:0:0:40:Ride.wav
448,192,71580,1,0,0:0:0:0:
320,192,71756,1,0,0:0:0:0:
448,192,71933,128,0,72286:0:0:0:0:
192,192,71933,1,0,0:0:0:40:Ride.wav
64,192,71933,1,8,0:0:0:0:
320,192,72109,1,0,0:0:0:0:
64,192,72286,1,0,0:0:0:40:Ride.wav
192,192,72286,1,0,0:0:0:0:
320,192,72374,1,0,0:0:0:0:
64,192,72462,128,2,72815:0:0:0:0:
192,192,72462,1,0,0:0:0:0:
448,192,72462,1,0,0:0:0:0:
320,192,72638,1,0,0:0:0:40:Ride.wav
192,192,72815,1,8,0:0:0:0:
448,192,72815,1,0,0:0:0:0:
64,192,72991,1,2,0:0:0:0:
320,192,72991,1,0,0:0:0:40:Ride.wav
448,192,73138,1,0,0:0:0:0:
320,192,73197,1,0,0:0:0:0:
192,192,73256,1,0,0:0:0:0:
448,192,73344,1,0,0:0:0:40:Ride.wav
64,192,73344,1,8,0:0:0:0:
320,192,73521,1,0,0:0:0:0:
64,192,73697,1,2,0:0:0:0:
192,192,73697,1,0,0:0:0:40:Ride.wav
320,192,73874,1,0,0:0:0:0:
192,192,73962,1,8,0:0:0:0:
448,192,74050,1,0,0:0:0:0:
64,192,74050,1,2,0:0:0:0:
320,192,74050,1,4,0:0:0:0:
192,192,74227,1,0,0:0:0:0:
64,192,74403,1,2,0:0:0:0:
192,192,74403,1,0,0:0:0:40:Ride.wav
320,192,74403,1,0,0:0:0:0:
448,192,74580,1,0,0:0:0:0:
320,192,74756,128,0,75109:0:0:0:40:Ride.wav
64,192,74756,1,8,0:0:0:0:
448,192,74756,1,0,0:0:0:0:
192,192,74933,1,0,0:0:0:0:
448,192,75109,1,0,0:0:0:0:
64,192,75109,1,0,0:0:0:40:Ride.wav
64,192,75286,1,2,0:0:0:0:
192,192,75286,128,0,75638:0:0:0:0:
320,192,75286,1,0,0:0:0:0:
448,192,75462,1,0,0:0:0:0:
64,192,75638,1,2,0:0:0:0:
320,192,75815,1,8,0:0:0:0:
448,192,75815,1,0,0:0:0:0:
64,192,75991,1,2,0:0:0:0:
192,192,75991,1,0,0:0:0:35:Hat Open.wav
448,192,75991,1,0,0:0:0:0:
192,192,76168,1,0,0:0:0:0:
64,192,76344,1,2,0:0:0:0:
320,192,76344,1,4,0:0:0:0:
448,192,76344,1,0,0:0:0:0:
320,192,76521,1,0,0:0:0:0:
192,192,76697,1,8,0:0:0:0:
320,192,76786,1,8,0:0:0:0:
64,192,76874,1,4,0:0:0:0:
192,192,76874,1,2,0:0:0:0:
448,192,76874,1,0,0:0:0:0:
320,192,77050,1,0,0:0:0:0:
64,192,77227,1,2,0:0:0:0:
192,192,77227,1,0,0:0:0:40:Ride.wav
320,192,77403,1,0,0:0:0:0:
64,192,77580,1,8,0:0:0:0:
320,192,77580,1,0,0:0:0:40:Ride.wav
448,192,77580,1,0,0:0:0:0:
192,192,77756,1,0,0:0:0:0:
320,192,77844,1,8,0:0:0:0:
64,192,77933,1,0,0:0:0:40:Ride.wav
448,192,77933,1,0,0:0:0:0:
64,192,78109,1,2,0:0:0:0:
192,192,78109,1,8,0:0:0:0:
448,192,78286,1,0,0:0:0:0:
320,192,78286,1,0,0:0:0:40:Ride.wav
64,192,78462,1,2,0:0:0:0:
192,192,78462,1,0,0:0:0:0:
320,192,78550,1,8,0:0:0:0:
64,192,78638,1,0,0:0:0:40:Ride.wav
448,192,78638,1,0,0:0:0:50:Tom3.wav
192,192,78815,1,2,0:0:0:0:
320,192,78815,1,0,0:0:0:0:
192,192,78991,1,0,0:0:0:0:
64,192,78991,1,8,0:0:0:0:
64,192,79168,1,0,0:0:0:50:Tom1.wav
320,192,79168,1,0,0:0:0:0:
192,192,79344,1,0,0:0:0:50:Tom2.wav
448,192,79344,1,0,0:0:0:0:
320,192,79521,1,0,0:0:0:50:Tom3.wav
448,192,79521,1,0,0:0:0:0:
448,192,79697,128,0,80050:0:0:0:0:
192,192,79697,1,8,0:0:0:0:
64,192,79697,1,4,0:0:0:0:
192,192,79874,1,2,0:0:0:0:
320,192,79874,1,0,0:0:0:0:
64,192,80050,1,2,0:0:0:0:
320,192,80050,1,0,0:0:0:0:
64,192,80227,128,8,80580:0:0:0:0:
192,192,80227,1,4,0:0:0:0:
448,192,80227,1,0,0:0:0:0:
448,192,80403,1,2,0:0:0:0:
192,192,80580,1,2,0:0:0:0:
320,192,80580,1,0,0:0:0:0:
64,192,80756,1,4,0:0:0:0:
320,192,80756,128,8,81462:0:0:0:0:
448,192,80756,1,0,0:0:0:0:
448,192,81462,1,0,0:0:0:0:
192,192,81638,1,0,0:0:0:40:Ride.wav
320,192,81727,1,0,0:0:0:40:Ride.wav
448,192,81815,1,0,0:0:0:0:
64,192,81815,1,0,0:0:0:40:Ride.wav
192,192,81991,1,0,0:0:0:0:
320,192,82168,1,0,0:0:0:0:
192,192,82344,1,0,0:0:0:0:
64,192,82521,1,0,0:0:0:40:Ride.wav
448,192,82521,128,0,83050:0:0:0:0:
192,192,83050,1,0,0:0:0:0:
192,192,83227,128,0,83580:0:0:0:0:
320,192,83756,1,0,0:0:0:0:
64,192,83933,1,8,0:0:0:0:
192,192,83933,1,0,0:0:0:50:Tom3.wav
448,192,83933,1,0,0:0:0:0:
64,192,84109,1,2,0:0:0:0:
192,192,84109,1,0,0:0:0:50:Tom3.wav
448,192,84109,1,0,0:0:0:0:
320,192,84286,1,0,0:0:0:0:
192,192,84638,1,0,0:0:0:0:
64,192,84991,1,0,0:0:0:0:
192,192,85344,1,4,0:0:0:0:
320,192,85344,1,2,0:0:0:0:
448,192,85344,1,0,0:0:0:0:
320,192,85521,1,0,0:0:0:0:
64,192,85697,1,8,0:0:0:0:
192,192,85697,1,2,0:0:0:0:
448,192,85697,1,0,0:0:0:0:
320,192,85874,1,0,0:0:0:35:Hat Open.wav
192,192,85962,1,0,0:0:0:0:
64,192,85962,1,8,0:0:0:0:
320,192,86050,1,2,0:0:0:0:
448,192,86050,1,0,0:0:0:0:
192,192,86227,1,0,0:0:0:35:Hat Open.wav
64,192,86403,1,8,0:0:0:0:
192,192,86403,1,0,0:0:0:0:
320,192,86403,1,0,0:0:0:0:
448,192,86580,1,0,0:0:0:0:
320,192,86580,1,4,0:0:0:0:
64,192,86580,128,2,86933:0:0:0:0:
192,192,86933,1,2,0:0:0:0:
448,192,86933,1,0,0:0:0:35:Hat Open.wav
64,192,87109,1,8,0:0:0:0:
320,192,87109,1,0,0:0:0:0:
448,192,87109,1,0,0:0:0:0:
64,192,87286,1,2,0:0:0:0:
192,192,87286,1,0,0:0:0:35:Hat Open.wav
320,192,87286,1,0,0:0:0:0:
192,192,87462,1,0,0:0:0:0:
320,192,87550,1,8,0:0:0:0:
448,192,87550,1,0,0:0:0:0:
64,192,87638,1,2,0:0:0:0:
192,192,87638,1,0,0:0:0:35:Hat Open.wav
320,192,87815,1,0,0:0:0:0:
448,192,87815,1,0,0:0:0:0:
64,192,87815,1,8,0:0:0:0:
320,192,87991,1,0,0:0:0:50:Tom1.wav
192,192,88080,1,0,0:0:0:50:Tom1.wav
64,192,88168,1,8,0:0:0:0:
320,192,88168,1,0,0:0:0:50:Tom3.wav
448,192,88168,1,0,0:0:0:0:
64,192,88344,1,8,0:0:0:0:
320,192,88344,1,0,0:0:0:50:Tom3.wav
448,192,88344,1,0,0:0:0:0:
64,192,88697,1,8,0:0:0:0:
320,192,88697,1,0,0:0:0:50:Tom3.wav
448,192,88697,1,0,0:0:0:0:
320,192,88874,1,0,0:0:0:50:Tom3.wav
448,192,88874,1,0,0:0:0:0:
64,192,88874,1,8,0:0:0:0:
320,192,89227,1,0,0:0:0:50:Tom3.wav
448,192,89227,1,0,0:0:0:0:
64,192,89227,1,8,0:0:0:0:
448,192,89403,1,0,0:0:0:0:
320,192,89403,1,0,0:0:0:50:Tom3.wav
64,192,89403,1,8,0:0:0:0:
64,192,89756,1,8,0:0:0:0:
192,192,89756,1,0,0:0:0:50:Tom3.wav
320,192,89756,1,0,0:0:0:0:
64,192,89933,1,8,0:0:0:0:
192,192,89933,1,0,0:0:0:50:Tom3.wav
320,192,89933,1,0,0:0:0:0:
64,192,90286,1,0,0:0:0:50:Hat Close.wav
320,192,90374,1,0,0:0:0:30:Hat Close.wav
192,192,90462,1,0,0:0:0:50:Hat Close.wav
448,192,90550,1,0,0:0:0:30:Hat Close.wav
64,192,90638,1,0,0:0:0:35:Hat Open.wav
320,192,90815,1,0,0:0:0:0:
64,192,90991,1,4,0:0:0:0:
320,192,90991,1,2,0:0:0:0:
448,192,90991,1,0,0:0:0:0:
192,192,91344,1,0,0:0:0:0:
64,192,91521,1,0,0:0:0:0:
320,192,91697,1,0,0:0:0:0:
192,192,91874,1,0,0:0:0:0:
64,192,92050,1,0,0:0:0:0:
320,192,92050,1,0,0:0:0:0:
192,192,92227,1,0,0:0:0:0:
448,192,92227,1,0,0:0:0:0:
320,192,92403,1,0,0:0:0:0:
448,192,92403,1,0,0:0:0:0:
192,192,92756,1,0,0:0:0:0:
64,192,92933,1,0,0:0:0:0:
448,192,92933,1,0,0:0:0:0:
320,192,93286,1,0,0:0:0:0:
64,192,93403,1,0,0:0:0:0:
192,192,93433,1,0,0:0:0:0:
320,192,93462,1,0,0:0:0:0:
192,192,93638,1,0,0:0:0:0:
64,192,93638,1,2,0:0:0:0:
64,192,93815,1,2,0:0:0:0:
192,192,93815,1,0,0:0:0:0:
192,192,94168,1,0,0:0:0:0:
320,192,94344,1,0,0:0:0:0:
64,192,94491,1,0,0:0:0:0:
320,192,94521,1,0,0:0:0:0:
448,192,94521,1,0,0:0:0:0:
192,192,94874,1,0,0:0:0:0:
320,192,95050,1,2,0:0:0:0:
448,192,95050,1,0,0:0:0:0:
320,192,95227,1,2,0:0:0:0:
448,192,95227,1,0,0:0:0:0:
64,192,95403,1,8,0:0:0:0:
192,192,95403,1,0,0:0:0:0:
448,192,95491,1,0,0:0:0:0:
320,192,95491,1,8,0:0:0:0:
192,192,95580,1,0,0:0:0:0:
64,192,95580,1,8,0:0:0:0:
64,192,95756,128,2,95933:0:0:0:0:
448,192,95756,128,0,95933:0:0:0:35:Hat Open.wav
64,192,96109,128,2,96286:0:0:0:0:
448,192,96109,128,0,96286:0:0:0:35:Hat Open.wav
192,192,96286,1,0,0:0:0:0:
64,192,96462,1,2,0:0:0:0:
320,192,96462,1,4,0:0:0:0:
448,192,96462,1,0,0:0:0:0:
64,192,96815,1,2,0:0:0:0:
192,192,96815,1,0,0:0:0:0:
64,192,96991,1,0,0:0:0:40:Ride.wav
448,192,96991,1,0,0:0:0:0:
320,192,97168,1,0,0:0:0:0:
320,192,97344,1,0,0:0:0:40:Ride.wav
192,192,97344,1,8,0:0:0:0:
448,192,97344,1,0,0:0:0:0:
448,192,97697,1,0,0:0:0:40:Ride.wav
64,192,97697,1,2,0:0:0:0:
64,192,97874,1,8,0:0:0:0:
192,192,97874,1,0,0:0:0:0:
320,192,97874,1,0,0:0:0:0:
192,192,98050,1,2,0:0:0:0:
448,192,98050,1,0,0:0:0:40:Ride.wav
64,192,98227,1,8,0:0:0:0:
320,192,98227,1,0,0:0:0:0:
448,192,98227,1,0,0:0:0:0:
64,192,98403,1,2,0:0:0:0:
192,192,98403,1,0,0:0:0:40:Ride.wav
320,192,98580,1,0,0:0:0:0:
448,192,98580,1,0,0:0:0:0:
64,192,98756,1,8,0:0:0:0:
192,192,98756,1,0,0:0:0:40:Ride.wav
448,192,98756,1,0,0:0:0:0:
320,192,98933,1,0,0:0:0:0:
192,192,98933,1,0,0:0:0:50:Tom1.wav
320,192,99109,1,0,0:0:0:50:Tom2.wav
448,192,99109,1,0,0:0:0:0:
192,192,99286,1,0,0:0:0:50:Tom3.wav
448,192,99286,1,0,0:0:0:0:
64,192,99462,128,4,99815:0:0:0:0:
192,192,99462,1,2,0:0:0:0:
320,192,99462,1,0,0:0:0:0:
448,192,99815,1,0,0:0:0:0:
192,192,99815,1,0,0:0:0:40:Ride.wav
64,192,99991,1,2,0:0:0:0:
320,192,99991,1,0,0:0:0:40:Ride.wav
64,192,100168,1,8,0:0:0:0:
192,192,100168,1,0,0:0:0:0:
448,192,100168,1,0,0:0:0:0:
192,192,100344,1,0,0:0:0:0:
320,192,100344,1,0,0:0:0:0:
448,192,100521,1,0,0:0:0:0:
320,192,100521,1,0,0:0:0:35:Hat Open.wav
64,192,100521,1,8,0:0:0:0:
64,192,100697,1,2,0:0:0:0:
192,192,100697,1,0,0:0:0:0:
64,192,100874,128,8,101227:0:0:0:0:
320,192,100874,1,2,0:0:0:0:
448,192,100874,1,0,0:0:0:0:
320,192,101050,1,2,0:0:0:0:
192,192,101227,1,8,0:0:0:0:
448,192,101227,1,0,0:0:0:0:
64,192,101403,1,2,0:0:0:0:
320,192,101403,1,4,0:0:0:0:
448,192,101403,128,0,101756:0:0:0:0:
64,192,101756,1,2,0:0:0:0:
192,192,101844,1,8,0:0:0:0:
320,192,101933,1,8,0:0:0:0:
448,192,101933,1,0,0:0:0:0:
192,192,102021,1,0,0:0:0:0:
64,192,102021,1,8,0:0:0:0:
320,192,102109,1,8,0:0:0:0:
448,192,102109,1,0,0:0:0:0:
64,192,102197,1,8,0:0:0:0:
192,192,102197,1,0,0:0:0:0:
192,192,102462,1,2,0:0:0:0:
320,192,102462,1,0,0:0:0:0:
64,192,102638,128,4,102991:0:0:0:0:
320,192,102638,1,8,0:0:0:0:
448,192,102638,1,2,0:0:0:0:
192,192,102991,1,0,0:0:0:35:Hat Open.wav
320,192,103168,1,2,0:0:0:0:
448,192,103168,1,0,0:0:0:0:
64,192,103344,1,8,0:0:0:0:
192,192,103344,1,0,0:0:0:35:Hat Open.wav
448,192,103344,1,0,0:0:0:0:
192,192,103521,1,2,0:0:0:0:
320,192,103521,1,0,0:0:0:0:
320,192,103697,1,0,0:0:0:35:Hat Open.wav
64,192,103697,1,2,0:0:0:0:
448,192,103697,128,0,104050:0:0:0:0:
192,192,103874,1,0,0:0:0:0:
64,192,104050,1,8,0:0:0:0:
192,192,104050,1,0,0:0:0:35:Hat Open.wav
320,192,104050,1,0,0:0:0:0:
64,192,104227,1,2,0:0:0:0:
320,192,104227,1,0,0:0:0:35:Hat Open.wav
448,192,104227,1,0,0:0:0:0:
192,192,104403,1,0,0:0:0:0:
64,192,104580,1,2,0:0:0:0:
192,192,104580,1,8,0:0:0:0:
448,192,104580,1,0,0:0:0:50:Tom3.wav
64,192,104756,1,8,0:0:0:0:
320,192,104756,1,0,0:0:0:50:Tom3.wav
448,192,104756,1,0,0:0:0:0:
192,192,104933,1,2,0:0:0:0:
320,192,104933,1,0,0:0:0:35:Hat Open.wav
64,192,105109,1,0,0:0:0:0:
448,192,105286,1,0,0:0:0:0:
320,192,105286,1,2,0:0:0:0:
192,192,105396,1,2,0:0:0:0:
64,192,105462,1,8,0:0:0:0:
320,192,105462,1,4,0:0:0:0:
448,192,105462,128,0,105815:0:0:0:0:
64,192,105815,1,0,0:0:0:35:Hat Open.wav
192,192,105815,1,0,0:0:0:0:
320,192,105991,1,2,0:0:0:0:
64,192,106168,1,8,0:0:0:0:
320,192,106168,1,0,0:0:0:35:Hat Open.wav
448,192,106168,1,0,0:0:0:0:
192,192,106344,1,2,0:0:0:0:
64,192,106521,128,8,106874:0:0:0:0:
192,192,106521,1,2,0:0:0:0:
448,192,106521,1,0,0:0:0:35:Hat Open.wav
448,192,106874,1,0,0:0:0:35:Hat Open.wav
192,192,106874,1,8,0:0:0:0:
448,192,107050,1,0,0:0:0:0:
320,192,107050,128,0,107403:0:0:0:35:Hat Open.wav
64,192,107050,1,2,0:0:0:0:
64,192,107403,1,8,0:0:0:0:
192,192,107403,1,2,0:0:0:0:
448,192,107491,1,8,0:0:0:0:
64,192,107580,1,0,0:0:0:50:Tom1.wav
320,192,107580,1,0,0:0:0:0:
192,192,107756,1,0,0:0:0:50:Tom1.wav
448,192,107756,1,0,0:0:0:0:
320,192,107844,1,0,0:0:0:50:Tom1.wav
64,192,107933,1,2,0:0:0:0:
192,192,107933,1,4,0:0:0:0:
448,192,107933,128,0,108286:0:0:0:0:
64,192,108286,1,2,0:0:0:0:
320,192,108286,1,8,0:0:0:0:
192,192,108462,1,0,0:0:0:35:Hat Open.wav
448,192,108462,1,0,0:0:0:0:
448,192,108638,1,0,0:0:0:0:
320,192,108638,1,0,0:0:0:0:
64,192,108638,128,2,108991:0:0:0:0:
192,192,108815,1,0,0:0:0:35:Hat Open.wav
192,192,108991,1,8,0:0:0:0:
320,192,108991,1,2,0:0:0:0:
448,192,109168,1,0,0:0:0:35:Hat Open.wav
64,192,109344,1,2,0:0:0:0:
320,192,109344,128,0,109697:0:0:0:0:
448,192,109344,1,0,0:0:0:0:
192,192,109521,1,0,0:0:0:35:Hat Open.wav
64,192,109697,1,8,0:0:0:0:
192,192,109697,1,2,0:0:0:0:
64,192,109874,1,0,0:0:0:35:Hat Open.wav
448,192,109874,1,0,0:0:0:0:
320,192,109962,1,8,0:0:0:0:
192,192,110050,1,2,0:0:0:0:
448,192,110050,1,0,0:0:0:0:
320,192,110227,1,0,0:0:0:0:
192,192,110227,1,0,0:0:0:35:Hat Open.wav
64,192,110403,1,8,0:0:0:0:
320,192,110403,1,2,0:0:0:0:
192,192,110580,1,0,0:0:0:35:Hat Open.wav
448,192,110580,1,0,0:0:0:0:
64,192,110756,128,2,111109:0:0:0:0:
320,192,110756,1,0,0:0:0:0:
448,192,110756,1,0,0:0:0:0:
320,192,110933,1,0,0:0:0:35:Hat Open.wav
448,192,111109,1,2,0:0:0:0:
192,192,111109,1,8,0:0:0:0:
192,192,111286,1,0,0:0:0:35:Hat Open.wav
64,192,111462,1,2,0:0:0:0:
320,192,111462,128,0,111815:0:0:0:0:
448,192,111462,1,0,0:0:0:0:
192,192,111638,1,0,0:0:0:35:Hat Open.wav
64,192,111815,1,8,0:0:0:0:
448,192,111815,1,2,0:0:0:0:
192,192,111991,1,0,0:0:0:0:
64,192,111991,1,0,0:0:0:35:Hat Open.wav
320,192,112080,1,8,0:0:0:0:
64,192,112168,1,2,0:0:0:0:
192,192,112168,128,0,112521:0:0:0:0:
448,192,112168,1,0,0:0:0:0:
448,192,112344,1,2,0:0:0:0:
64,192,112521,1,8,0:0:0:0:
320,192,112521,1,0,0:0:0:0:
64,192,112697,1,0,0:0:0:50:Hat Close.wav
448,192,112697,1,0,0:0:0:0:
320,192,112756,1,8,0:0:0:0:
192,192,112815,1,8,0:0:0:0:
320,192,112874,1,8,0:0:0:0:
448,192,112874,1,0,0:0:0:0:
64,192,113050,1,8,0:0:0:0:
192,192,113050,1,0,0:0:0:0:
448,192,113227,1,0,0:0:0:0:
192,192,113227,1,0,0:0:0:50:Tom2.wav
64,192,113403,1,0,0:0:0:50:Tom2.wav
320,192,113403,1,0,0:0:0:0:
64,192,113580,1,2,0:0:0:0:
192,192,113580,1,4,0:0:0:0:
448,192,113580,1,0,0:0:0:0:
64,192,113933,1,2,0:0:0:0:
320,192,113933,1,0,0:0:0:40:Ride.wav
320,192,114109,1,0,0:0:0:0:
192,192,114109,1,0,0:0:0:0:
64,192,114286,1,8,0:0:0:0:
192,192,114286,1,0,0:0:0:40:Ride.wav
448,192,114286,1,0,0:0:0:0:
320,192,114462,1,0,0:0:0:0:
448,192,114462,1,0,0:0:0:0:
192,192,114638,1,0,0:0:0:40:Ride.wav
64,192,114638,1,2,0:0:0:0:
448,192,114815,1,0,0:0:0:0:
192,192,114815,1,8,0:0:0:0:
320,192,114815,1,0,0:0:0:0:
64,192,114952,1,0,0:0:0:0:
320,192,114991,1,2,0:0:0:0:
192,192,114991,1,0,0:0:0:40:Ride.wav
448,192,115031,1,0,0:0:0:0:
64,192,115109,1,0,0:0:0:0:
320,192,115168,1,8,0:0:0:0:
448,192,115168,1,0,0:0:0:0:
64,192,115344,1,2,0:0:0:0:
192,192,115344,1,0,0:0:0:40:Ride.wav
448,192,115403,1,0,0:0:0:0:
320,192,115521,1,0,0:0:0:0:
64,192,115609,1,0,0:0:0:0:
192,192,115697,1,8,0:0:0:0:
448,192,115697,1,0,0:0:0:40:Ride.wav
320,192,115874,1,0,0:0:0:0:
192,192,115874,1,0,0:0:0:50:Tom2.wav
64,192,116050,1,0,0:0:0:40:Ride.wav
320,192,116050,1,0,0:0:0:50:Tom3.wav
64,192,116227,1,0,0:0:0:0:
448,192,116227,1,0,0:0:0:0:
192,192,116403,1,4,0:0:0:0:
320,192,116403,1,2,0:0:0:0:
448,192,116403,1,0,0:0:0:0:
192,192,116580,1,0,0:0:0:0:
64,192,116580,1,8,0:0:0:0:
320,192,116668,1,8,0:0:0:0:
448,192,116668,1,0,0:0:0:0:
64,192,116756,1,8,0:0:0:0:
192,192,116756,1,0,0:0:0:0:
64,192,116933,1,2,0:0:0:0:
320,192,116933,1,0,0:0:0:35:Hat Open.wav
448,192,116933,1,0,0:0:0:0:
320,192,117109,1,0,0:0:0:0:
64,192,117286,1,2,0:0:0:0:
192,192,117286,1,0,0:0:0:35:Hat Open.wav
448,192,117286,1,0,0:0:0:0:
64,192,117462,1,8,0:0:0:0:
320,192,117462,1,0,0:0:0:0:
448,192,117462,1,0,0:0:0:0:
192,192,117638,1,4,0:0:0:0:
320,192,117638,128,0,117991:0:0:0:0:
64,192,117638,1,2,0:0:0:0:
64,192,117991,1,8,0:0:0:0:
448,192,117991,1,0,0:0:0:0:
192,192,118080,1,8,0:0:0:0:
320,192,118168,1,10,0:0:0:0:
448,192,118168,1,0,0:0:0:50:Tom1.wav
64,192,118344,1,8,0:0:0:0:
192,192,118344,1,0,0:0:0:0:
320,192,118433,1,8,0:0:0:0:
448,192,118521,1,2,0:0:0:0:
64,192,118521,1,8,0:0:0:0:
192,192,118609,1,8,0:0:0:0:
320,192,118697,1,8,0:0:0:0:
448,192,118697,1,0,0:0:0:0:
192,192,118786,1,0,0:0:0:0:
64,192,118874,1,2,0:0:0:0:
448,192,118874,1,8,0:0:0:0:
320,192,118962,1,8,0:0:0:0:
448,192,119050,1,0,0:0:0:0:
64,192,119050,1,8,0:0:0:0:
192,192,119138,1,8,0:0:0:0:
64,192,119227,1,4,0:0:0:0:
320,192,119227,1,2,0:0:0:0:
448,192,119227,1,0,0:0:0:0:
192,192,119403,1,0,0:0:0:0:
192,192,119580,1,2,0:0:0:0:
64,192,119580,1,8,0:0:0:0:
320,192,119580,1,0,0:0:0:0:
448,192,119756,1,0,0:0:0:0:
64,192,119933,1,2,0:0:0:0:
320,192,119933,1,0,0:0:0:0:
448,192,119933,128,0,120286:0:0:0:0:
192,192,120109,1,0,0:0:0:35:Hat Open.wav
64,192,120286,1,8,0:0:0:0:
192,192,120286,1,0,0:0:0:0:
320,192,120286,1,0,0:0:0:0:
448,192,120462,1,0,0:0:0:0:
320,192,120462,1,4,0:0:0:0:
64,192,120462,128,2,120815:0:0:0:0:
320,192,120815,1,2,0:0:0:0:
448,192,120815,1,0,0:0:0:35:Hat Open.wav
64,192,120991,1,8,0:0:0:0:
192,192,120991,1,0,0:0:0:0:
448,192,120991,1,0,0:0:0:0:
320,192,121168,1,0,0:0:0:0:
192,192,121168,1,0,0:0:0:35:Hat Open.wav
64,192,121168,1,2,0:0:0:0:
448,192,121344,1,0,0:0:0:0:
320,192,121433,1,8,0:0:0:0:
64,192,121521,1,2,0:0:0:0:
192,192,121521,1,0,0:0:0:35:Hat Open.wav
448,192,121521,1,0,0:0:0:0:
192,192,121697,1,8,0:0:0:0:
320,192,121697,1,0,0:0:0:0:
448,192,121697,1,0,0:0:0:0:
64,192,121874,1,0,0:0:0:35:Hat Open.wav
64,192,122050,1,2,0:0:0:0:
320,192,122050,1,0,0:0:0:0:
448,192,122050,1,0,0:0:0:0:
192,192,122227,1,0,0:0:0:35:Hat Open.wav
64,192,122403,1,8,0:0:0:0:
192,192,122403,1,2,0:0:0:0:
320,192,122403,1,0,0:0:0:0:
448,192,122580,1,0,0:0:0:35:Hat Open.wav
64,192,122756,1,2,0:0:0:0:
192,192,122756,128,0,123109:0:0:0:0:
448,192,122756,1,0,0:0:0:0:
320,192,122933,1,0,0:0:0:35:Hat Open.wav
64,192,123109,1,8,0:0:0:0:
320,192,123109,1,0,0:0:0:0:
448,192,123109,1,0,0:0:0:0:
448,192,123286,128,0,123638:0:0:0:0:
192,192,123286,1,4,0:0:0:0:
64,192,123286,1,2,0:0:0:0:
320,192,123462,1,0,0:0:0:0:
64,192,123638,1,2,0:0:0:0:
320,192,123638,1,0,0:0:0:35:Hat Open.wav
64,192,123815,1,8,0:0:0:0:
192,192,123815,1,0,0:0:0:0:
448,192,123815,1,0,0:0:0:0:
448,192,123991,1,0,0:0:0:0:
192,192,123991,128,2,124344:0:0:0:0:
320,192,123991,1,4,0:0:0:0:
320,192,124168,1,0,0:0:0:0:
64,192,124256,1,8,0:0:0:0:
320,192,124344,1,2,0:0:0:0:
448,192,124344,1,0,0:0:0:35:Hat Open.wav
64,192,124521,1,8,0:0:0:0:
192,192,124521,1,0,0:0:0:0:
448,192,124521,1,0,0:0:0:0:
320,192,124697,1,8,0:0:0:0:
192,192,124786,1,8,0:0:0:0:
64,192,124874,1,4,0:0:0:0:
320,192,124874,1,2,0:0:0:0:
448,192,124874,1,0,0:0:0:0:
320,192,125050,1,0,0:0:0:0:
448,192,125227,1,0,0:0:0:0:
64,192,125227,1,8,0:0:0:0:
192,192,125227,1,2,0:0:0:0:
320,192,125403,1,0,0:0:0:35:Hat Open.wav
64,192,125580,128,2,125933:0:0:0:0:
320,192,125580,1,0,0:0:0:0:
448,192,125580,1,0,0:0:0:0:
192,192,125756,1,0,0:0:0:35:Hat Open.wav
192,192,125933,1,8,0:0:0:0:
320,192,125933,1,0,0:0:0:0:
448,192,125933,1,0,0:0:0:0:
64,192,126109,1,2,0:0:0:0:
320,192,126109,1,4,0:0:0:0:
448,192,126109,128,0,126462:0:0:0:0:
64,192,126462,1,2,0:0:0:0:
192,192,126462,1,0,0:0:0:35:Hat Open.wav
320,192,126638,1,0,0:0:0:0:
64,192,126638,1,8,0:0:0:0:
448,192,126638,1,0,0:0:0:0:
320,192,126815,1,0,0:0:0:35:Hat Open.wav
192,192,126815,1,2,0:0:0:0:
448,192,126815,1,0,0:0:0:0:
192,192,126991,1,0,0:0:0:0:
448,192,127080,1,8,0:0:0:0:
64,192,127168,1,2,0:0:0:0:
320,192,127168,1,0,0:0:0:35:Hat Open.wav
64,192,127344,1,8,0:0:0:0:
192,192,127344,1,0,0:0:0:0:
320,192,127344,1,0,0:0:0:0:
448,192,127521,1,8,0:0:0:0:
320,192,127609,1,8,0:0:0:0:
448,192,127697,1,0,0:0:0:0:
64,192,127697,128,2,128050:0:0:0:0:
192,192,127697,1,4,0:0:0:0:
192,192,128050,1,8,0:0:0:0:
320,192,128050,1,2,0:0:0:0:
448,192,128050,1,0,0:0:0:0:
448,192,128227,128,0,128580:0:0:0:0:
64,192,128227,1,0,0:0:0:35:Hat Open.wav
320,192,128403,1,2,0:0:0:0:
192,192,128491,1,8,0:0:0:0:
64,192,128580,1,0,0:0:0:35:Hat Open.wav
320,192,128580,1,0,0:0:0:0:
64,192,128756,1,8,0:0:0:0:
192,192,128756,1,0,0:0:0:0:
448,192,128756,1,0,0:0:0:0:
192,192,128933,128,2,129286:0:0:0:0:
320,192,128933,1,4,0:0:0:0:
448,192,128933,1,0,0:0:0:0:
448,192,129286,1,0,0:0:0:50:Tom1.wav
320,192,129374,1,0,0:0:0:50:Tom1.wav
64,192,129462,1,0,0:0:0:50:Tom2.wav
192,192,129462,1,0,0:0:0:0:
320,192,129638,1,2,0:0:0:0:
192,192,129727,1,0,0:0:0:50:Tom2.wav
64,192,129815,1,0,0:0:0:50:Tom2.wav
448,192,129815,1,0,0:0:0:0:
448,192,129991,1,0,0:0:0:0:
320,192,129991,1,0,0:0:0:50:Tom1.wav
192,192,129991,1,8,0:0:0:0:
64,192,130168,1,8,0:0:0:0:
192,192,130168,1,0,0:0:0:0:
320,192,130168,1,0,0:0:0:0:
448,192,130344,1,8,0:0:0:0:
320,192,130433,1,8,0:0:0:0:
192,192,130521,1,2,0:0:0:0:
448,192,130521,1,0,0:0:0:0:
64,192,130521,1,4,0:0:0:0:
320,192,130697,1,0,0:0:0:0:
64,192,130874,1,2,0:0:0:0:
320,192,130874,1,8,0:0:0:0:
448,192,130874,1,0,0:0:0:40:Ride.wav
192,192,131050,1,0,0:0:0:0:
192,192,131227,1,0,0:0:0:40:Ride.wav
64,192,131227,1,8,0:0:0:0:
448,192,131227,128,0,131580:0:0:0:0:
320,192,131403,1,0,0:0:0:0:
64,192,131580,1,0,0:0:0:40:Ride.wav
192,192,131580,1,0,0:0:0:0:
320,192,131668,1,0,0:0:0:0:
64,192,131756,128,2,132109:0:0:0:0:
192,192,131756,1,0,0:0:0:0:
448,192,131756,1,0,0:0:0:0:
320,192,131933,1,0,0:0:0:40:Ride.wav
448,192,132109,1,0,0:0:0:0:
192,192,132109,1,8,0:0:0:0:
64,192,132286,1,2,0:0:0:0:
320,192,132286,1,0,0:0:0:40:Ride.wav
192,192,132462,1,0,0:0:0:0:
320,192,132491,1,0,0:0:0:0:
64,192,132638,1,8,0:0:0:0:
448,192,132638,1,0,0:0:0:40:Ride.wav
320,192,132661,1,0,0:0:0:0:
192,192,132815,1,0,0:0:0:0:
448,192,132844,1,0,0:0:0:0:
64,192,132991,1,2,0:0:0:0:
192,192,132991,1,0,0:0:0:40:Ride.wav
448,192,133168,1,0,0:0:0:0:
192,192,133256,1,8,0:0:0:0:
64,192,133344,1,4,0:0:0:0:
320,192,133344,1,2,0:0:0:0:
448,192,133344,1,0,0:0:0:0:
192,192,133521,1,0,0:0:0:0:
320,192,133697,1,0,0:0:0:0:
64,192,133697,1,2,0:0:0:0:
192,192,133697,1,0,0:0:0:40:Ride.wav
448,192,133874,1,0,0:0:0:0:
64,192,134050,1,8,0:0:0:0:
320,192,134050,128,0,134403:0:0:0:40:Ride.wav
448,192,134050,1,0,0:0:0:0:
192,192,134227,1,0,0:0:0:0:
448,192,134403,1,0,0:0:0:40:Ride.wav
64,192,134403,1,8,0:0:0:0:
64,192,134580,1,2,0:0:0:0:
192,192,134580,128,0,134933:0:0:0:0:
320,192,134580,1,0,0:0:0:0:
448,192,134756,1,0,0:0:0:0:
320,192,134933,1,2,0:0:0:0:
448,192,134933,1,0,0:0:0:0:
64,192,135109,1,8,0:0:0:0:
192,192,135109,1,0,0:0:0:0:
64,192,135286,1,2,0:0:0:0:
320,192,135286,1,0,0:0:0:35:Hat Open.wav
448,192,135286,1,0,0:0:0:0:
192,192,135462,1,0,0:0:0:0:
64,192,135638,1,2,0:0:0:0:
320,192,135638,1,4,0:0:0:0:
448,192,135638,1,0,0:0:0:0:
320,192,135815,1,0,0:0:0:0:
448,192,135815,1,0,0:0:0:0:
192,192,135815,1,8,0:0:0:0:
64,192,135991,1,0,0:0:0:0:
192,192,136080,1,8,0:0:0:0:
64,192,136168,1,2,0:0:0:0:
320,192,136168,1,4,0:0:0:0:
448,192,136168,1,0,0:0:0:0:
448,192,136344,1,0,0:0:0:0:
192,192,136521,1,0,0:0:0:40:Ride.wav
64,192,136521,1,2,0:0:0:0:
320,192,136697,1,0,0:0:0:0:
64,192,136874,1,8,0:0:0:0:
320,192,136874,1,0,0:0:0:40:Ride.wav
448,192,136874,1,0,0:0:0:0:
192,192,137050,1,0,0:0:0:0:
320,192,137138,1,8,0:0:0:0:
64,192,137227,1,0,0:0:0:40:Ride.wav
448,192,137227,1,0,0:0:0:0:
320,192,137403,1,0,0:0:0:0:
64,192,137403,1,8,0:0:0:0:
192,192,137403,1,2,0:0:0:0:
448,192,137580,1,0,0:0:0:40:Ride.wav
64,192,137756,1,2,0:0:0:0:
192,192,137756,1,0,0:0:0:0:
320,192,137844,1,8,0:0:0:20:soft-hitclap.wav
64,192,137933,1,0,0:0:0:40:Ride.wav
448,192,137933,1,0,0:0:0:0:
192,192,138109,1,2,0:0:0:0:
320,192,138109,1,0,0:0:0:0:
64,192,138286,1,8,0:0:0:0:
192,192,138286,1,0,0:0:0:35:Hat Open.wav
448,192,138286,1,0,0:0:0:0:
64,192,138462,1,0,0:0:0:50:Tom1.wav
320,192,138462,1,0,0:0:0:0:
448,192,138638,1,0,0:0:0:0:
320,192,138638,1,0,0:0:0:50:Tom2.wav
192,192,138815,1,0,0:0:0:50:Tom3.wav
320,192,138903,1,0,0:0:0:0:
64,192,138991,1,4,0:0:0:0:
192,192,138991,1,8,0:0:0:0:
448,192,138991,128,0,139344:0:0:0:0:
64,192,139168,1,2,0:0:0:0:
192,192,139344,1,2,0:0:0:0:
320,192,139344,1,0,0:0:0:0:
64,192,139521,128,4,139874:0:0:0:0:
192,192,139521,1,8,0:0:0:0:
448,192,139521,1,0,0:0:0:0:
448,192,139697,1,0,0:0:0:50:Tom3.wav
192,192,139874,1,0,0:0:0:50:Tom3.wav
320,192,139874,1,0,0:0:0:0:
64,192,140050,1,8,0:0:0:0:
320,192,140050,128,4,141109:0:0:0:0:
448,192,140050,1,0,0:0:0:0:
64,192,141109,128,0,141815:0:0:0:0:
448,192,141286,1,0,0:0:0:0:
192,192,141286,1,2,0:0:0:0:
192,192,141462,1,0,0:0:0:50:Tom1.wav
320,192,141462,1,0,0:0:0:0:
320,192,141815,1,4,0:0:0:0:
448,192,141815,128,0,143580:0:0:0:0:
192,192,141991,1,0,0:0:0:0:
64,192,142168,1,0,0:0:0:40:Hat Close.wav
320,192,142344,1,0,0:0:0:40:Hat Close.wav
192,192,142697,1,0,0:0:0:40:Hat Close.wav
320,192,142874,1,0,0:0:0:0:
64,192,143050,1,0,0:0:0:40:Hat Close.wav
192,192,143580,1,0,0:0:0:40:Hat Close.wav
64,192,143933,1,0,0:0:0:60:Ride.wav
448,192,143933,1,0,0:0:0:0:
64,192,144286,1,0,0:0:0:60:Ride.wav
320,192,144286,1,0,0:0:0:0:
192,192,144462,1,0,0:0:0:25:Ride.wav
320,192,144550,1,0,0:0:0:25:Ride.wav
448,192,144638,1,0,0:0:0:0:
64,192,144638,1,0,0:0:0:60:Ride.wav
320,192,144815,1,0,0:0:0:0:
192,192,144991,1,0,0:0:0:0:
320,192,145168,1,0,0:0:0:25:Ride.wav
448,192,145168,1,0,0:0:0:0:
64,192,145344,1,0,0:0:0:50:Ride.wav
192,192,145344,1,0,0:0:0:0:
320,192,145521,1,0,0:0:0:0:
448,192,145697,1,0,0:0:0:0:
192,192,145874,1,0,0:0:0:0:
64,192,145874,1,0,0:0:0:0:
320,192,145962,1,0,0:0:0:50:Tom1.wav
64,192,146050,1,0,0:0:0:50:Tom1.wav
448,192,146050,1,0,0:0:0:0:
192,192,146227,1,0,0:0:0:0:
320,192,146403,1,0,0:0:0:50:Tom3.wav
192,192,146491,1,0,0:0:0:50:Tom3.wav
448,192,146580,1,0,0:0:0:0:
64,192,146580,1,0,0:0:0:50:Tom2.wav
192,192,146756,1,0,0:0:0:50:Tom3.wav
320,192,146756,1,0,0:0:0:0:
64,192,146933,1,2,0:0:0:0:
192,192,146933,1,0,0:0:0:0:
320,192,147109,1,0,0:0:0:50:Tom1.wav
448,192,147109,1,0,0:0:0:0:
64,192,147462,1,4,0:0:0:0:
192,192,147462,1,2,0:0:0:0:
448,192,147462,1,0,0:0:0:0:
320,192,147638,1,0,0:0:0:0:
192,192,147815,1,0,0:0:0:0:
64,192,147991,1,0,0:0:0:0:
448,192,148168,1,0,0:0:0:0:
320,192,148344,1,0,0:0:0:0:
192,192,148521,1,0,0:0:0:0:
448,192,148697,1,0,0:0:0:0:
64,192,148874,1,0,0:0:0:0:
192,192,149050,1,0,0:0:0:0:
320,192,149050,1,0,0:0:0:0:
64,192,149227,1,0,0:0:0:0:
448,192,149227,1,0,0:0:0:0:
320,192,149403,1,0,0:0:0:30:Ride.wav
64,192,149580,1,0,0:0:0:60:Ride.wav
192,192,149580,1,0,0:0:0:0:
448,192,149756,1,0,0:0:0:0:
320,192,149933,1,0,0:0:0:40:Ride.wav
64,192,149933,1,2,0:0:0:0:
192,192,150109,1,0,0:0:0:0:
320,192,150286,1,2,0:0:0:0:
448,192,150286,1,0,0:0:0:40:Ride.wav
64,192,150638,1,0,0:0:0:0:
320,192,150815,1,0,0:0:0:0:
64,192,150991,1,0,0:0:0:0:
192,192,150991,128,0,151521:0:0:0:0:
448,192,151168,1,0,0:0:0:0:
320,192,151344,1,0,0:0:0:40:Ride.wav
64,192,151521,1,0,0:0:0:15:Ride.wav
320,192,151609,1,0,0:0:0:15:Ride.wav
192,192,151697,1,0,0:0:0:40:Ride.wav
448,192,151697,128,0,152050:0:0:0:0:
64,192,152227,128,0,152756:0:0:0:0:
320,192,152403,1,0,0:0:0:0:
448,192,152580,1,0,0:0:0:15:Ride.wav
448,192,152756,1,0,0:0:0:40:Ride.wav
192,192,152756,1,2,0:0:0:0:
320,192,153109,1,2,0:0:0:0:
448,192,153109,1,0,0:0:0:40:Ride.wav
64,192,153462,1,0,0:0:0:0:
192,192,153638,1,0,0:0:0:0:
448,192,153815,1,0,0:0:0:0:
320,192,153991,1,0,0:0:0:0:
64,192,154168,1,0,0:0:0:40:Ride.wav
192,192,154344,1,0,0:0:0:0:
320,192,154521,1,0,0:0:0:60:Ride.wav
448,192,154521,1,0,0:0:0:0:
192,192,154874,1,0,0:0:0:0:
64,192,155227,1,0,0:0:0:0:
448,192,155227,1,0,0:0:0:0:
64,192,155580,1,2,0:0:0:0:
192,192,155580,1,0,0:0:0:40:Ride.wav
320,192,155756,1,0,0:0:0:0:
192,192,155844,1,0,0:0:0:0:
320,192,155933,1,2,0:0:0:0:
448,192,155933,1,0,0:0:0:0:
64,192,156286,1,0,0:0:0:40:Ride.wav
448,192,156286,1,0,0:0:0:0:
64,192,156462,1,0,0:0:0:60:Ride.wav
320,192,156462,1,0,0:0:0:0:
192,192,156638,1,0,0:0:0:0:
320,192,156638,128,0,157168:0:0:0:0:
448,192,156815,1,0,0:0:0:0:
64,192,156991,1,0,0:0:0:0:
192,192,157168,1,0,0:0:0:60:Ride.wav
320,192,157256,1,0,0:0:0:40:Ride.wav
64,192,157344,1,2,0:0:0:0:
448,192,157344,128,0,157697:0:0:0:60:Ride.wav
192,192,157697,1,0,0:0:0:0:
64,192,157874,128,0,158227:0:0:0:0:
320,192,158050,1,0,0:0:0:40:Hat Close.wav
192,192,158227,1,2,0:0:0:0:
320,192,158315,1,0,0:0:0:40:Hat Close.wav
64,192,158403,1,0,0:0:0:35:Hat Open.wav
448,192,158403,1,0,0:0:0:0:
64,192,158756,1,2,0:0:0:0:
192,192,158756,1,4,0:0:0:0:
448,192,158756,1,0,0:0:0:0:
448,192,158933,1,0,0:0:0:0:
320,192,159109,1,0,0:0:0:50:Hat Close.wav
192,192,159109,1,2,0:0:0:0:
320,192,159286,1,0,0:0:0:30:Hat Close.wav
64,192,159462,1,2,0:0:0:0:
192,192,159462,1,0,0:0:0:50:Hat Close.wav
192,192,159638,1,0,0:0:0:30:Hat Close.wav
64,192,159815,1,2,0:0:0:0:
448,192,159815,1,0,0:0:0:50:Hat Close.wav
64,192,159991,1,0,0:0:0:30:Hat Close.wav
448,192,160080,1,0,0:0:0:30:Hat Close.wav
320,192,160168,1,0,0:0:0:50:Hat Close.wav
192,192,160168,1,2,0:0:0:0:
320,192,160344,1,0,0:0:0:30:Hat Close.wav
192,192,160521,1,2,0:0:0:0:
448,192,160521,1,0,0:0:0:50:Hat Close.wav
448,192,160697,1,0,0:0:0:30:Hat Close.wav
64,192,160874,1,2,0:0:0:0:
320,192,160874,1,0,0:0:0:50:Hat Close.wav
192,192,160962,1,0,0:0:0:30:Hat Close.wav
448,192,161050,1,0,0:0:0:0:
64,192,161050,1,0,0:0:0:35:Hat Open.wav
192,192,161227,1,2,0:0:0:0:
448,192,161227,1,0,0:0:0:50:Hat Close.wav
192,192,161403,1,0,0:0:0:30:Hat Close.wav
320,192,161491,1,0,0:0:0:30:Hat Close.wav
64,192,161580,1,8,0:0:0:0:
192,192,161580,1,0,0:0:0:35:Hat Open.wav
448,192,161580,1,0,0:0:0:0:
320,192,161756,1,0,0:0:0:0:
192,192,161933,1,2,0:0:0:0:
448,192,161933,1,0,0:0:0:50:Hat Close.wav
192,192,162109,1,0,0:0:0:30:Hat Close.wav
64,192,162286,1,2,0:0:0:0:
320,192,162286,1,0,0:0:0:50:Hat Close.wav
320,192,162462,1,8,0:0:0:0:
448,192,162462,1,0,0:0:0:35:Hat Open.wav
192,192,162638,1,0,0:0:0:50:Hat Close.wav
64,192,162638,1,2,0:0:0:0:
64,192,162815,1,0,0:0:0:30:Hat Close.wav
320,192,162991,1,8,0:0:0:0:
448,192,162991,1,0,0:0:0:35:Hat Open.wav
448,192,163168,1,0,0:0:0:30:Hat Close.wav
320,192,163256,1,0,0:0:0:30:Hat Close.wav
64,192,163344,1,0,0:0:0:50:Hat Close.wav
192,192,163344,1,0,0:0:0:50:Tom2.wav
192,192,163521,1,8,0:0:0:0:
320,192,163521,1,0,0:0:0:35:Hat Open.wav
64,192,163697,1,2,0:0:0:0:
448,192,163697,1,0,0:0:0:40:Hat Close.wav
320,192,163786,1,0,0:0:0:40:Hat Close.wav
64,192,163874,1,0,0:0:0:40:Hat Close.wav
192,192,164050,1,10,0:0:0:0:
448,192,164050,1,0,0:0:0:35:Hat Open.wav
320,192,164227,1,0,0:0:0:0:
64,192,164227,1,8,0:0:0:0:
192,192,164315,1,8,0:0:0:0:
64,192,164403,1,4,0:0:0:0:
320,192,164403,1,2,0:0:0:0:
448,192,164403,1,0,0:0:0:0:
448,192,164580,1,0,0:0:0:0:
64,192,164756,1,2,0:0:0:0:
192,192,164756,1,0,0:0:0:40:Hat Close.wav
192,192,164933,1,0,0:0:0:30:Hat Close.wav
320,192,165109,1,2,0:0:0:0:
448,192,165109,1,0,0:0:0:40:Hat Close.wav
64,192,165286,1,0,0:0:0:30:Hat Close.wav
192,192,165374,1,0,0:0:0:30:Hat Close.wav
64,192,165462,1,2,0:0:0:0:
320,192,165462,1,8,0:0:0:0:
448,192,165462,1,0,0:0:0:35:Hat Open.wav
320,192,165638,1,8,0:0:0:0:
448,192,165638,1,0,0:0:0:0:
192,192,165727,1,8,0:0:0:0:
64,192,165815,1,2,0:0:0:0:
320,192,165815,1,0,0:0:0:35:Hat Open.wav
448,192,165815,1,0,0:0:0:0:
192,192,165991,1,0,0:0:0:0:
192,192,166168,1,2,0:0:0:0:
320,192,166168,1,0,0:0:0:0:
320,192,166344,1,0,0:0:0:35:Hat Open.wav
448,192,166521,1,0,0:0:0:0:
64,192,166521,1,2,0:0:0:0:
64,192,166697,1,8,0:0:0:0:
192,192,166697,1,0,0:0:0:50:Tom1.wav
320,192,166697,1,0,0:0:0:0:
192,192,166874,1,8,0:0:0:0:
320,192,166874,1,0,0:0:0:50:Tom1.wav
448,192,166874,1,0,0:0:0:0:
64,192,167050,1,8,0:0:0:0:
192,192,167050,1,0,0:0:0:0:
320,192,167138,1,8,0:0:0:0:
64,192,167227,1,4,0:0:0:0:
192,192,167227,1,2,0:0:0:0:
448,192,167227,128,0,167580:0:0:0:0:
64,192,167580,1,2,0:0:0:0:
320,192,167580,1,0,0:0:0:0:
64,192,167756,1,4,0:0:0:0:
192,192,167756,128,8,168109:0:0:0:0:
448,192,167756,1,0,0:0:0:0:
448,192,167933,1,2,0:0:0:0:
64,192,168109,1,2,0:0:0:0:
320,192,168109,1,0,0:0:0:0:
192,192,168286,1,8,0:0:0:0:
320,192,168286,128,4,168638:0:0:0:0:
448,192,168286,1,0,0:0:0:0:
192,192,168462,1,2,0:0:0:0:
64,192,168638,1,2,0:0:0:0:
448,192,168638,1,0,0:0:0:0:
448,192,168815,1,0,0:0:0:0:
64,192,168815,128,4,169168:0:0:0:0:
320,192,168815,1,8,0:0:0:0:
192,192,169168,1,8,0:0:0:0:
320,192,169256,1,8,0:0:0:0:
64,192,169344,1,8,0:0:0:0:
192,192,169344,1,0,0:0:0:0:
448,192,169344,1,0,0:0:0:0:
320,192,169521,1,2,0:0:0:0:
448,192,169521,1,0,0:0:0:0:
320,192,169697,1,0,0:0:0:0:
192,192,169697,1,0,0:0:0:50:Tom1.wav
64,192,169874,1,2,0:0:0:0:
192,192,169874,1,0,0:0:0:0:
64,192,170050,1,4,0:0:0:0:
320,192,170050,1,2,0:0:0:0:
448,192,170050,128,0,170403:0:0:0:0:
320,192,170403,1,0,0:0:0:50:Tom3.wav
192,192,170403,1,8,0:0:0:0:
64,192,170403,1,2,0:0:0:0:
64,192,170580,1,8,0:0:0:0:
192,192,170580,1,0,0:0:0:50:Tom3.wav
320,192,170580,1,0,0:0:0:0:
64,192,170756,1,2,0:0:0:0:
320,192,170756,1,8,0:0:0:0:
448,192,170756,1,0,0:0:0:50:Tom3.wav
64,192,170933,1,8,0:0:0:0:
320,192,170933,1,0,0:0:0:50:Tom3.wav
448,192,170933,1,0,0:0:0:0:
64,192,171109,1,8,0:0:0:0:
320,192,171109,1,0,0:0:0:50:Tom3.wav
448,192,171109,1,0,0:0:0:0:
192,192,171286,1,4,0:0:0:0:
448,192,171286,1,0,0:0:0:0:
64,192,171286,1,2,0:0:0:0:
320,192,172168,128,0,172874:0:0:0:0:
192,192,172874,128,0,173580:0:0:0:0:
64,192,173580,1,2,0:0:0:0:
320,192,173580,1,8,0:0:0:0:
448,192,173580,1,0,0:0:0:0:
64,192,173756,1,2,0:0:0:0:
320,192,173756,1,8,0:0:0:0:
448,192,173756,1,0,0:0:0:35:Hat Open.wav
192,192,174109,1,0,0:0:0:0:
448,192,174286,1,0,0:0:0:0:
320,192,174462,1,0,0:0:0:0:
64,192,174462,1,2,0:0:0:0:
192,192,174638,1,8,0:0:0:0:
320,192,174638,1,4,0:0:0:0:
448,192,174638,1,0,0:0:0:0:
192,192,174815,1,0,0:0:0:0:
64,192,174991,1,8,0:0:0:0:
320,192,174991,1,0,0:0:0:0:
448,192,174991,1,0,0:0:0:0:
320,192,175168,1,0,0:0:0:0:
192,192,175168,1,8,0:0:0:0:
64,192,175344,1,8,0:0:0:0:
192,192,175344,1,0,0:0:0:0:
320,192,175433,1,8,0:0:0:0:
448,192,175433,1,0,0:0:0:0:
64,192,175521,1,4,0:0:0:0:
192,192,175521,128,2,175874:0:0:0:0:
64,192,175874,1,8,0:0:0:0:
320,192,175874,1,0,0:0:0:0:
448,192,175874,1,0,0:0:0:0:
192,192,176050,1,8,0:0:0:0:
320,192,176050,1,0,0:0:0:0:
448,192,176050,1,0,0:0:0:0:
64,192,176227,1,0,0:0:0:50:Tom1.wav
448,192,176227,1,0,0:0:0:0:
320,192,176315,1,0,0:0:0:50:Tom1.wav
192,192,176403,1,0,0:0:0:50:Tom1.wav
320,192,176491,1,0,0:0:0:50:Tom1.wav
64,192,176580,1,2,0:0:0:0:
448,192,176580,1,0,0:0:0:0:
64,192,176756,1,8,0:0:0:0:
192,192,176756,1,0,0:0:0:0:
320,192,176756,1,0,0:0:0:0:
448,192,176933,1,0,0:0:0:0:
320,192,177109,1,4,0:0:0:0:
448,192,177109,1,0,0:0:0:0:
64,192,177109,1,2,0:0:0:0:
192,192,177286,1,0,0:0:0:35:Hat Open.wav
64,192,177462,1,8,0:0:0:0:
192,192,177462,1,2,0:0:0:0:
320,192,177462,1,0,0:0:0:0:
448,192,177638,1,0,0:0:0:35:Hat Open.wav
192,192,177815,128,0,178168:0:0:0:0:
64,192,177815,1,2,0:0:0:0:
448,192,177815,1,0,0:0:0:0:
320,192,177991,1,0,0:0:0:35:Hat Open.wav
64,192,178168,1,8,0:0:0:0:
320,192,178168,1,0,0:0:0:0:
448,192,178168,1,0,0:0:0:0:
64,192,178344,128,4,178697:0:0:0:0:
192,192,178344,1,2,0:0:0:0:
448,192,178344,1,0,0:0:0:0:
320,192,178697,1,2,0:0:0:0:
448,192,178697,1,0,0:0:0:35:Hat Open.wav
448,192,178874,1,0,0:0:0:0:
64,192,178874,1,8,0:0:0:0:
192,192,178874,1,0,0:0:0:0:
64,192,179050,1,2,0:0:0:0:
192,192,179050,1,4,0:0:0:0:
320,192,179050,128,0,179403:0:0:0:0:
448,192,179403,1,0,0:0:0:0:
64,192,179403,1,2,0:0:0:0:
192,192,179403,1,0,0:0:0:35:Hat Open.wav
448,192,179580,1,0,0:0:0:0:
64,192,179580,1,8,0:0:0:0:
192,192,179580,1,0,0:0:0:0:
320,192,179756,1,8,0:0:0:0:
448,192,179756,1,0,0:0:0:0:
64,192,179844,1,8,0:0:0:0:
192,192,179844,1,0,0:0:0:0:
320,192,179933,1,4,0:0:0:0:
448,192,179933,1,2,0:0:0:0:
192,192,180109,1,0,0:0:0:0:
448,192,180286,1,0,0:0:0:0:
64,192,180286,1,8,0:0:0:0:
192,192,180286,1,2,0:0:0:0:
320,192,180462,1,0,0:0:0:35:Hat Open.wav
64,192,180638,1,2,0:0:0:0:
320,192,180638,1,0,0:0:0:0:
448,192,180638,1,0,0:0:0:0:
192,192,180815,1,0,0:0:0:35:Hat Open.wav
448,192,180991,1,0,0:0:0:0:
192,192,180991,1,0,0:0:0:0:
64,192,180991,1,8,0:0:0:0:
64,192,181168,128,4,181521:0:0:0:0:
320,192,181168,1,2,0:0:0:0:
448,192,181168,1,0,0:0:0:0:
320,192,181521,1,2,0:0:0:0:
448,192,181521,1,0,0:0:0:35:Hat Open.wav
192,192,181697,1,0,0:0:0:0:
448,192,181697,1,0,0:0:0:0:
64,192,181697,1,8,0:0:0:0:
192,192,181874,1,2,0:0:0:0:
320,192,181874,128,0,182227:0:0:0:35:Hat Open.wav
448,192,181874,1,0,0:0:0:0:
64,192,182050,1,0,0:0:0:0:
64,192,182227,1,2,0:0:0:0:
192,192,182227,1,0,0:0:0:35:Hat Open.wav
448,192,182227,1,0,0:0:0:0:
448,192,182403,1,0,0:0:0:0:
192,192,182403,1,8,0:0:0:0:
320,192,182403,1,0,0:0:0:0:
64,192,182580,1,8,0:0:0:0:
192,192,182580,1,0,0:0:0:0:
320,192,182668,1,8,0:0:0:0:
448,192,182668,1,0,0:0:0:0:
64,192,182756,128,4,183109:0:0:0:0:
192,192,182756,1,2,0:0:0:0:
320,192,183109,1,8,0:0:0:0:
448,192,183109,1,2,0:0:0:0:
448,192,183286,128,0,183638:0:0:0:35:Hat Open.wav
64,192,183462,1,2,0:0:0:0:
192,192,183462,1,0,0:0:0:0:
320,192,183638,1,0,0:0:0:35:Hat Open.wav
448,192,183815,1,0,0:0:0:0:
320,192,183815,1,0,0:0:0:0:
64,192,183815,1,8,0:0:0:0:
64,192,183991,1,4,0:0:0:0:
192,192,183991,128,2,184344:0:0:0:0:
448,192,183991,1,0,0:0:0:0:
320,192,184344,1,2,0:0:0:0:
448,192,184344,1,0,0:0:0:0:
64,192,184433,1,8,0:0:0:0:
192,192,184433,1,0,0:0:0:0:
320,192,184521,1,0,0:0:0:50:Tom1.wav
448,192,184521,1,0,0:0:0:0:
64,192,184697,1,2,0:0:0:0:
448,192,184697,1,0,0:0:0:0:
192,192,184786,1,8,0:0:0:0:
320,192,184786,1,0,0:0:0:0:
64,192,184874,1,8,0:0:0:0:
448,192,184874,1,0,0:0:0:0:
448,192,185050,1,0,0:0:0:0:
320,192,185050,1,8,0:0:0:0:
192,192,185138,1,0,0:0:0:0:
64,192,185138,1,8,0:0:0:0:
320,192,185227,1,2,0:0:0:0:
448,192,185227,1,0,0:0:0:0:
64,192,185315,1,8,0:0:0:0:
192,192,185315,1,0,0:0:0:0:
320,192,185403,1,8,0:0:0:0:
448,192,185403,1,0,0:0:0:0:
192,192,185491,1,8,0:0:0:0:
448,192,185580,1,0,0:0:0:0:
320,192,185580,1,2,0:0:0:0:
64,192,185580,1,4,0:0:0:0:
192,192,185756,1,0,0:0:0:0:
64,192,185933,1,2,0:0:0:0:
448,192,185933,1,0,0:0:0:0:
320,192,186109,1,0,0:0:0:0:
448,192,186153,1,0,0:0:0:0:
320,192,186263,1,0,0:0:0:0:
192,192,186286,1,0,0:0:0:35:Hat Open.wav
64,192,186286,1,8,0:0:0:0:
192,192,186462,1,0,0:0:0:0:
64,192,186638,1,0,0:0:0:50:Hat Close.wav
64,192,186815,1,2,0:0:0:0:
320,192,186815,1,0,0:0:0:50:Hat Close.wav
448,192,186815,1,0,0:0:0:0:
448,192,186991,1,0,0:0:0:35:Hat Open.wav
192,192,187168,1,2,0:0:0:0:
320,192,187168,1,0,0:0:0:0:
64,192,187344,1,2,0:0:0:0:
320,192,187344,1,0,0:0:0:0:
448,192,187344,1,0,0:0:0:0:
64,192,187521,1,0,0:0:0:0:
192,192,187609,1,0,0:0:0:0:
320,192,187697,1,8,0:0:0:0:
448,192,187697,1,0,0:0:0:35:Hat Open.wav
64,192,187798,1,0,0:0:0:0:
192,192,187909,1,0,0:0:0:0:
320,192,187980,1,0,0:0:0:0:
64,192,188050,1,2,0:0:0:0:
448,192,188050,1,0,0:0:0:0:
192,192,188080,1,0,0:0:0:0:
320,192,188168,1,0,0:0:0:0:
192,192,188286,1,0,0:0:0:0:
320,192,188315,1,8,0:0:0:0:
64,192,188403,1,2,0:0:0:0:
192,192,188403,1,4,0:0:0:0:
448,192,188403,1,0,0:0:0:0:
320,192,188580,1,0,0:0:0:0:
64,192,188756,1,0,0:0:0:50:Hat Close.wav
192,192,188756,1,0,0:0:0:50:Tom3.wav
448,192,188756,1,0,0:0:0:0:
320,192,188933,1,0,0:0:0:50:Tom3.wav
448,192,189109,128,0,189462:0:0:0:0:
320,192,189109,1,0,0:0:0:35:Hat Open.wav
64,192,189109,1,8,0:0:0:0:
64,192,189462,1,2,0:0:0:0:
320,192,189462,1,0,0:0:0:0:
64,192,189638,1,4,0:0:0:0:
192,192,189638,128,2,189991:0:0:0:0:
448,192,189638,1,0,0:0:0:0:
320,192,189815,1,0,0:0:0:0:
448,192,189991,1,0,0:0:0:0:
64,192,189991,1,8,0:0:0:0:
320,192,190168,1,2,0:0:0:0:
192,192,190256,1,0,0:0:0:0:
64,192,190344,1,2,0:0:0:0:
320,192,190344,1,0,0:0:0:35:Hat Open.wav
448,192,190344,1,0,0:0:0:0:
448,192,190521,1,0,0:0:0:0:
192,192,190521,1,8,0:0:0:0:
192,192,190697,1,2,0:0:0:0:
320,192,190697,1,0,0:0:0:0:
64,192,190697,128,4,191050:0:0:0:0:
320,192,191050,1,8,0:0:0:0:
448,192,191050,1,0,0:0:0:0:
64,192,191138,1,8,0:0:0:0:
192,192,191138,1,0,0:0:0:0:
320,192,191227,1,4,0:0:0:0:
448,192,191227,1,2,0:0:0:0:
192,192,191403,1,0,0:0:0:0:
448,192,191580,1,0,0:0:0:0:
64,192,191580,1,2,0:0:0:0:
192,192,191580,1,0,0:0:0:40:Ride.wav
320,192,191756,1,0,0:0:0:0:
64,192,191933,1,8,0:0:0:0:
320,192,191933,1,0,0:0:0:40:Ride.wav
448,192,191933,1,0,0:0:0:0:
192,192,192109,1,0,0:0:0:0:
448,192,192286,1,0,0:0:0:0:
192,192,192286,1,0,0:0:0:0:
64,192,192286,1,0,0:0:0:50:Hat Close.wav
64,192,192462,1,2,0:0:0:0:
320,192,192462,1,0,0:0:0:50:Hat Close.wav
448,192,192462,1,0,0:0:0:0:
192,192,192638,1,0,0:0:0:35:Hat Open.wav
64,192,192815,1,2,0:0:0:0:
320,192,192815,1,0,0:0:0:0:
192,192,192991,1,0,0:0:0:50:Hat Close.wav
320,192,193168,1,0,0:0:0:50:Hat Close.wav
64,192,193344,1,8,0:0:0:0:
192,192,193344,1,0,0:0:0:35:Hat Open.wav
448,192,193344,1,0,0:0:0:0:
192,192,193521,1,0,0:0:0:50:Tom2.wav
320,192,193521,1,0,0:0:0:0:
320,192,193697,1,0,0:0:0:50:Tom3.wav
448,192,193697,1,0,0:0:0:0:
448,192,193874,1,0,0:0:0:0:
64,192,193874,1,0,0:0:0:0:
64,192,194050,1,8,0:0:0:0:
192,192,194050,1,4,0:0:0:0:
320,192,194050,1,0,0:0:0:0:
192,192,194227,1,0,0:0:0:50:Tom3.wav
448,192,194227,1,0,0:0:0:0:
320,192,194403,1,0,0:0:0:50:Tom3.wav
448,192,194403,1,0,0:0:0:0:
64,192,194580,1,8,0:0:0:0:
192,192,194580,1,4,0:0:0:0:
320,192,194580,1,0,0:0:0:0:
192,192,194756,1,0,0:0:0:50:Tom3.wav
448,192,194756,1,0,0:0:0:0:
64,192,194933,1,0,0:0:0:50:Tom1.wav
320,192,194933,1,0,0:0:0:0:
320,192,195109,1,4,0:0:0:0:
448,192,195109,128,0,195815:0:0:0:0:
192,192,195109,1,8,0:0:0:0:
320,192,195815,1,0,0:0:0:0:
192,192,195991,1,0,0:0:0:20:Ride.wav
320,192,196080,1,0,0:0:0:20:Ride.wav
64,192,196168,128,0,196521:0:0:0:40:Ride.wav
448,192,196168,1,0,0:0:0:0:
320,192,196344,1,0,0:0:0:0:
192,192,196521,1,0,0:0:0:0:
320,192,196697,1,0,0:0:0:0:
192,192,196874,128,0,197227:0:0:0:40:Ride.wav
448,192,196874,1,0,0:0:0:0:
320,192,197403,1,0,0:0:0:0:
320,192,197580,128,0,197933:0:0:0:0:
192,192,198109,1,0,0:0:0:0:
320,192,198286,1,0,0:0:0:50:Tom3.wav
64,192,198286,1,8,0:0:0:0:
448,192,198286,1,0,0:0:0:0:
320,192,198462,1,0,0:0:0:50:Tom3.wav
64,192,198462,1,2,0:0:0:0:
448,192,198462,1,0,0:0:0:0:
192,192,198638,1,0,0:0:0:0:
320,192,198991,1,0,0:0:0:0:
448,192,199344,128,0,199874:0:0:0:0:
192,192,199874,128,0,201021:0:0:0:0:
320,192,200050,128,0,200403:0:0:0:0:
64,192,200403,128,0,201021:0:0:0:0:
448,192,200756,128,0,201021:0:0:0:0:
64,192,201109,1,4,0:0:0:0:
320,192,201109,1,2,0:0:0:0:
448,192,201109,1,0,0:0:0:0:
320,192,201286,1,0,0:0:0:0:
64,192,201462,1,8,0:0:0:0:
192,192,201462,1,2,0:0:0:0:
448,192,201462,1,0,0:0:0:0:
320,192,201638,1,0,0:0:0:35:Hat Open.wav
192,192,201727,1,8,0:0:0:0:
320,192,201815,1,0,0:0:0:0:
448,192,201815,1,0,0:0:0:0:
64,192,201815,1,2,0:0:0:0:
448,192,201991,1,2,0:0:0:0:
64,192,202168,1,8,0:0:0:0:
192,192,202168,1,0,0:0:0:0:
320,192,202168,1,0,0:0:0:0:
64,192,202344,128,2,202697:0:0:0:0:
320,192,202344,1,0,0:0:0:35:Hat Open.wav
448,192,202344,1,0,0:0:0:0:
320,192,202697,1,2,0:0:0:0:
448,192,202697,1,0,0:0:0:35:Hat Open.wav
64,192,202874,1,8,0:0:0:0:
192,192,202874,1,0,0:0:0:0:
448,192,202874,1,0,0:0:0:0:
64,192,203050,1,2,0:0:0:0:
192,192,203050,1,0,0:0:0:35:Hat Open.wav
320,192,203050,1,0,0:0:0:0:
448,192,203227,1,0,0:0:0:0:
448,192,203403,1,0,0:0:0:0:
64,192,203403,1,2,0:0:0:0:
320,192,203403,1,0,0:0:0:35:Hat Open.wav
64,192,203580,1,8,0:0:0:0:
192,192,203580,1,0,0:0:0:0:
320,192,203580,1,0,0:0:0:0:
320,192,203756,1,2,0:0:0:0:
448,192,203756,1,8,0:0:0:0:
64,192,203844,1,8,0:0:0:0:
192,192,203844,1,0,0:0:0:0:
448,192,203933,1,0,0:0:0:0:
320,192,203933,1,2,0:0:0:0:
192,192,204109,1,0,0:0:0:35:Hat Open.wav
64,192,204286,1,2,0:0:0:0:
320,192,204286,1,8,0:0:0:0:
448,192,204286,1,0,0:0:0:0:
192,192,204462,1,0,0:0:0:35:Hat Open.wav
320,192,204550,1,8,0:0:0:0:
448,192,204638,1,0,0:0:0:0:
64,192,204638,1,2,0:0:0:0:
192,192,204638,1,0,0:0:0:0:
320,192,204815,1,2,0:0:0:0:
448,192,204815,1,0,0:0:0:35:Hat Open.wav
64,192,204991,1,8,0:0:0:0:
192,192,204991,1,0,0:0:0:0:
448,192,204991,1,0,0:0:0:0:
64,192,205168,1,4,0:0:0:0:
192,192,205168,1,2,0:0:0:0:
320,192,205168,128,0,205521:0:0:0:0:
448,192,205521,1,0,0:0:0:35:Hat Open.wav
64,192,205521,1,2,0:0:0:0:
192,192,205697,1,0,0:0:0:0:
448,192,205697,1,0,0:0:0:0:
64,192,205697,1,8,0:0:0:0:
192,192,205874,1,0,0:0:0:35:Hat Open.wav
320,192,205874,1,0,0:0:0:0:
64,192,205874,1,2,0:0:0:0:
64,192,206227,1,2,0:0:0:0:
192,192,206227,1,0,0:0:0:0:
448,192,206227,1,0,0:0:0:0:
192,192,206403,1,8,0:0:0:0:
320,192,206403,1,0,0:0:0:0:
448,192,206403,1,0,0:0:0:0:
64,192,206580,1,8,0:0:0:0:
192,192,206580,1,0,0:0:0:0:
320,192,206668,1,8,0:0:0:0:
448,192,206668,1,0,0:0:0:0:
64,192,206756,1,2,0:0:0:0:
192,192,206756,1,4,0:0:0:0:
320,192,206933,1,0,0:0:0:0:
192,192,207109,1,8,0:0:0:0:
448,192,207109,1,2,0:0:0:0:
64,192,207109,1,4,0:0:0:0:
320,192,207286,1,0,0:0:0:0:
192,192,207374,1,8,0:0:0:0:
64,192,207462,1,2,0:0:0:0:
320,192,207462,1,0,0:0:0:0:
448,192,207462,1,0,0:0:0:0:
192,192,207638,1,2,0:0:0:0:
448,192,207638,1,0,0:0:0:35:Hat Open.wav
64,192,207815,1,8,0:0:0:0:
192,192,207815,1,0,0:0:0:0:
320,192,207815,1,0,0:0:0:0:
64,192,207991,128,2,208344:0:0:0:0:
320,192,207991,1,4,0:0:0:0:
448,192,207991,1,0,0:0:0:0:
192,192,208168,1,0,0:0:0:50:Hat Close.wav
448,192,208344,1,0,0:0:0:35:Hat Open.wav
320,192,208344,1,2,0:0:0:0:
448,192,208521,1,0,0:0:0:0:
192,192,208521,1,0,0:0:0:0:
64,192,208521,1,8,0:0:0:0:
64,192,208697,1,4,0:0:0:0:
192,192,208697,1,2,0:0:0:0:
320,192,208786,1,8,0:0:0:0:
448,192,208786,1,0,0:0:0:0:
64,192,209050,1,2,0:0:0:0:
192,192,209050,1,0,0:0:0:0:
448,192,209050,1,0,0:0:0:0:
320,192,209138,1,8,0:0:0:0:
64,192,209227,1,0,0:0:0:50:Tom1.wav
192,192,209227,1,0,0:0:0:0:
192,192,209403,1,0,0:0:0:50:Tom2.wav
320,192,209403,1,0,0:0:0:0:
64,192,209580,1,8,0:0:0:0:
320,192,209580,1,2,0:0:0:0:
448,192,209580,1,0,0:0:0:50:Tom3.wav
448,192,209756,1,0,0:0:0:50:Tom3.wav
64,192,209756,1,2,0:0:0:0:
320,192,209756,1,8,0:0:0:0:
64,192,210109,1,8,0:0:0:0:
320,192,210109,1,2,0:0:0:0:
448,192,210109,1,0,0:0:0:50:Tom3.wav
64,192,210286,1,2,0:0:0:0:
320,192,210286,1,8,0:0:0:0:
448,192,210286,1,0,0:0:0:50:Tom3.wav
64,192,210638,1,2,0:0:0:0:
320,192,210638,1,8,0:0:0:0:
448,192,210638,1,0,0:0:0:50:Tom3.wav
64,192,210815,1,8,0:0:0:0:
320,192,210815,1,2,0:0:0:0:
448,192,210815,1,0,0:0:0:50:Tom3.wav
192,192,211168,1,2,0:0:0:0:
64,192,211168,1,8,0:0:0:0:
320,192,211168,1,0,0:0:0:50:Tom3.wav
192,192,211344,1,2,0:0:0:0:
64,192,211344,1,8,0:0:0:0:
320,192,211344,1,0,0:0:0:50:Tom3.wav
