osu file format v14

[General]
AudioFilename: audio.mp3
AudioLeadIn: 0
PreviewTime: 59756
Countdown: 0
SampleSet: Soft
StackLeniency: 0.7
Mode: 3
LetterboxInBreaks: 0
SpecialStyle: 0
WidescreenStoryboard: 1

[Editor]
Bookmarks: 639,6286,17580,28874,40168,51462,59933,71227,82521,85344,90991,102286,113580,119227,141815,147462,158756,174286,185580,201109
DistanceSpacing: 1.4
BeatDivisor: 4
GridSize: 16
TimelineZoom: 1.200005

[Metadata]
Title:Suki yo ~Two Hearts~
TitleUnicode:好きよ 〜Two Hearts〜
Artist:Nakano Nino (CV: Taketatsu Ayana)
ArtistUnicode:中野二乃 (CV: 竹達彩奈)
Creator:Drum-Hitnormal
Version:Easy
Source:五等分の花嫁∬
Tags:gotoubun no hanayome 2nd season the quintessential quintuplets anime japanese pop jpop j-pop j full ver version キャラクターソング・ミニアルバム character song mini album pccg-1965 リンク・プラン LINK・PLAN dudehacker ML-ysg keksikosu 廣澤優也 Hirosawa Yuya HANO 結城アイラ Yuuki Aira sukiyo
BeatmapID:3462663
BeatmapSetID:1424956

[Difficulty]
HPDrainRate:6.5
CircleSize:4
OverallDifficulty:6.5
ApproachRate:5
SliderMultiplier:1.4
SliderTickRate:1

[Events]
//Background and Video events
0,0,"73726785_p0.jpg",0,0
//Break Periods
//Storyboard Layer 0 (Background)
//Storyboard Layer 1 (Fail)
//Storyboard Layer 2 (Pass)
//Storyboard Layer 3 (Foreground)
//Storyboard Layer 4 (Overlay)
//Storyboard Sound Samples
Sample,5580,0,"Tom3.wav",50
Sample,5756,0,"Tom3.wav",50
Sample,7521,0,"Hat Open.wav",35
Sample,8227,0,"Hat Open.wav",35
Sample,8580,0,"Hat Open.wav",35
Sample,11050,0,"Hat Open.wav",35
Sample,15462,0,"Ride.wav",40
Sample,15991,0,"Ride.wav",40
Sample,16874,0,"Tom3.wav",50
Sample,17050,0,"Hat Open.wav",35
Sample,17050,0,"Tom3.wav",50
Sample,17933,0,"Hat Close.wav",50
Sample,18286,0,"Hat Close.wav",50
Sample,18638,0,"Hat Close.wav",50
Sample,18991,0,"Hat Close.wav",50
Sample,19344,0,"Hat Close.wav",50
Sample,19697,0,"Hat Close.wav",50
Sample,20050,0,"Hat Close.wav",50
Sample,20403,0,"Hat Close.wav",50
Sample,20756,0,"Hat Close.wav",50
Sample,21109,0,"Hat Close.wav",50
Sample,21462,0,"Hat Close.wav",50
Sample,21815,0,"Hat Close.wav",50
Sample,22168,0,"Hat Close.wav",50
Sample,27991,0,"Hat Open.wav",35
Sample,38050,0,"Ride.wav",40
Sample,38403,0,"Ride.wav",40
Sample,41227,0,"Hat Open.wav",35
Sample,41933,0,"Hat Open.wav",35
Sample,42462,0,"Tom3.wav",50
Sample,42638,0,"Tom3.wav",50
Sample,42815,0,"Tom3.wav",50
Sample,44050,0,"Hat Open.wav",35
Sample,44403,0,"Hat Open.wav",35
Sample,44756,0,"Hat Open.wav",35
Sample,52168,0,"Ride.wav",40
Sample,52874,0,"Ride.wav",40
Sample,53227,0,"Ride.wav",40
Sample,53580,0,"Ride.wav",40
Sample,53933,0,"Tom3.wav",50
Sample,55874,0,"Tom3.wav",50
Sample,56227,0,"Tom3.wav",50
Sample,56580,0,"Tom3.wav",50
Sample,56756,0,"Tom3.wav",50
Sample,56933,0,"Tom3.wav",50
Sample,59227,0,"Hat Open.wav",35
Sample,59227,0,"Tom3.wav",50
Sample,59403,0,"Hat Open.wav",35
Sample,59403,0,"Tom3.wav",50
Sample,61521,0,"Hat Open.wav",35
Sample,61874,0,"Hat Open.wav",35
Sample,62227,0,"Hat Open.wav",35
Sample,67168,0,"Hat Open.wav",35
Sample,67521,0,"Hat Open.wav",35
Sample,67874,0,"Hat Open.wav",35
Sample,69991,0,"Hat Open.wav",35
Sample,71580,0,"Ride.wav",40
Sample,71933,0,"Ride.wav",40
Sample,72991,0,"Ride.wav",40
Sample,74403,0,"Ride.wav",40
Sample,74756,0,"Ride.wav",40
Sample,75991,0,"Hat Open.wav",35
Sample,77227,0,"Ride.wav",40
Sample,77580,0,"Ride.wav",40
Sample,78638,0,"Tom3.wav",50
Sample,83933,0,"Tom3.wav",50
Sample,84109,0,"Tom3.wav",50
Sample,87286,0,"Hat Open.wav",35
Sample,87638,0,"Hat Open.wav",35
Sample,88168,0,"Tom3.wav",50
Sample,88344,0,"Tom3.wav",50
Sample,88697,0,"Tom3.wav",50
Sample,88874,0,"Tom3.wav",50
Sample,89227,0,"Tom3.wav",50
Sample,89403,0,"Tom3.wav",50
Sample,89756,0,"Tom3.wav",50
Sample,89933,0,"Tom3.wav",50
Sample,95756,0,"Hat Open.wav",35
Sample,96109,0,"Hat Open.wav",35
Sample,97344,0,"Ride.wav",40
Sample,97697,0,"Ride.wav",40
Sample,98050,0,"Ride.wav",40
Sample,98403,0,"Ride.wav",40
Sample,98756,0,"Ride.wav",40
Sample,99991,0,"Ride.wav",40
Sample,100521,0,"Hat Open.wav",35
Sample,103344,0,"Hat Open.wav",35
Sample,103697,0,"Hat Open.wav",35
Sample,104050,0,"Hat Open.wav",35
Sample,104227,0,"Hat Open.wav",35
Sample,104580,0,"Tom3.wav",50
Sample,104756,0,"Tom3.wav",50
Sample,104933,0,"Hat Open.wav",35
Sample,106168,0,"Hat Open.wav",35
Sample,106521,0,"Hat Open.wav",35
Sample,106874,0,"Hat Open.wav",35
Sample,107050,0,"Hat Open.wav",35
Sample,114286,0,"Ride.wav",40
Sample,114991,0,"Ride.wav",40
Sample,115344,0,"Ride.wav",40
Sample,115697,0,"Ride.wav",40
Sample,116050,0,"Tom3.wav",50
Sample,116933,0,"Hat Open.wav",35
Sample,117286,0,"Hat Open.wav",35
Sample,120815,0,"Hat Open.wav",35
Sample,121168,0,"Hat Open.wav",35
Sample,121521,0,"Hat Open.wav",35
Sample,126462,0,"Hat Open.wav",35
Sample,126815,0,"Hat Open.wav",35
Sample,127168,0,"Hat Open.wav",35
Sample,129991,0,"Tom1.wav",50
Sample,130874,0,"Ride.wav",40
Sample,131227,0,"Ride.wav",40
Sample,132286,0,"Ride.wav",40
Sample,133697,0,"Ride.wav",40
Sample,134050,0,"Ride.wav",40
Sample,134403,0,"Ride.wav",40
Sample,135286,0,"Hat Open.wav",35
Sample,136521,0,"Ride.wav",40
Sample,136874,0,"Ride.wav",40
Sample,149933,0,"Ride.wav",40
Sample,150286,0,"Ride.wav",40
Sample,153109,0,"Ride.wav",40
Sample,155580,0,"Ride.wav",40
Sample,157344,0,"Ride.wav",60
Sample,159109,0,"Hat Close.wav",50
Sample,159462,0,"Hat Close.wav",50
Sample,159815,0,"Hat Close.wav",50
Sample,160168,0,"Hat Close.wav",50
Sample,160521,0,"Hat Close.wav",50
Sample,160874,0,"Hat Close.wav",50
Sample,161227,0,"Hat Close.wav",50
Sample,161933,0,"Hat Close.wav",50
Sample,162286,0,"Hat Close.wav",50
Sample,162638,0,"Hat Close.wav",50
Sample,163344,0,"Tom2.wav",50
Sample,163697,0,"Hat Close.wav",40
Sample,164050,0,"Hat Open.wav",35
Sample,164756,0,"Hat Close.wav",40
Sample,165109,0,"Hat Close.wav",40
Sample,165462,0,"Hat Open.wav",35
Sample,165815,0,"Hat Open.wav",35
Sample,166874,0,"Tom1.wav",50
Sample,173756,0,"Hat Open.wav",35
Sample,181521,0,"Hat Open.wav",35
Sample,181874,0,"Hat Open.wav",35
Sample,182227,0,"Hat Open.wav",35
Sample,186286,0,"Hat Open.wav",35
Sample,186815,0,"Hat Close.wav",50
Sample,188756,0,"Tom3.wav",50
Sample,189109,0,"Hat Open.wav",35
Sample,190344,0,"Hat Open.wav",35
Sample,191580,0,"Ride.wav",40
Sample,191933,0,"Ride.wav",40
Sample,192462,0,"Hat Close.wav",50
Sample,198286,0,"Tom3.wav",50
Sample,198462,0,"Tom3.wav",50
Sample,202344,0,"Hat Open.wav",35
Sample,203050,0,"Hat Open.wav",35
Sample,203403,0,"Hat Open.wav",35
Sample,205874,0,"Hat Open.wav",35
Sample,209580,0,"Tom3.wav",50
Sample,209756,0,"Tom3.wav",50
Sample,210109,0,"Tom3.wav",50
Sample,210286,0,"Tom3.wav",50
Sample,210638,0,"Tom3.wav",50
Sample,210815,0,"Tom3.wav",50
Sample,211168,0,"Tom3.wav",50
Sample,211344,0,"Tom3.wav",50

[TimingPoints]
639,352.941176470588,4,2,1,60,1,0
59933,-100,4,2,1,60,0,1
82521,-100,4,2,1,60,0,0
119227,-100,4,2,1,60,0,1
140050,-100,4,2,1,60,0,0
174638,-100,4,2,1,60,0,1
176756,-100,4,2,1,60,0,0
177109,-100,4,2,1,60,0,1
196874,-100,4,2,1,60,0,0

[HitObjects]
192,192,639,5,0,0:0:0:0:
64,192,991,1,0,0:0:0:0:
448,192,1168,1,0,0:0:0:0:
320,192,1521,1,0,0:0:0:0:
192,192,1874,128,0,2403:0:0:0:0:
448,192,2403,1,0,0:0:0:0:
320,192,2756,1,0,0:0:0:0:
192,192,2933,1,0,0:0:0:0:
64,192,3109,128,0,3462:0:0:0:0:
320,192,3462,1,0,0:0:0:0:
192,192,3815,1,0,0:0:0:0:
448,192,3991,1,0,0:0:0:0:
320,192,4344,1,0,0:0:0:0:
192,192,4697,128,0,5580:0:0:0:0:
448,192,5580,1,8,0:0:0:0:
448,192,5756,1,8,0:0:0:0:
64,192,6286,1,4,0:0:0:0:
320,192,6286,1,2,0:0:0:0:
192,192,6638,1,10,0:0:0:0:
320,192,6991,1,2,0:0:0:0:
448,192,7344,1,8,0:0:0:0:
192,192,7521,128,2,8050:0:0:0:0:
64,192,8050,1,8,0:0:0:0:
448,192,8227,1,2,0:0:0:0:
320,192,8580,128,2,9109:0:0:0:0:
192,192,9109,1,6,0:0:0:0:
320,192,9462,1,10,0:0:0:0:
448,192,9815,1,2,0:0:0:0:
64,192,10168,1,8,0:0:0:0:
320,192,10344,128,6,10874:0:0:0:0:
448,192,10874,1,8,0:0:0:0:
192,192,11050,1,2,0:0:0:0:
64,192,11403,128,2,11933:0:0:0:0:
192,192,11933,1,6,0:0:0:0:
320,192,12286,1,10,0:0:0:0:
448,192,12638,1,2,0:0:0:0:
320,192,12991,1,8,0:0:0:0:
192,192,13168,128,6,13697:0:0:0:0:
448,192,13697,1,8,0:0:0:0:
64,192,13874,1,6,0:0:0:0:
320,192,14227,128,2,14756:0:0:0:0:
192,192,14756,128,6,15286:0:0:0:0:
64,192,15286,1,2,0:0:0:0:
448,192,15462,128,8,15815:0:0:0:0:
320,192,15815,1,8,0:0:0:0:
64,192,15991,128,2,16344:0:0:0:0:
192,192,16344,128,2,16874:0:0:0:0:
320,192,16874,1,10,0:0:0:0:
320,192,17050,1,8,0:0:0:0:
192,192,17580,1,2,0:0:0:0:
64,192,17580,1,4,0:0:0:0:
192,192,17933,1,2,0:0:0:0:
448,192,18286,1,2,0:0:0:0:
448,192,18638,1,2,0:0:0:0:
64,192,18991,1,2,0:0:0:0:
64,192,19344,1,2,0:0:0:0:
320,192,19697,1,2,0:0:0:0:
320,192,20050,1,2,0:0:0:0:
192,192,20403,1,2,0:0:0:0:
192,192,20756,1,2,0:0:0:0:
448,192,21109,1,2,0:0:0:0:
448,192,21462,1,2,0:0:0:0:
64,192,21815,1,2,0:0:0:0:
64,192,22168,1,2,0:0:0:0:
320,192,22344,1,8,0:0:0:0:
192,192,22697,1,0,0:0:0:50:Tom2.wav
320,192,23050,128,6,23580:0:0:0:0:
192,192,23580,1,8,0:0:0:0:
448,192,23580,1,0,0:0:0:35:Hat Open.wav
64,192,23933,1,8,0:0:0:0:
448,192,23933,1,0,0:0:0:35:Hat Open.wav
320,192,24286,1,0,0:0:0:35:Hat Open.wav
64,192,24286,1,8,0:0:0:0:
192,192,24638,1,8,0:0:0:0:
320,192,24638,1,0,0:0:0:35:Hat Open.wav
192,192,24991,1,8,0:0:0:0:
448,192,24991,1,0,0:0:0:35:Hat Open.wav
64,192,25344,1,8,0:0:0:0:
448,192,25344,1,0,0:0:0:35:Hat Open.wav
64,192,25697,1,8,0:0:0:0:
320,192,25697,1,0,0:0:0:35:Hat Open.wav
448,192,26050,1,2,0:0:0:0:
192,192,26050,128,12,26756:0:0:0:0:
64,192,26756,1,8,0:0:0:0:
320,192,26756,1,0,0:0:0:35:Hat Open.wav
64,192,27109,1,8,0:0:0:0:
448,192,27109,1,0,0:0:0:35:Hat Open.wav
192,192,27462,1,8,0:0:0:0:
320,192,27462,128,0,27815:0:0:0:35:Hat Open.wav
448,192,27815,1,8,0:0:0:0:
64,192,27991,1,2,0:0:0:0:
192,192,28344,128,6,28874:0:0:0:0:
448,192,28874,1,4,0:0:0:0:
64,192,28874,128,2,29227:0:0:0:0:
320,192,29227,1,10,0:0:0:0:
64,192,29580,128,2,29933:0:0:0:0:
320,192,29933,1,10,0:0:0:0:
448,192,30286,1,2,0:0:0:0:
192,192,30638,1,10,0:0:0:0:
320,192,30815,1,0,0:0:0:35:Hat Open.wav
64,192,31168,1,0,0:0:0:35:Hat Open.wav
192,192,31521,1,0,0:0:0:35:Hat Open.wav
448,192,31697,128,2,32050:0:0:0:0:
64,192,32050,1,10,0:0:0:0:
448,192,32403,128,2,32756:0:0:0:0:
64,192,32756,1,10,0:0:0:0:
320,192,33109,1,2,0:0:0:0:
192,192,33462,1,10,0:0:0:0:
448,192,33638,1,0,0:0:0:35:Hat Open.wav
64,192,33991,1,8,0:0:0:0:
192,192,34168,1,8,0:0:0:0:
320,192,34344,128,6,34874:0:0:0:0:
448,192,34874,1,0,0:0:0:35:Hat Open.wav
64,192,34874,1,8,0:0:0:0:
192,192,35227,1,8,0:0:0:0:
448,192,35227,1,0,0:0:0:35:Hat Open.wav
192,192,35580,1,8,0:0:0:0:
320,192,35580,1,0,0:0:0:35:Hat Open.wav
64,192,35933,1,8,0:0:0:0:
320,192,35933,1,0,0:0:0:35:Hat Open.wav
64,192,36286,1,8,0:0:0:0:
448,192,36286,1,0,0:0:0:35:Hat Open.wav
192,192,36638,128,8,36991:0:0:0:0:
320,192,36991,128,0,37344:0:0:0:50:Tom2.wav
64,192,37344,128,6,38050:0:0:0:0:
448,192,38050,1,8,0:0:0:0:
192,192,38403,1,8,0:0:0:0:
320,192,38756,128,6,39286:0:0:0:0:
64,192,39286,128,6,39815:0:0:0:0:
448,192,39815,128,6,40168:0:0:0:0:
192,192,40168,1,0,0:0:0:50:Tom3.wav
320,192,40521,128,8,41227:0:0:0:0:
448,192,40521,1,4,0:0:0:0:
64,192,41227,1,8,0:0:0:0:
192,192,41580,1,0,0:0:0:35:Hat Open.wav
448,192,41933,1,8,0:0:0:0:
64,192,42109,1,2,0:0:0:0:
64,192,42462,1,2,0:0:0:0:
320,192,42638,1,8,0:0:0:0:
320,192,42815,1,8,0:0:0:0:
192,192,43168,1,2,0:0:0:0:
320,192,43344,1,8,0:0:0:0:
448,192,43344,128,4,44050:0:0:0:0:
64,192,44050,1,8,0:0:0:0:
320,192,44403,1,2,0:0:0:0:
192,192,44756,1,8,0:0:0:0:
448,192,44933,1,2,0:0:0:0:
64,192,45286,1,8,0:0:0:0:
192,192,45462,1,0,0:0:0:50:Tom1.wav
320,192,45638,1,0,0:0:0:50:Tom2.wav
448,192,45815,128,6,46168:0:0:0:0:
192,192,46168,1,10,0:0:0:0:
448,192,46521,128,2,46874:0:0:0:0:
192,192,46874,1,10,0:0:0:0:
320,192,47227,1,2,0:0:0:0:
64,192,47580,1,10,0:0:0:0:
448,192,47756,1,0,0:0:0:35:Hat Open.wav
192,192,48286,1,10,0:0:0:0:
320,192,48462,1,0,0:0:0:35:Hat Open.wav
64,192,48638,128,2,48991:0:0:0:0:
448,192,48991,1,10,0:0:0:0:
64,192,49344,128,2,49697:0:0:0:0:
448,192,49697,1,10,0:0:0:0:
192,192,49874,1,0,0:0:0:35:Hat Open.wav
320,192,50050,128,2,50403:0:0:0:0:
448,192,50403,1,8,0:0:0:0:
64,192,50580,1,0,0:0:0:0:
192,192,50933,128,8,51462:0:0:0:0:
320,192,51462,128,4,52168:0:0:0:0:
448,192,51462,1,2,0:0:0:0:
64,192,52168,128,8,52874:0:0:0:0:
448,192,52874,1,2,0:0:0:0:
192,192,53227,1,2,0:0:0:0:
320,192,53580,1,8,0:0:0:0:
448,192,53933,1,0,0:0:0:40:Ride.wav
64,192,54109,1,8,0:0:0:0:
320,192,54286,1,0,0:0:0:50:Tom1.wav
192,192,54638,1,0,0:0:0:50:Tom3.wav
448,192,54815,1,0,0:0:0:50:Tom1.wav
320,192,55168,1,0,0:0:0:50:Tom2.wav
64,192,55344,1,8,0:0:0:0:
448,192,55521,128,6,55874:0:0:0:0:
192,192,55874,128,8,56227:0:0:0:0:
320,192,56227,128,8,56580:0:0:0:0:
64,192,56580,1,8,0:0:0:0:
448,192,56756,1,8,0:0:0:0:
192,192,56933,1,8,0:0:0:0:
320,192,57815,128,0,58521:0:0:0:0:
192,192,58521,128,0,59227:0:0:0:0:
448,192,59227,1,8,0:0:0:0:
448,192,59403,1,8,0:0:0:0:
64,192,59933,128,2,60286:0:0:0:0:
192,192,59933,1,4,0:0:0:0:
320,192,60286,1,10,0:0:0:0:
192,192,60462,1,0,0:0:0:35:Hat Open.wav
448,192,60638,128,2,60991:0:0:0:0:
64,192,60991,1,8,0:0:0:0:
320,192,61168,128,6,61521:0:0:0:0:
192,192,61521,1,2,0:0:0:0:
448,192,61697,1,8,0:0:0:0:
64,192,61874,128,2,62227:0:0:0:0:
320,192,62227,1,2,0:0:0:0:
448,192,62580,1,0,0:0:0:35:Hat Open.wav
192,192,62756,128,2,63109:0:0:0:0:
320,192,63109,1,10,0:0:0:0:
64,192,63286,1,0,0:0:0:35:Hat Open.wav
448,192,63462,128,2,63815:0:0:0:0:
320,192,63815,1,8,0:0:0:0:
64,192,63991,128,6,64521:0:0:0:0:
192,192,64521,1,8,0:0:0:0:
448,192,64697,128,6,65227:0:0:0:0:
320,192,65227,1,8,0:0:0:0:
192,192,65580,1,6,0:0:0:0:
320,192,65756,1,0,0:0:0:0:
448,192,66109,1,0,0:0:0:35:Hat Open.wav
64,192,66286,1,2,0:0:0:0:
192,192,66638,1,8,0:0:0:0:
448,192,66815,128,6,67168:0:0:0:0:
64,192,67168,1,2,0:0:0:0:
192,192,67344,1,8,0:0:0:0:
320,192,67521,128,2,67874:0:0:0:0:
192,192,67874,1,2,0:0:0:0:
448,192,68227,1,8,0:0:0:0:
64,192,68403,128,6,68756:0:0:0:0:
192,192,68756,1,10,0:0:0:0:
320,192,68933,128,0,69286:0:0:0:35:Hat Open.wav
64,192,69286,1,0,0:0:0:35:Hat Open.wav
448,192,69462,1,8,0:0:0:0:
192,192,69638,128,6,69991:0:0:0:0:
320,192,69991,1,2,0:0:0:0:
64,192,70168,128,8,70697:0:0:0:0:
320,192,70697,128,0,71227:0:0:0:50:Tom1.wav
192,192,71227,128,6,71580:0:0:0:0:
448,192,71580,128,2,71933:0:0:0:0:
64,192,71933,1,8,0:0:0:0:
320,192,72286,1,0,0:0:0:40:Ride.wav
192,192,72462,1,2,0:0:0:0:
448,192,72815,1,8,0:0:0:0:
64,192,72991,1,2,0:0:0:0:
320,192,73168,128,0,73521:0:0:0:0:
192,192,73521,1,0,0:0:0:0:
448,192,73874,1,0,0:0:0:0:
64,192,74050,128,6,74403:0:0:0:0:
320,192,74403,128,2,74756:0:0:0:0:
192,192,74756,1,8,0:0:0:0:
64,192,75109,1,0,0:0:0:40:Ride.wav
448,192,75286,128,2,75815:0:0:0:0:
320,192,75815,1,8,0:0:0:0:
64,192,75991,1,2,0:0:0:0:
448,192,76344,1,6,0:0:0:0:
192,192,76697,1,8,0:0:0:0:
320,192,76874,128,6,77227:0:0:0:0:
64,192,77227,128,2,77580:0:0:0:0:
448,192,77580,1,8,0:0:0:0:
192,192,77933,1,0,0:0:0:40:Ride.wav
320,192,78109,1,10,0:0:0:0:
64,192,78462,1,2,0:0:0:0:
448,192,78638,1,0,0:0:0:40:Ride.wav
192,192,78815,1,2,0:0:0:0:
320,192,79168,1,0,0:0:0:50:Tom1.wav
64,192,79521,1,0,0:0:0:50:Tom3.wav
448,192,79697,128,12,80050:0:0:0:0:
320,192,80050,1,2,0:0:0:0:
192,192,80227,128,12,80580:0:0:0:0:
64,192,80580,1,2,0:0:0:0:
320,192,80756,128,12,81462:0:0:0:0:
448,192,81462,1,0,0:0:0:0:
192,192,81638,1,0,0:0:0:40:Ride.wav
64,192,81815,128,0,82521:0:0:0:40:Ride.wav
320,192,82521,1,0,0:0:0:40:Ride.wav
192,192,83050,1,0,0:0:0:0:
320,192,83227,1,0,0:0:0:0:
448,192,83933,1,8,0:0:0:0:
448,192,84109,1,2,0:0:0:0:
64,192,85344,1,4,0:0:0:0:
320,192,85344,1,2,0:0:0:0:
192,192,85697,1,10,0:0:0:0:
320,192,86050,1,2,0:0:0:0:
448,192,86403,1,8,0:0:0:0:
192,192,86580,128,6,87109:0:0:0:0:
64,192,87109,1,8,0:0:0:0:
448,192,87286,1,2,0:0:0:0:
320,192,87638,128,2,88168:0:0:0:0:
192,192,88168,1,8,0:0:0:0:
192,192,88344,1,8,0:0:0:0:
448,192,88697,1,8,0:0:0:0:
448,192,88874,1,8,0:0:0:0:
64,192,89227,1,8,0:0:0:0:
64,192,89403,1,8,0:0:0:0:
320,192,89756,1,8,0:0:0:0:
320,192,89933,1,8,0:0:0:0:
64,192,90991,1,4,0:0:0:0:
192,192,90991,128,2,91697:0:0:0:0:
448,192,91697,128,0,92403:0:0:0:0:
64,192,92403,1,0,0:0:0:0:
320,192,92933,1,0,0:0:0:0:
192,192,93462,1,0,0:0:0:0:
448,192,93638,1,2,0:0:0:0:
64,192,93815,128,2,94521:0:0:0:0:
320,192,94521,128,0,95050:0:0:0:0:
448,192,95050,1,2,0:0:0:0:
192,192,95227,1,2,0:0:0:0:
320,192,95580,1,8,0:0:0:0:
64,192,95756,1,2,0:0:0:0:
448,192,96109,1,2,0:0:0:0:
64,192,96462,1,2,0:0:0:0:
192,192,96462,1,4,0:0:0:0:
320,192,96815,1,2,0:0:0:0:
64,192,96991,1,0,0:0:0:40:Ride.wav
448,192,97344,1,8,0:0:0:0:
192,192,97697,1,2,0:0:0:0:
320,192,98050,1,2,0:0:0:0:
64,192,98403,1,2,0:0:0:0:
448,192,98580,1,0,0:0:0:0:
192,192,98756,128,8,99109:0:0:0:0:
320,192,99109,128,0,99462:0:0:0:50:Tom2.wav
64,192,99462,1,4,0:0:0:0:
192,192,99462,1,2,0:0:0:0:
448,192,99815,1,0,0:0:0:40:Ride.wav
64,192,99991,1,2,0:0:0:0:
320,192,100344,1,0,0:0:0:0:
192,192,100521,1,8,0:0:0:0:
448,192,100874,128,10,101227:0:0:0:0:
320,192,101227,1,8,0:0:0:0:
64,192,101403,128,6,101756:0:0:0:0:
448,192,101756,1,2,0:0:0:0:
192,192,101933,128,8,102286:0:0:0:0:
64,192,102462,1,2,0:0:0:0:
448,192,102638,1,2,0:0:0:0:
320,192,102638,128,12,103344:0:0:0:0:
64,192,103344,1,8,0:0:0:0:
192,192,103697,1,2,0:0:0:0:
448,192,104050,1,8,0:0:0:0:
64,192,104227,1,2,0:0:0:0:
64,192,104580,1,10,0:0:0:0:
320,192,104756,1,8,0:0:0:0:
320,192,104933,1,2,0:0:0:0:
192,192,105286,1,2,0:0:0:0:
448,192,105462,128,4,106168:0:0:0:0:
320,192,105462,1,8,0:0:0:0:
64,192,106168,1,8,0:0:0:0:
320,192,106521,1,10,0:0:0:0:
192,192,106874,1,8,0:0:0:0:
448,192,107050,1,2,0:0:0:0:
64,192,107403,1,10,0:0:0:0:
192,192,107580,1,0,0:0:0:50:Tom1.wav
320,192,107756,1,0,0:0:0:50:Tom1.wav
448,192,107933,128,6,108286:0:0:0:0:
192,192,108286,1,10,0:0:0:0:
448,192,108638,128,2,108991:0:0:0:0:
192,192,108991,1,10,0:0:0:0:
320,192,109344,1,2,0:0:0:0:
64,192,109697,1,10,0:0:0:0:
448,192,109874,1,0,0:0:0:35:Hat Open.wav
192,192,110403,1,10,0:0:0:0:
320,192,110580,1,0,0:0:0:35:Hat Open.wav
64,192,110756,128,2,111109:0:0:0:0:
448,192,111109,1,10,0:0:0:0:
64,192,111462,128,2,111815:0:0:0:0:
448,192,111815,1,10,0:0:0:0:
192,192,111991,1,0,0:0:0:35:Hat Open.wav
320,192,112168,128,2,112521:0:0:0:0:
448,192,112521,1,8,0:0:0:0:
64,192,112697,1,0,0:0:0:50:Hat Close.wav
192,192,113050,128,8,113580:0:0:0:0:
448,192,113580,128,6,114109:0:0:0:0:
320,192,114109,1,0,0:0:0:0:
64,192,114286,128,8,114991:0:0:0:0:
320,192,114991,1,2,0:0:0:0:
448,192,115168,1,8,0:0:0:0:
192,192,115344,1,2,0:0:0:0:
448,192,115697,1,8,0:0:0:0:
64,192,116050,1,0,0:0:0:40:Ride.wav
320,192,116227,1,0,0:0:0:0:
192,192,116403,1,6,0:0:0:0:
64,192,116756,1,8,0:0:0:0:
448,192,116933,1,2,0:0:0:0:
192,192,117286,1,2,0:0:0:0:
320,192,117462,1,8,0:0:0:0:
448,192,117638,128,6,117991:0:0:0:0:
64,192,117991,128,8,118344:0:0:0:0:
192,192,118344,128,8,118697:0:0:0:0:
320,192,118697,128,8,119050:0:0:0:0:
64,192,119050,1,8,0:0:0:0:
192,192,119227,1,4,0:0:0:0:
448,192,119227,128,2,119580:0:0:0:0:
192,192,119580,1,10,0:0:0:0:
320,192,119756,1,0,0:0:0:0:
64,192,119933,128,2,120286:0:0:0:0:
448,192,120286,1,8,0:0:0:0:
192,192,120462,128,6,120815:0:0:0:0:
320,192,120815,1,2,0:0:0:0:
64,192,120991,1,8,0:0:0:0:
448,192,121168,128,2,121521:0:0:0:0:
192,192,121521,1,2,0:0:0:0:
64,192,121874,1,0,0:0:0:35:Hat Open.wav
320,192,122050,128,2,122403:0:0:0:0:
192,192,122403,1,10,0:0:0:0:
448,192,122580,1,0,0:0:0:35:Hat Open.wav
64,192,122756,128,2,123109:0:0:0:0:
192,192,123109,1,8,0:0:0:0:
448,192,123286,128,6,123815:0:0:0:0:
320,192,123815,1,8,0:0:0:0:
64,192,123991,128,6,124521:0:0:0:0:
192,192,124521,1,8,0:0:0:0:
320,192,124874,1,6,0:0:0:0:
192,192,125050,1,0,0:0:0:0:
64,192,125403,1,0,0:0:0:35:Hat Open.wav
448,192,125580,1,2,0:0:0:0:
320,192,125933,1,8,0:0:0:0:
64,192,126109,128,6,126462:0:0:0:0:
448,192,126462,1,2,0:0:0:0:
320,192,126638,1,8,0:0:0:0:
192,192,126815,128,2,127168:0:0:0:0:
320,192,127168,1,2,0:0:0:0:
64,192,127521,1,8,0:0:0:0:
448,192,127697,128,6,128050:0:0:0:0:
320,192,128050,1,10,0:0:0:0:
192,192,128227,128,0,128580:0:0:0:35:Hat Open.wav
448,192,128580,1,0,0:0:0:35:Hat Open.wav
64,192,128756,1,8,0:0:0:0:
320,192,128933,128,6,129286:0:0:0:0:
192,192,129286,1,0,0:0:0:50:Tom1.wav
448,192,129462,128,0,129991:0:0:0:50:Tom2.wav
192,192,129991,128,8,130521:0:0:0:0:
320,192,130521,128,6,130874:0:0:0:0:
64,192,130874,128,10,131227:0:0:0:0:
448,192,131227,1,8,0:0:0:0:
192,192,131580,1,0,0:0:0:40:Ride.wav
320,192,131756,1,2,0:0:0:0:
64,192,132109,1,8,0:0:0:0:
448,192,132286,1,2,0:0:0:0:
192,192,132462,128,0,132815:0:0:0:0:
320,192,132815,1,0,0:0:0:0:
64,192,133168,1,0,0:0:0:0:
448,192,133344,128,6,133697:0:0:0:0:
192,192,133697,128,2,134050:0:0:0:0:
320,192,134050,1,8,0:0:0:0:
448,192,134403,1,8,0:0:0:0:
64,192,134580,128,2,135109:0:0:0:0:
192,192,135109,1,8,0:0:0:0:
448,192,135286,1,2,0:0:0:0:
64,192,135638,1,6,0:0:0:0:
320,192,135991,1,0,0:0:0:0:
192,192,136168,128,6,136521:0:0:0:0:
448,192,136521,128,2,136874:0:0:0:0:
64,192,136874,1,8,0:0:0:0:
320,192,137227,1,0,0:0:0:40:Ride.wav
192,192,137403,1,10,0:0:0:0:
448,192,137756,1,2,0:0:0:0:
64,192,137933,1,0,0:0:0:40:Ride.wav
320,192,138109,1,2,0:0:0:0:
192,192,138462,1,0,0:0:0:50:Tom1.wav
448,192,138815,1,0,0:0:0:50:Tom3.wav
64,192,138991,128,12,139344:0:0:0:0:
192,192,139344,1,2,0:0:0:0:
320,192,139521,128,12,139874:0:0:0:0:
448,192,139874,1,0,0:0:0:50:Tom3.wav
192,192,140050,128,12,141109:0:0:0:0:
64,192,141109,1,0,0:0:0:0:
448,192,141286,1,2,0:0:0:0:
192,192,141462,1,0,0:0:0:50:Tom1.wav
448,192,141815,128,0,143580:0:0:0:0:
320,192,141815,1,4,0:0:0:0:
64,192,143580,1,0,0:0:0:40:Hat Close.wav
320,192,143933,1,0,0:0:0:60:Ride.wav
192,192,144286,1,0,0:0:0:60:Ride.wav
64,192,144638,128,0,145344:0:0:0:60:Ride.wav
320,192,145344,128,0,145874:0:0:0:50:Ride.wav
192,192,145874,128,0,146403:0:0:0:0:
448,192,146403,128,0,146756:0:0:0:50:Tom3.wav
64,192,146756,128,0,147462:0:0:0:50:Tom3.wav
320,192,147462,1,6,0:0:0:0:
192,192,147815,1,0,0:0:0:0:
320,192,148168,1,0,0:0:0:0:
448,192,148521,1,0,0:0:0:0:
64,192,148697,128,0,149227:0:0:0:0:
320,192,149227,128,0,149580:0:0:0:0:
192,192,149580,128,0,149933:0:0:0:60:Ride.wav
320,192,149933,128,2,150286:0:0:0:0:
64,192,150286,1,2,0:0:0:0:
448,192,150991,128,0,151697:0:0:0:0:
320,192,151697,128,0,152227:0:0:0:40:Ride.wav
192,192,152227,128,0,153109:0:0:0:0:
448,192,153109,1,2,0:0:0:0:
64,192,153462,1,0,0:0:0:0:
320,192,153815,1,0,0:0:0:0:
192,192,154168,1,0,0:0:0:40:Ride.wav
448,192,154344,128,0,154874:0:0:0:0:
64,192,154874,128,0,155227:0:0:0:0:
320,192,155227,128,0,155580:0:0:0:0:
192,192,155580,128,2,155933:0:0:0:0:
448,192,155933,1,2,0:0:0:0:
320,192,156638,128,0,157344:0:0:0:0:
192,192,157344,128,2,157874:0:0:0:0:
64,192,157874,128,0,158756:0:0:0:0:
320,192,158756,1,2,0:0:0:0:
448,192,158756,1,4,0:0:0:0:
448,192,159109,1,2,0:0:0:0:
448,192,159462,1,2,0:0:0:0:
448,192,159815,1,2,0:0:0:0:
192,192,160168,1,2,0:0:0:0:
192,192,160521,1,2,0:0:0:0:
192,192,160874,1,2,0:0:0:0:
192,192,161227,1,2,0:0:0:0:
64,192,161580,1,8,0:0:0:0:
320,192,161580,1,0,0:0:0:35:Hat Open.wav
320,192,161933,1,2,0:0:0:0:
320,192,162286,1,2,0:0:0:0:
320,192,162638,1,2,0:0:0:0:
64,192,162991,1,8,0:0:0:0:
448,192,162991,1,0,0:0:0:35:Hat Open.wav
64,192,163344,1,0,0:0:0:50:Hat Close.wav
64,192,163697,1,2,0:0:0:0:
64,192,164050,1,10,0:0:0:0:
448,192,164403,128,6,164756:0:0:0:0:
192,192,164756,128,2,165109:0:0:0:0:
320,192,165109,128,2,165462:0:0:0:0:
64,192,165462,128,10,165815:0:0:0:0:
448,192,165815,128,2,166168:0:0:0:0:
192,192,166168,128,2,166521:0:0:0:0:
320,192,166521,128,2,166874:0:0:0:0:
64,192,166874,128,8,167227:0:0:0:0:
448,192,167227,1,2,0:0:0:0:
320,192,167227,1,4,0:0:0:0:
64,192,167756,1,4,0:0:0:0:
448,192,167756,1,8,0:0:0:0:
64,192,168286,1,8,0:0:0:0:
320,192,168286,1,4,0:0:0:0:
192,192,168815,1,4,0:0:0:0:
320,192,168815,1,8,0:0:0:0:
64,192,169344,1,8,0:0:0:0:
192,192,169344,128,0,170050:0:0:0:0:
448,192,170050,1,2,0:0:0:0:
320,192,170050,1,4,0:0:0:0:
64,192,170403,128,10,171462:0:0:0:0:
448,192,170403,128,0,171462:0:0:0:50:Tom3.wav
192,192,172168,128,0,172874:0:0:0:0:
64,192,172874,128,0,173580:0:0:0:0:
320,192,173580,1,10,0:0:0:0:
320,192,173756,1,10,0:0:0:0:
64,192,174462,1,2,0:0:0:0:
320,192,174638,1,12,0:0:0:0:
192,192,174815,1,0,0:0:0:0:
448,192,174991,128,8,175344:0:0:0:0:
64,192,175344,1,8,0:0:0:0:
320,192,175521,128,6,175874:0:0:0:0:
192,192,175874,1,8,0:0:0:0:
448,192,176050,1,8,0:0:0:0:
64,192,176227,128,0,176580:0:0:0:50:Tom1.wav
320,192,176580,1,2,0:0:0:0:
448,192,176933,1,0,0:0:0:0:
64,192,177109,1,2,0:0:0:0:
192,192,177109,128,4,177462:0:0:0:0:
320,192,177462,128,10,177815:0:0:0:0:
192,192,177815,1,2,0:0:0:0:
448,192,178168,1,8,0:0:0:0:
64,192,178344,128,6,178874:0:0:0:0:
192,192,178874,1,8,0:0:0:0:
448,192,179050,128,6,179580:0:0:0:0:
320,192,179580,1,8,0:0:0:0:
192,192,179933,1,6,0:0:0:0:
320,192,180109,1,0,0:0:0:0:
448,192,180462,1,0,0:0:0:35:Hat Open.wav
64,192,180638,1,2,0:0:0:0:
192,192,180991,1,8,0:0:0:0:
448,192,181168,128,6,181521:0:0:0:0:
64,192,181521,1,2,0:0:0:0:
192,192,181697,1,8,0:0:0:0:
320,192,181874,128,2,182227:0:0:0:0:
192,192,182227,1,2,0:0:0:0:
448,192,182580,1,8,0:0:0:0:
64,192,182756,128,6,183109:0:0:0:0:
192,192,183109,1,10,0:0:0:0:
320,192,183286,128,0,183638:0:0:0:35:Hat Open.wav
64,192,183638,1,0,0:0:0:35:Hat Open.wav
448,192,183815,1,8,0:0:0:0:
192,192,183991,128,6,184344:0:0:0:0:
320,192,184344,1,2,0:0:0:0:
64,192,184521,1,0,0:0:0:50:Tom1.wav
448,192,184697,128,2,185050:0:0:0:0:
320,192,185050,128,8,185580:0:0:0:0:
192,192,185580,128,6,185933:0:0:0:0:
448,192,185933,128,2,186286:0:0:0:0:
64,192,186286,1,8,0:0:0:0:
320,192,186638,1,0,0:0:0:50:Hat Close.wav
192,192,186815,1,2,0:0:0:0:
448,192,187168,1,2,0:0:0:0:
320,192,187344,1,2,0:0:0:0:
192,192,187521,128,0,187874:0:0:0:0:
320,192,187874,128,0,188227:0:0:0:0:
448,192,188227,1,0,0:0:0:0:
64,192,188403,128,6,188756:0:0:0:0:
320,192,188756,128,0,189109:0:0:0:50:Hat Close.wav
192,192,189109,1,8,0:0:0:0:
64,192,189462,1,2,0:0:0:0:
448,192,189638,128,6,190168:0:0:0:0:
320,192,190168,1,2,0:0:0:0:
64,192,190344,1,2,0:0:0:0:
192,192,190697,1,6,0:0:0:0:
448,192,191050,1,8,0:0:0:0:
320,192,191227,128,6,191580:0:0:0:0:
64,192,191580,128,2,191933:0:0:0:0:
448,192,191933,1,8,0:0:0:0:
192,192,192286,1,0,0:0:0:50:Hat Close.wav
320,192,192462,1,2,0:0:0:0:
64,192,192815,1,2,0:0:0:0:
448,192,192991,1,0,0:0:0:50:Hat Close.wav
192,192,193168,1,0,0:0:0:50:Hat Close.wav
320,192,193521,1,0,0:0:0:50:Tom2.wav
64,192,193874,1,0,0:0:0:0:
448,192,194050,128,12,194403:0:0:0:0:
320,192,194403,1,0,0:0:0:50:Tom3.wav
192,192,194580,128,12,194933:0:0:0:0:
64,192,194933,1,0,0:0:0:50:Tom1.wav
320,192,195109,128,12,195815:0:0:0:0:
448,192,195815,1,0,0:0:0:0:
192,192,195991,1,0,0:0:0:20:Ride.wav
64,192,196168,128,0,196874:0:0:0:40:Ride.wav
448,192,196874,1,0,0:0:0:40:Ride.wav
192,192,197403,1,0,0:0:0:0:
320,192,197580,1,0,0:0:0:0:
448,192,198286,1,8,0:0:0:0:
448,192,198462,1,2,0:0:0:0:
64,192,201109,1,4,0:0:0:0:
448,192,201109,1,2,0:0:0:0:
192,192,201462,1,10,0:0:0:0:
320,192,201815,1,2,0:0:0:0:
448,192,202168,1,8,0:0:0:0:
192,192,202344,128,2,202874:0:0:0:0:
64,192,202874,1,8,0:0:0:0:
448,192,203050,1,2,0:0:0:0:
320,192,203403,128,2,203933:0:0:0:0:
192,192,203933,1,2,0:0:0:0:
320,192,204286,1,10,0:0:0:0:
448,192,204638,1,2,0:0:0:0:
64,192,204991,1,8,0:0:0:0:
320,192,205168,128,6,205697:0:0:0:0:
448,192,205697,1,8,0:0:0:0:
192,192,205874,1,2,0:0:0:0:
64,192,206227,128,2,206756:0:0:0:0:
192,192,206756,1,6,0:0:0:0:
320,192,207109,1,14,0:0:0:0:
448,192,207462,1,2,0:0:0:0:
320,192,207815,1,8,0:0:0:0:
192,192,207991,128,6,208521:0:0:0:0:
448,192,208521,1,8,0:0:0:0:
64,192,208697,1,6,0:0:0:0:
320,192,209050,128,2,209580:0:0:0:0:
192,192,209580,1,10,0:0:0:0:
192,192,209756,1,10,0:0:0:0:
448,192,210109,1,10,0:0:0:0:
448,192,210286,1,10,0:0:0:0:
64,192,210638,1,10,0:0:0:0:
64,192,210815,1,10,0:0:0:0:
320,192,211168,1,10,0:0:0:0:
320,192,211344,1,10,0:0:0:0:
