osu file format v14

[General]
AudioFilename: audio.mp3
AudioLeadIn: 0
PreviewTime: 44678
Countdown: 0
SampleSet: Soft
StackLeniency: 0.5
Mode: 0
LetterboxInBreaks: 0
EpilepsyWarning: 1
WidescreenStoryboard: 1

[Editor]
DistanceSpacing: 0.9
BeatDivisor: 4
GridSize: 4
TimelineZoom: 1

[Metadata]
Title:Joyful Todays
TitleUnicode:Joyful Todays
Artist:Nakano Azusa(CV:Taketatsu Ayana)
ArtistUnicode:中野 梓(CV:竹達彩奈)
Creator:Left
Version:Easy
Source:けいおん!!
Tags:k-on!! BetaStar TaMul Akitoshi joker- joker Koiyuki Minakami Yuki cut version character song
BeatmapID:1206075
BeatmapSetID:568893

[Difficulty]
HPDrainRate:2
CircleSize:2.6
OverallDifficulty:3
ApproachRate:3.2
SliderMultiplier:1.6
SliderTickRate:1

[Events]
//Background and Video events
0,0,"BG.jpg",0,0
//Break Periods
//Storyboard Layer 0 (Background)
//Storyboard Layer 1 (Fail)
//Storyboard Layer 2 (Pass)
//Storyboard Layer 3 (Foreground)
//Storyboard Sound Samples

[TimingPoints]
487,521.739130434783,4,2,4,55,1,0
1531,521.739130434783,4,2,5,55,1,0
1661,-100,4,2,2,55,0,0
8704,-100,4,2,3,55,0,0
9878,-100,4,2,5,65,0,0
10009,-100,4,2,2,65,0,0
14052,-100,4,2,5,65,0,0
14183,-100,4,2,2,65,0,0
18226,-100,4,2,5,65,0,0
18487,-100,4,2,2,65,0,0
22400,-100,4,2,5,65,0,0
22661,-100,4,2,2,65,0,0
24487,-100,4,2,3,65,0,0
25531,-100,4,2,5,65,0,0
25791,-100,4,2,4,65,0,0
26574,-100,4,2,5,65,0,0
26835,-100,4,2,2,65,0,0
30748,-100,4,2,5,65,0,0
31009,-100,4,2,2,65,0,0
32835,-100,4,2,3,65,0,0
33878,-100,4,2,5,65,0,0
34139,-100,4,2,4,65,0,0
34661,-100,4,2,2,65,0,0
37009,-100,4,2,5,65,0,0
37270,-100,4,2,2,65,0,0
38835,-100,4,2,4,65,0,0
39096,-100,4,2,2,65,0,0
40139,-100,4,2,5,65,0,0
40400,-100,4,2,2,65,0,0
42748,-100,4,2,4,65,0,0
43270,-100,4,2,5,65,0,0
43531,-100,4,2,2,65,0,0
44313,-100,4,2,4,75,0,0
44574,-100,4,2,4,85,0,0
44835,-100,4,2,2,30,0,0
45096,-100,4,2,2,30,0,0
45357,-100,4,2,5,75,0,1
45617,-100,4,2,2,75,0,1
49531,-100,4,2,5,75,0,1
49791,-100,4,2,2,75,0,1
53704,-100,4,2,5,50,0,0
53965,-100,4,2,2,50,0,0
54226,-100,4,2,5,85,0,1
54617,-100,4,2,2,75,0,1
57878,-100,4,2,5,75,0,1
58139,-100,4,2,2,75,0,1
59965,-100,4,2,5,75,0,1
60226,-100,4,2,2,75,0,1
61531,-100,4,2,4,75,0,1
62052,-100,4,2,5,65,0,0
62313,-100,4,2,2,65,0,0
66226,-100,4,2,5,65,0,0
66487,-100,4,2,2,65,0,0
69357,-100,4,2,4,65,0,0
70400,-100,4,2,3,65,0,0
70661,-100,4,2,0,65,0,0

[Colours]
Combo1 : 185,188,249
Combo2 : 255,153,204
Combo3 : 255,255,198
Combo4 : 247,111,131
SliderTrackOverride : 0,30,60

[HitObjects]
280,130,1531,6,0,L|272:312,1,160,6|8,1:2|0:0,0:0:0:0:
331,366,2444,2,0,B|363:333|363:333|370:160,1,200,2|8,1:2|0:0,0:0:0:0:
302,51,3617,2,0,P|254:25|157:86,1,160,2|8,1:2|0:0,0:0:0:0:
104,141,4531,2,0,B|63:179|63:179|67:30,1,200,2|8,1:2|0:0,0:0:0:0:
204,76,5704,6,0,L|391:66,1,160,2|8,1:2|0:0,0:0:0:0:
454,36,6617,2,0,P|422:147|318:152,1,200,2|8,1:2|0:0,0:0:0:0:
213,118,7791,2,0,B|207:178|207:178|222:218|222:218|215:305,1,160,2|8,1:2|0:0,0:0:0:0:
129,236,8704,1,4,1:2:0:0:
399,93,9878,6,0,P|320:47|246:86,2,160,4|10|0,1:2|1:2|1:0,0:0:0:0:
351,229,11444,1,8,1:2:0:0:
304,365,11965,2,0,L|132:354,1,160,2|8,1:2|1:2,0:0:0:0:
191,218,13009,2,0,L|363:229,1,160,2|8,1:2|1:2,0:0:0:0:
399,93,14052,6,0,P|320:47|246:86,2,160,4|10|0,1:2|1:2|1:0,0:0:0:0:
448,228,15617,1,8,1:2:0:0:
487,366,16139,2,0,L|316:352,1,160,2|8,1:2|1:2,0:0:0:0:
183,364,17183,1,0,1:0:0:0:
128,230,17704,2,0,P|120:180|123:118,1,80,10|12,1:2|1:2,0:0:0:0:
136,88,18226,6,0,B|199:84|199:84|228:95|228:95|304:90,1,160,6|10,1:2|1:2,0:0:0:0:
427,144,19270,2,0,P|441:83|419:22,2,120,2|2|0,1:2|0:0|0:0,0:0:0:0:
386,193,20313,2,0,B|359:235|359:235|383:360,1,160,0|10,1:0|1:2,0:0:0:0:
235,332,21357,2,0,L|109:340,2,120,2|2|0,1:2|0:0|0:0,0:0:0:0:
269,278,22400,6,0,P|282:214|263:104,1,160,4|10,1:2|1:2,0:0:0:0:
148,42,23444,2,0,B|90:25|90:25|22:54,2,120,2|2|0,1:2|0:0|0:0,0:0:0:0:
201,77,24487,5,4,1:2:0:0:
148,211,25009,1,4,1:2:0:0:
88,342,25531,2,0,B|218:339|218:339|254:358|254:358|441:352,1,320,4|4,1:2|1:2,0:0:0:0:
435,212,27096,5,10,1:2:0:0:
311,138,27617,2,0,L|320:11,2,120,2|2|0,1:2|0:0|0:0,0:0:0:0:
305,202,28661,2,0,B|242:208|242:208|213:194|213:194|140:199,1,160,0|10,1:0|1:2,0:0:0:0:
17,139,29704,2,0,P|-6:80|25:18,2,120,2|2|0,1:2|0:0|0:0,0:0:0:0:
68,177,30748,6,0,L|81:337,1,160,4|8,1:2|1:2,0:0:0:0:
224,332,31791,2,0,P|302:338|352:297,2,120,2|2|0,1:2|0:0|0:0,0:0:0:0:
170,296,32835,5,4,1:2:0:0:
191,169,33357,1,4,1:2:0:0:
216,43,33878,2,0,L|398:54,1,160,4|10,1:2|0:0,0:0:0:0:
351,194,34922,6,0,P|438:204|492:153,2,160,2|10|2,1:2|1:2|1:2,0:0:0:0:
258,83,36487,1,8,1:2:0:0:
164,192,37009,1,6,1:2:0:0:
27,144,37531,2,0,L|40:13,2,120,8|2|0,0:0|1:2|1:0,0:0:0:0:
67,193,38574,2,0,P|137:211|216:160,1,160,10|2,0:0|1:2,0:0:0:0:
256,33,39617,5,10,1:2:0:0:
393,76,40139,2,0,L|404:254,1,160,6|8,1:2|0:0,0:0:0:0:
281,313,41183,6,0,P|211:331|249:81,1,480,2|8,1:2|0:0,0:0:0:0:
220,221,43270,2,0,B|297:206|297:206|370:241|370:241|408:82,1,320,6|8,1:2|0:0,0:0:0:0:
273,30,44835,2,0,L|175:42,1,80,0|0,0:0|0:0,0:0:0:0:
137,70,45357,6,0,P|94:141|133:225,1,160,4|10,1:2|1:2,0:0:0:0:
175,285,46270,2,0,L|385:275,1,200,2|8,0:0|1:2,0:0:0:0:
445,210,47313,2,0,P|474:115|401:37,1,200,2|10,0:0|1:2,0:0:0:0:
350,112,48357,2,0,B|297:143|297:143|139:121,1,200,2|10,0:0|1:2,0:0:0:0:
64,232,49531,6,0,P|132:276|227:244,1,160,6|10,1:2|1:2,0:0:0:0:
271,191,50444,2,0,L|259:85,2,80,2|8|2,0:0|0:0|0:0,0:0:0:0:
435,264,51617,2,0,L|460:87,1,160,2|10,1:2|1:2,0:0:0:0:
386,40,52531,2,0,P|340:25|292:36,2,80,10|10|0,0:0|0:0|0:0,0:0:0:0:
286,189,53704,6,0,B|221:187|221:187|188:203|188:203|106:199,1,160,0|4,1:0|0:0,0:0:0:0:
82,283,54617,2,0,P|155:346|262:293,1,200,2|8,0:0|1:2,0:0:0:0:
314,250,55661,2,0,L|293:40,1,200,2|10,0:0|1:2,0:0:0:0:
387,28,56704,2,0,L|408:238,1,200,2|10,0:0|1:2,0:0:0:0:
351,305,57748,6,0,P|248:329|174:257,1,200,2|10,0:0|1:2,0:0:0:0:
250,207,58791,2,0,B|257:135|257:135|239:80|239:80|247:-4,1,200,2|10,0:0|1:2,0:0:0:0:
341,1,59835,2,0,B|337:69|337:69|354:121|354:121|345:221,1,200,2|10,0:0|1:2,0:0:0:0:
434,236,60878,2,0,P|353:293|262:242,1,200,2|4,0:0|0:0,0:0:0:0:
177,143,62052,6,0,B|132:114|132:114|-11:130,2,160,4|10|0,1:2|1:2|1:0,0:0:0:0:
290,231,63617,1,8,1:2:0:0:
211,351,64139,2,0,P|136:368|52:298,1,160,2|8,1:2|1:2,0:0:0:0:
88,184,65183,2,0,P|161:167|239:216,1,160,2|8,1:2|1:2,0:0:0:0:
330,311,66226,6,0,B|391:306|391:306|430:317|430:317|511:312,2,160,4|10|0,1:2|1:2|1:0,0:0:0:0:
195,363,67791,1,8,1:2:0:0:
134,232,68313,2,0,P|117:158|139:56,1,160,2|8,1:2|0:0,0:0:0:0:
268,35,69357,1,2,0:0:0:0:
299,175,69878,2,0,L|321:280,1,80,2|2,0:0|0:0,0:0:0:0:
256,192,70400,12,2,71835,0:0:0:0:
