osu file format v14

[General]
AudioFilename: audio.mp3
AudioLeadIn: 0
PreviewTime: 44678
Countdown: 0
SampleSet: Soft
StackLeniency: 0.4
Mode: 0
LetterboxInBreaks: 0
EpilepsyWarning: 1
WidescreenStoryboard: 1

[Editor]
Bookmarks: 487,1400,5704,8704,9878,14052,18226,62052,66226,70400,72487
DistanceSpacing: 1.5
BeatDivisor: 8
GridSize: 4
TimelineZoom: 1.2

[Metadata]
Title:Joyful Todays
TitleUnicode:Joyful Todays
Artist:Nakano Azusa(CV:Taketatsu Ayana)
ArtistUnicode:中野 梓(CV:竹達彩奈)
Creator:Left
Version:joker's Hard
Source:けいおん!!
Tags:k-on!! BetaStar TaMul Akitoshi joker- joker Koiyuki Minakami Yuki cut version character song
BeatmapID:1206273
BeatmapSetID:568893

[Difficulty]
HPDrainRate:5
CircleSize:4
OverallDifficulty:6
ApproachRate:8
SliderMultiplier:2.25
SliderTickRate:1

[Events]
//Background and Video events
0,0,"BG.jpg",0,0
//Break Periods
//Storyboard Layer 0 (Background)
//Storyboard Layer 1 (Fail)
//Storyboard Layer 2 (Pass)
//Storyboard Layer 3 (Foreground)
//Storyboard Sound Samples

[TimingPoints]
487,521.739130434783,4,2,4,55,1,0
617,-100,4,2,2,55,0,0
1269,-100,4,2,4,55,0,0
1531,521.739130434783,4,2,5,55,1,0
1661,-100,4,2,2,55,0,0
8704,-100,4,2,3,55,0,0
9878,-95.2380952380952,4,2,5,65,0,0
10009,-95.2380952380952,4,2,2,65,0,0
14052,-95.2380952380952,4,2,5,65,0,0
14183,-95.2380952380952,4,2,2,65,0,0
18226,-95.2380952380952,4,2,5,65,0,0
18487,-95.2380952380952,4,2,2,65,0,0
22400,-95.2380952380952,4,2,5,65,0,0
22661,-95.2380952380952,4,2,2,65,0,0
24487,-117.647058823529,4,2,3,65,0,0
25531,-117.647058823529,4,2,5,65,0,0
25791,-117.647058823529,4,2,4,65,0,0
26574,-100,4,2,5,65,0,0
26835,-95.2380952380952,4,2,2,65,0,0
30748,-95.2380952380952,4,2,5,65,0,0
31009,-95.2380952380952,4,2,2,65,0,0
32835,-117.647058823529,4,2,3,65,0,0
33878,-117.647058823529,4,2,5,65,0,0
34139,-117.647058823529,4,2,4,65,0,0
34661,-95.2380952380952,4,2,2,65,0,0
34922,-117.647058823529,4,2,2,65,0,0
37009,-117.647058823529,4,2,5,65,0,0
37270,-117.647058823529,4,2,2,65,0,0
38835,-117.647058823529,4,2,4,65,0,0
39096,-117.647058823529,4,2,2,65,0,0
40139,-117.647058823529,4,2,5,65,0,0
40400,-117.647058823529,4,2,2,65,0,0
41183,-95.238095238095,4,2,2,65,0,0
42748,-95.2380952380952,4,2,4,65,0,0
43270,-95.2380952380952,4,2,5,65,0,0
43531,-95.2380952380952,4,2,2,65,0,0
44313,-95.2380952380952,4,2,2,75,0,0
44574,-95.2380952380952,4,2,4,85,0,0
44835,-105.263157894737,4,2,2,30,0,0
45096,-105.263157894737,4,2,2,30,0,0
45357,-90.9090909090909,4,2,5,75,0,1
45617,-90.9090909090909,4,2,2,75,0,1
49531,-90.9090909090909,4,2,5,75,0,1
49791,-90.9090909090909,4,2,2,75,0,1
53313,-90.9090909090909,4,2,4,75,0,1
53704,-90.9090909090909,4,2,5,75,0,0
53965,-90.9090909090909,4,2,2,75,0,0
54226,-90.9090909090909,4,2,5,85,0,1
54357,-90.9090909090909,4,2,2,85,0,1
54617,-90.9090909090909,4,2,2,75,0,1
57878,-90.9090909090909,4,2,5,75,0,1
58139,-90.9090909090909,4,2,2,75,0,1
59965,-90.9090909090909,4,2,5,75,0,1
60226,-90.9090909090909,4,2,2,75,0,1
61531,-90.9090909090909,4,2,4,75,0,1
62052,-95.2380952380952,4,2,5,65,0,0
62313,-95.2380952380952,4,2,2,65,0,0
66226,-95.2380952380952,4,2,5,65,0,0
66487,-95.2380952380952,4,2,2,65,0,0
69357,-95.2380952380952,4,2,4,65,0,0
70400,-95.2380952380952,4,2,3,65,0,0
70661,-133.333333333333,4,2,1,65,0,0
72226,-133.333333333333,4,2,1,5,0,0

[Colours]
Combo1 : 185,188,249
Combo2 : 255,153,204
Combo3 : 255,255,198
Combo4 : 247,111,131
SliderTrackOverride : 0,30,60

[HitObjects]
376,135,487,5,2,0:0:0:0:
376,135,617,1,8,0:0:0:0:
312,188,747,2,0,L|320:232,2,28.125,8|8|8,0:0|0:0|0:0,0:0:0:0:
240,144,1008,2,0,L|248:68,1,56.25,8|8,0:0|0:0,0:0:0:0:
160,178,1269,1,4,0:0:0:0:
160,178,1531,6,0,L|174:299,1,112.5,6|8,1:2|0:0,0:0:0:0:
245,333,1922,1,0,0:0:0:0:
245,333,2052,2,0,P|319:346|374:320,1,112.5,8|0,0:0|0:0,0:0:0:0:
392,258,2444,1,2,1:2:0:0:
392,258,2574,2,0,L|458:254,1,56.25,0|8,0:0|0:0,0:0:0:0:
340,192,2835,1,0,1:0:0:0:
340,192,3096,2,0,L|344:117,1,56.25,8|0,0:0|0:0,0:0:0:0:
273,86,3357,2,0,L|276:12,1,56.25,0|0,0:0|0:0,0:0:0:0:
267,164,3617,6,0,P|215:188|141:172,1,112.5,2|8,1:2|0:0,0:0:0:0:
78,160,4009,1,0,0:0:0:0:
78,160,4139,2,0,L|95:306,1,112.5,8|0,0:0|0:0,0:0:0:0:
159,322,4531,1,2,1:2:0:0:
159,322,4661,2,0,L|153:394,1,56.25,0|8,0:0|0:0,0:0:0:0:
226,276,4922,1,0,1:0:0:0:
226,276,5183,2,0,L|294:266,1,56.25,8|0,0:0|0:0,0:0:0:0:
343,326,5444,2,0,L|406:338,1,56.25,0|0,0:0|0:0,0:0:0:0:
453,273,5704,6,0,B|471:215|471:215|448:150,1,112.5,2|8,1:2|0:0,0:0:0:0:
410,92,6096,1,0,0:0:0:0:
410,92,6226,2,0,B|354:111|354:111|296:93,1,112.5,8|0,0:0|0:0,0:0:0:0:
223,64,6617,1,2,1:2:0:0:
223,64,6748,2,0,L|230:145,1,56.25,0|8,0:0|0:0,0:0:0:0:
132,180,7009,1,0,1:0:0:0:
132,180,7270,2,0,P|86:174|44:178,1,56.25,8|0,0:0|1:0,0:0:0:0:
38,249,7531,2,0,P|84:255|126:251,1,56.25,0|0,0:0|0:0,0:0:0:0:
177,249,7791,6,0,P|234:222|318:253,1,112.5,2|8,1:2|0:0,0:0:0:0:
363,250,8183,1,0,0:0:0:0:
363,250,8313,2,0,L|380:132,1,112.5,8|0,0:0|0:0,0:0:0:0:
289,67,8704,1,4,1:2:0:0:
98,230,9878,5,4,1:2:0:0:
98,230,10139,2,0,P|89:196|90:161,1,59.0624981975556,6|0,0:0|0:0,0:0:0:0:
176,187,10400,2,0,P|182:152|197:123,1,59.0624981975556,10|0,1:2|0:0,0:0:0:0:
261,186,10661,1,4,0:0:0:0:
184,351,10922,2,0,L|124:354,2,59.0624981975556,0|10|4,1:0|0:0|0:0,0:0:0:0:
250,292,11313,1,2,0:0:0:0:
250,292,11444,2,0,P|319:301|380:259,1,118.124996395111,8|4,1:2|0:0,0:0:0:0:
394,197,11835,1,0,0:0:0:0:
326,109,11965,6,0,P|386:85|448:102,1,118.124996395111,2|4,1:2|0:0,0:0:0:0:
258,182,12487,2,0,P|197:211|138:189,1,118.124996395111,10|4,1:2|0:0,0:0:0:0:
1,107,13009,1,2,1:2:0:0:
1,107,13139,2,0,L|11:233,1,118.124996395111,8|0,0:0|0:0,0:0:0:0:
88,269,13531,2,0,P|88:302|97:333,1,59.0624981975556,10|0,1:2|0:0,0:0:0:0:
175,291,13791,2,0,P|182:260|183:231,1,59.0624981975556,4|0,0:0|0:0,0:0:0:0:
153,120,14052,5,4,1:2:0:0:
153,120,14313,2,0,L|237:128,1,59.0624981975556,6|0,0:0|0:0,0:0:0:0:
261,51,14574,2,0,L|324:57,1,59.0624981975556,10|0,1:2|0:0,0:0:0:0:
365,132,14835,1,4,0:0:0:0:
264,278,15096,2,0,L|268:203,2,59.0624981975556,0|10|4,1:0|0:0|0:0,0:0:0:0:
203,343,15487,1,2,0:0:0:0:
203,343,15617,2,0,P|148:319|76:341,1,118.124996395111,8|4,1:2|0:0,0:0:0:0:
51,250,16009,1,0,0:0:0:0:
147,189,16139,6,0,B|128:130|128:130|148:63,1,118.124996395111,2|4,1:2|0:0,0:0:0:0:
315,30,16661,2,0,B|334:89|334:89|314:156,1,118.124996395111,10|4,1:2|0:0,0:0:0:0:
147,189,17183,1,2,1:2:0:0:
147,189,17313,2,0,P|85:173|26:209,1,118.124996395111,8|0,0:0|0:0,0:0:0:0:
6,278,17704,2,0,L|16:362,1,59.0624981975556,10|8,1:2|0:0,0:0:0:0:
96,367,17965,2,0,L|105:293,1,59.0624981975556,12|8,1:2|0:0,0:0:0:0:
202,249,18226,5,6,1:2:0:0:
202,249,18487,2,0,L|270:258,1,59.0624981975556,2|0,0:0|0:0,0:0:0:0:
340,216,18748,2,0,P|410:240|462:218,1,118.124996395111,10|0,1:2|0:0,0:0:0:0:
348,77,19270,1,2,1:2:0:0:
348,77,19400,2,0,P|278:101|222:81,1,118.124996395111,8|2,0:0|0:0,0:0:0:0:
148,84,19791,2,0,P|124:94|87:98,1,59.0624981975556,8|0,1:2|0:0,0:0:0:0:
30,36,20052,2,0,P|54:26|91:23,1,59.0624981975556,0|0,0:0|0:0,0:0:0:0:
21,125,20313,5,0,1:0:0:0:
21,125,20574,2,0,L|29:205,1,59.0624981975556,2|0,0:0|0:0,0:0:0:0:
91,244,20835,2,0,B|145:215|145:215|211:232,1,118.124996395111,10|0,1:2|0:0,0:0:0:0:
359,308,21357,1,0,1:2:0:0:
359,308,21487,2,0,B|379:249|379:249|357:185,1,118.124996395111,10|2,0:0|0:0,0:0:0:0:
314,120,21878,2,0,L|324:36,1,59.0624981975556,8|0,1:2|0:0,0:0:0:0:
407,38,22139,2,0,L|399:105,1,59.0624981975556,0|0,0:0|0:0,0:0:0:0:
360,196,22400,5,4,1:2:0:0:
360,196,22661,2,0,P|331:206|297:210,1,59.0624981975556,2|0,0:0|0:0,0:0:0:0:
238,148,22922,2,0,P|190:121|115:145,1,118.124996395111,10|0,1:2|0:0,0:0:0:0:
0,254,23444,1,2,1:2:0:0:
0,254,23574,2,0,L|121:277,1,118.124996395111,8|2,0:0|0:0,0:0:0:0:
136,191,23965,2,0,L|129:121,1,59.0624981975556,8|0,1:2|0:0,0:0:0:0:
217,151,24226,2,0,L|222:209,1,59.0624981975556,0|0,0:0|0:0,0:0:0:0:
273,285,24487,6,0,B|331:305|331:305|396:283|396:283|465:305,2,191.250003647804,4|4|4,1:2|1:2|1:2,0:0:0:0:
137,331,25791,2,0,L|121:270,1,47.8125009119511,8|8,0:0|0:0,0:0:0:0:
104,215,26052,2,0,P|172:233|230:195,1,143.437502735853,2|4,0:0|0:0,0:0:0:0:
267,112,26574,5,4,1:2:0:0:
267,112,26835,2,0,L|194:118,1,59.0624981975556,2|0,0:0|0:0,0:0:0:0:
236,32,27096,2,0,B|291:14|291:14|356:27,1,118.124996395111,10|0,1:2|0:0,0:0:0:0:
396,196,27617,1,2,1:2:0:0:
396,196,27748,2,0,L|385:332,1,118.124996395111,8|2,0:0|0:0,0:0:0:0:
299,295,28139,2,0,P|267:307|217:308,1,59.0624981975556,8|0,1:2|0:0,0:0:0:0:
161,273,28400,2,0,P|149:241|148:191,1,59.0624981975556,0|0,0:0|0:0,0:0:0:0:
257,183,28661,5,0,1:0:0:0:
257,183,28922,2,0,L|262:116,1,59.0624981975556,2|0,0:0|0:0,0:0:0:0:
190,69,29183,2,0,P|136:43|61:69,1,118.124996395111,10|0,1:2|0:0,0:0:0:0:
25,222,29704,1,0,1:0:0:0:
25,222,29835,2,0,L|12:99,1,118.124996395111,10|2,0:0|0:0,0:0:0:0:
97,130,30226,2,0,L|104:201,1,59.0624981975556,8|0,1:2|0:0,0:0:0:0:
181,230,30487,2,0,L|188:301,1,59.0624981975556,0|0,0:0|0:0,0:0:0:0:
262,186,30748,5,4,1:2:0:0:
262,186,31009,2,0,P|305:183|346:161,1,59.0624981975556,2|0,0:0|0:0,0:0:0:0:
362,99,31270,2,0,P|423:72|498:109,1,118.124996395111,8|2,1:2|0:0,0:0:0:0:
466,261,31791,1,2,1:2:0:0:
466,261,31922,2,0,B|407:273|407:273|336:243,1,118.124996395111,8|2,0:0|0:0,0:0:0:0:
273,288,32313,2,0,P|278:320|275:359,1,59.0624981975556,8|0,1:2|0:0,0:0:0:0:
194,313,32574,2,0,P|189:281|192:242,1,59.0624981975556,0|0,0:0|0:0,0:0:0:0:
214,171,32835,6,0,B|153:145|153:145|82:160|82:160|24:132,2,191.250003647804,4|4|4,1:2|1:2|1:2,0:0:0:0:
330,220,34139,1,8,0:0:0:0:
330,220,34270,2,0,P|373:236|347:152,1,191.250003647804,8|8,0:0|0:0,0:0:0:0:
287,117,34922,6,0,B|263:53|263:53|317:25|387:56,2,191.250003647804,2|10|2,1:2|1:2|1:2,0:0:0:0:
229,249,36226,2,0,L|224:190,1,47.8125009119511,4|0,0:0|0:0,0:0:0:0:
164,162,36487,2,0,P|89:183|41:155,1,95.6250018239022,8|14,1:2|0:0,0:0:0:0:
19,127,36878,1,8,0:0:0:0:
19,127,37009,6,0,L|32:16,2,95.6250018239022,6|2|8,1:2|1:2|0:0,0:0:0:0:
4,202,37661,1,2,1:2:0:0:
103,105,37922,2,0,P|173:91|232:134,1,143.437502735853,2|0,1:2|1:0,0:0:0:0:
328,233,38574,2,0,L|337:170,2,47.8125009119511,10|0|4,0:0|1:0|0:0,0:0:0:0:
279,290,38965,1,4,0:0:0:0:
209,255,39096,6,0,B|151:296|100:291|100:291|93:210,2,191.250003647804,2|10|6,1:2|1:2|1:2,0:0:0:0:
262,121,40400,2,0,L|273:174,1,47.8125009119511,4|0,1:2|1:0,0:0:0:0:
328,212,40661,2,0,P|386:221|442:188,1,95.6250018239022,8|4,0:0|0:0,0:0:0:0:
476,164,41052,1,0,0:0:0:0:
476,164,41183,6,0,L|489:26,1,118.124996395111,0|0,1:0|1:0,0:0:0:0:
316,94,41704,2,0,L|329:232,1,118.124996395111,10|0,0:0|0:0,0:0:0:0:
166,133,42226,2,0,L|179:-5,1,118.124996395111,0|2,1:0|1:2,0:0:0:0:
36,124,42748,2,0,L|49:262,1,118.124996395111,8|4,0:0|0:0,0:0:0:0:
114,310,43139,1,4,0:0:0:0:
196,259,43270,6,0,L|263:277,1,59.0624981975556,6|0,1:2|0:0,0:0:0:0:
293,183,43531,2,0,L|355:172,1,59.0624981975556,0|0,1:0|1:0,0:0:0:0:
423,262,43791,2,0,L|412:382,2,118.124996395111,10|2|8,0:0|1:2|0:0,0:0:0:0:
465,181,44444,1,8,0:0:0:0:
465,181,44574,2,0,L|458:109,1,59.0624981975556,4|4,0:0|0:0,0:0:0:0:
371,137,44835,6,0,L|378:76,1,53.4374985730648,0|0,0:0|0:0,0:0:0:0:
277,26,45096,2,0,L|283:82,1,53.4374985730648,0|0,0:0|0:0,0:0:0:0:
297,196,45357,6,0,P|241:218|165:193,1,123.75000377655,4|6,1:2|0:0,0:0:0:0:
60,341,45878,2,0,L|49:272,1,61.8750018882752,10|0,1:2|0:0,0:0:0:0:
31,188,46139,1,4,0:0:0:0:
109,137,46270,2,0,P|122:109|153:75,1,61.8750018882752,2|0,0:0|0:0,0:0:0:0:
180,204,46531,2,0,P|209:213|235:229,1,61.8750018882752,8|4,0:0|0:0,0:0:0:0:
146,295,46791,2,0,P|160:322|167:352,1,61.8750018882752,2|8,0:0|1:2,0:0:0:0:
258,372,47052,2,0,P|288:365|315:350,1,61.8750018882752,2|4,0:0|0:0,0:0:0:0:
369,273,47313,1,2,0:0:0:0:
260,244,47444,6,0,L|268:120,1,123.75000377655,0|6,0:0|0:0,0:0:0:0:
423,18,47965,2,0,L|417:87,1,61.8750018882752,10|0,1:2|0:0,0:0:0:0:
364,156,48226,1,4,0:0:0:0:
267,120,48357,2,0,P|202:105|137:152,2,123.75000377655,2|8|0,0:0|0:0|0:0,0:0:0:0:
220,201,49009,2,0,L|230:273,2,61.8750018882752,10|0|6,1:2|0:0|0:0,0:0:0:0:
267,120,49400,1,0,0:0:0:0:
326,226,49531,6,0,P|340:295|311:360,1,123.75000377655,6|4,1:2|0:0,0:0:0:0:
147,224,50052,2,0,P|135:163|149:103,1,123.75000377655,10|4,1:2|0:0,0:0:0:0:
205,29,50444,2,0,P|231:22|291:25,1,61.8750018882752,2|0,0:0|0:0,0:0:0:0:
148,103,50704,2,0,P|122:110|62:107,1,61.8750018882752,8|4,0:0|0:0,0:0:0:0:
4,69,50965,1,2,0:0:0:0:
4,162,51096,2,0,L|15:290,1,123.75000377655,8|4,1:2|0:0,0:0:0:0:
80,351,51487,1,0,0:0:0:0:
172,274,51617,6,0,P|230:244|306:267,1,123.75000377655,2|4,1:2|0:0,0:0:0:0:
461,314,52139,2,0,P|403:344|327:321,1,123.75000377655,10|4,1:2|0:0,0:0:0:0:
285,253,52531,2,0,L|295:124,2,123.75000377655,10|10|0,0:0|0:0|0:0,0:0:0:0:
189,219,53183,2,0,L|182:293,1,61.8750018882752,8|8,1:2|0:0,0:0:0:0:
92,257,53444,2,0,L|81:346,1,61.8750018882752,4|2,0:0|0:0,0:0:0:0:
27,193,53704,2,0,L|38:58,1,123.75000377655,0|4,1:0|0:0,0:0:0:0:
126,36,54096,1,0,0:0:0:0:
182,112,54226,5,4,0:0:0:0:
182,112,54357,2,0,P|259:117|311:75,1,123.75000377655,0|2,0:0|0:0,0:0:0:0:
369,35,54748,1,0,0:0:0:0:
444,88,54878,2,0,L|441:157,1,61.8750018882752,8|4,0:0|0:0,0:0:0:0:
360,158,55139,2,0,L|355:244,1,61.8750018882752,2|8,0:0|1:2,0:0:0:0:
275,226,55400,2,0,L|270:312,1,61.8750018882752,2|4,0:0|0:0,0:0:0:0:
187,327,55661,1,2,0:0:0:0:
144,228,55791,6,0,P|74:215|14:255,1,123.75000377655,0|4,1:0|0:0,0:0:0:0:
133,83,56313,2,0,L|144:152,1,61.8750018882752,10|0,1:2|0:0,0:0:0:0:
224,181,56574,1,4,0:0:0:0:
272,102,56704,2,0,P|343:90|396:132,1,123.75000377655,2|8,0:0|0:0,0:0:0:0:
456,176,57096,2,0,P|461:206|460:237,1,61.8750018882752,4|0,0:0|0:0,0:0:0:0:
413,316,57357,2,0,P|413:353|424:395,2,61.8750018882752,10|0|4,1:2|0:0|0:0,0:0:0:0:
364,236,57748,1,2,0:0:0:0:
300,332,57878,6,0,P|235:340|185:310,1,123.75000377655,4|6,1:2|0:0,0:0:0:0:
85,171,58400,1,10,1:2:0:0:
85,171,58531,2,0,P|159:163|204:198,1,123.75000377655,0|2,0:0|0:0,0:0:0:0:
281,148,58922,2,0,L|286:78,1,61.8750018882752,0|8,0:0|0:0,0:0:0:0:
366,39,59183,2,0,B|425:25|425:25|487:62,1,123.75000377655,4|10,0:0|1:2,0:0:0:0:
473,147,59574,1,0,0:0:0:0:
473,147,59704,2,0,L|479:218,1,61.8750018882752,4|2,0:0|0:0,0:0:0:0:
413,308,59965,6,0,P|362:280|288:308,1,123.75000377655,4|6,1:2|0:0,0:0:0:0:
151,173,60487,1,10,1:2:0:0:
151,173,60617,2,0,L|281:186,1,123.75000377655,0|2,0:0|0:0,0:0:0:0:
356,140,61009,2,0,L|363:72,1,61.8750018882752,0|0,1:0|0:0,0:0:0:0:
453,56,61270,2,0,L|446:140,1,61.8750018882752,2|2,0:0|0:0,0:0:0:0:
427,208,61531,2,0,P|443:274|393:339,1,123.75000377655,4|8,0:0|0:0,0:0:0:0:
338,369,61922,1,8,0:0:0:0:
269,279,62052,5,4,1:2:0:0:
269,279,62313,2,0,P|277:237|271:198,1,59.0624981975556,2|0,0:0|0:0,0:0:0:0:
189,242,62574,2,0,P|177:200|155:168,1,59.0624981975556,10|0,1:2|0:0,0:0:0:0:
100,245,62835,1,0,0:0:0:0:
219,114,63096,2,0,L|290:116,2,59.0624981975556,0|10|0,1:0|0:0|0:0,0:0:0:0:
257,33,63487,1,2,0:0:0:0:
257,33,63617,2,0,L|391:35,1,118.124996395111,8|0,1:2|0:0,0:0:0:0:
442,199,64139,6,0,B|385:215|385:215|317:180,1,118.124996395111,2|4,1:2|0:0,0:0:0:0:
171,112,64661,2,0,B|113:96|113:96|45:131,1,118.124996395111,10|4,1:2|0:0,0:0:0:0:
31,297,65183,1,2,1:2:0:0:
31,297,65313,2,0,L|149:280,1,118.124996395111,8|0,0:0|0:0,0:0:0:0:
232,253,65704,2,0,P|241:218|242:186,1,59.0624981975556,10|0,1:2|0:0,0:0:0:0:
245,106,65965,2,0,P|247:76|255:48,1,59.0624981975556,4|0,0:0|0:0,0:0:0:0:
319,153,66226,5,4,1:2:0:0:
319,153,66487,2,0,L|328:247,1,59.0624981975556,2|0,0:0|0:0,0:0:0:0:
403,252,66748,2,0,L|411:319,1,59.0624981975556,10|0,1:2|0:0,0:0:0:0:
339,364,67009,1,0,0:0:0:0:
192,264,67270,2,0,P|149:276|132:276,2,59.0624981975556,0|10|0,1:0|0:0|0:0,0:0:0:0:
238,188,67661,1,2,0:0:0:0:
238,188,67791,2,0,L|228:51,1,118.124996395111,8|0,1:2|0:0,0:0:0:0:
56,113,68313,6,0,P|105:143|182:130,1,118.124996395111,2|4,1:2|0:0,0:0:0:0:
335,94,68835,2,0,P|393:90|442:120,1,118.124996395111,10|4,0:0|0:0,0:0:0:0:
459,297,69357,1,2,0:0:0:0:
459,297,69487,2,0,L|335:318,1,118.124996395111,8|2,0:0|0:0,0:0:0:0:
262,278,69878,2,0,P|266:246|266:202,1,59.0624981975556,2|8,0:0|0:0,0:0:0:0:
191,171,70139,2,0,P|187:203|187:247,1,59.0624981975556,2|4,0:0|0:0,0:0:0:0:
191,331,70400,5,4,0:0:0:0:
70,226,70661,1,2,0:0:0:0:
79,342,70922,1,2,0:0:0:0:
186,229,71183,1,2,0:0:0:0:
293,351,71444,2,0,L|299:275,1,42.1875016093255,0|2,0:0|0:0,0:0:0:0:
254,200,71835,2,0,B|301:179|348:203|348:203|377:177,1,126.562504827976,2|0,0:0|0:0,0:0:0:0:
