osu file format v14

[General]
AudioFilename: audio.mp3
AudioLeadIn: 0
PreviewTime: 44678
Countdown: 0
SampleSet: Soft
StackLeniency: 0.3
Mode: 0
LetterboxInBreaks: 0
EpilepsyWarning: 1
WidescreenStoryboard: 1

[Editor]
DistanceSpacing: 0.9
BeatDivisor: 6
GridSize: 4
TimelineZoom: 2.7

[Metadata]
Title:Joyful Todays
TitleUnicode:Joyful Todays
Artist:Nakano Azusa(CV:Taketatsu Ayana)
ArtistUnicode:中野 梓(CV:竹達彩奈)
Creator:Left
Version:Koiyuki's Extra
Source:けいおん!!
Tags:k-on!! BetaStar TaMul Akitoshi joker- joker Koiyuki Minakami Yuki cut version character song
BeatmapID:1217704
BeatmapSetID:568893

[Difficulty]
HPDrainRate:6
CircleSize:3.5
OverallDifficulty:8
ApproachRate:9.3
SliderMultiplier:2.7
SliderTickRate:1

[Events]
//Background and Video events
0,0,"BG.jpg",0,0
//Break Periods
//Storyboard Layer 0 (Background)
//Storyboard Layer 1 (Fail)
//Storyboard Layer 2 (Pass)
//Storyboard Layer 3 (Foreground)
//Storyboard Sound Samples

[TimingPoints]
487,521.739130434783,4,2,4,35,1,0
617,-100,4,2,2,35,0,0
1269,-100,4,2,4,45,0,0
1531,521.739130434783,4,2,5,65,1,0
1661,-100,4,2,2,65,0,0
8704,-100,4,2,3,65,0,0
9878,-100,4,2,5,65,0,0
10009,-100,4,2,2,65,0,0
14052,-100,4,2,5,65,0,0
14183,-100,4,2,2,65,0,0
18226,-100,4,2,5,65,0,0
18487,-100,4,2,2,65,0,0
22400,-100,4,2,5,65,0,0
22661,-100,4,2,2,65,0,0
24487,-100,4,2,3,65,0,0
25531,-100,4,2,5,65,0,0
25791,-100,4,2,4,65,0,0
26574,-100,4,2,5,65,0,0
26835,-100,4,2,2,65,0,0
30748,-100,4,2,5,65,0,0
31009,-100,4,2,2,65,0,0
32835,-100,4,2,3,65,0,0
33878,-100,4,2,5,65,0,0
34139,-100,4,2,4,65,0,0
34661,-100,4,2,2,65,0,0
35444,-80,4,2,2,65,0,0
35704,-100,4,2,2,65,0,0
35965,-62.5,4,2,2,65,0,0
36226,-100,4,2,2,65,0,0
37009,-83.3333333333333,4,2,5,65,0,0
37270,-100,4,2,2,65,0,0
38835,-100,4,2,4,65,0,0
39096,-100,4,2,2,65,0,0
39617,-80,4,2,2,65,0,0
39878,-100,4,2,2,65,0,0
40139,-62.5,4,2,5,65,0,0
40400,-100,4,2,2,65,0,0
42748,-100,4,2,4,65,0,0
43270,-100,4,2,5,65,0,0
43531,-100,4,2,2,65,0,0
43987,-100,4,2,2,5,0,0
44052,-100,4,2,2,65,0,0
44313,-100,4,2,2,75,0,0
44574,-100,4,2,4,85,0,0
44835,-100,4,2,2,65,0,0
45357,-66.6666666666667,4,2,5,75,0,1
45487,-100,4,2,2,75,0,1
46270,-83.3333333333333,4,2,2,75,0,1
46531,-100,4,2,2,75,0,1
47313,-66.6666666666667,4,2,2,75,0,1
47574,-100,4,2,2,75,0,1
48357,-66.6666666666667,4,2,2,75,0,1
48617,-100,4,2,2,75,0,1
49531,-66.6666666666667,4,2,5,75,0,1
49791,-100,4,2,2,75,0,1
50052,-66.6666666666667,4,2,2,75,0,1
50444,-100,4,2,2,75,0,1
51617,-66.6666666666667,4,2,2,75,0,1
53313,-100,4,2,4,75,0,1
53704,-100,4,2,5,65,0,0
53835,-100,4,2,2,65,0,0
54226,-66.6666666666667,4,2,5,85,0,1
54357,-66.6666666666667,4,2,2,85,0,1
54617,-100,4,2,2,75,0,1
55661,-66.6666666666667,4,2,2,75,0,1
56313,-100,4,2,2,75,0,1
56704,-66.6666666666667,4,2,2,75,0,1
56965,-100,4,2,2,75,0,1
57878,-66.6666666666667,4,2,5,75,0,1
58009,-100,4,2,2,75,0,1
59965,-66.6666666666667,4,2,5,75,0,1
60096,-100,4,2,2,75,0,1
61270,-100,4,2,4,75,0,1
62052,-100,4,2,5,65,0,0
62313,-100,4,2,2,65,0,0
66226,-100,4,2,5,65,0,0
66357,-100,4,2,2,65,0,0
69357,-100,4,2,4,65,0,0
70400,-100,4,2,3,65,0,0
70661,-100,4,2,0,65,0,0

[Colours]
Combo1 : 185,188,249
Combo2 : 255,153,204
Combo3 : 255,255,198
Combo4 : 247,111,131
SliderTrackOverride : 0,30,60

[HitObjects]
221,349,487,5,2,0:0:0:0:
189,218,617,1,8,0:0:0:0:
288,258,747,1,8,0:0:0:0:
288,258,813,1,8,0:0:0:0:
288,258,878,1,8,0:0:0:0:
122,309,1008,5,8,0:0:0:0:
114,342,1139,1,8,0:0:0:0:
31,204,1269,1,4,0:0:0:0:
39,237,1400,1,0,0:0:0:0:
221,349,1530,6,0,P|258:366|289:370,1,67.5,6|8,1:2|0:0,0:0:0:0:
506,292,1791,2,0,L|372:306,2,135,8|8|0,0:0|0:0|0:0,0:0:0:0:
410,134,2444,6,0,L|420:67,1,67.5,2|0,1:2|0:0,0:0:0:0:
499,193,2704,1,8,0:0:0:0:
381,117,2835,2,0,L|391:50,1,67.5,0|0,1:0|0:0,0:0:0:0:
470,210,3096,2,0,B|454:262|454:262|469:366,1,135,8|0,0:0|0:0,0:0:0:0:
352,100,3487,1,0,0:0:0:0:
286,185,3617,6,0,P|314:202|347:209,1,67.5,2|8,1:2|0:0,0:0:0:0:
241,20,3878,2,0,L|107:34,2,135,8|8|0,0:0|0:0|0:0,0:0:0:0:
178,172,4531,6,0,L|188:238,1,67.5,2|0,1:2|0:0,0:0:0:0:
216,43,4791,1,8,0:0:0:0:
153,195,4922,2,0,L|163:261,1,67.5,0|0,1:0|0:0,0:0:0:0:
368,342,5183,2,0,L|347:208,1,135,8|0,0:0|0:0,0:0:0:0:
268,134,5574,1,0,0:0:0:0:
180,368,5704,5,2,1:2:0:0:
264,299,5835,1,8,0:0:0:0:
79,328,5965,1,8,0:0:0:0:
49,307,6226,2,0,P|40:275|40:242,1,67.5,8|0,0:0|0:0,0:0:0:0:
462,76,6617,6,0,B|484:130|484:130|471:231,1,135,2|8,1:2|0:0,0:0:0:0:
363,84,7009,2,0,P|364:50|377:19,1,67.5,0|0,1:0|0:0,0:0:0:0:
470,239,7270,1,8,0:0:0:0:
275,147,7400,2,0,P|259:117|254:83,1,67.5,0|0,1:0|0:0,0:0:0:0:
371,196,7661,1,0,0:0:0:0:
382,303,7791,5,2,1:2:0:0:
283,259,7922,1,8,0:0:0:0:
470,239,8052,1,8,0:0:0:0:
491,263,8313,2,0,P|502:295|504:329,1,67.5,8|0,0:0|1:0,0:0:0:0:
7,54,8704,5,4,1:2:0:0:
35,35,9878,5,4,1:2:0:0:
7,54,10139,6,0,L|82:44,1,67.5,6|0,0:0|0:0,0:0:0:0:
172,90,10400,2,0,L|238:81,1,67.5,10|0,1:2|0:0,0:0:0:0:
337,126,10661,2,0,L|412:116,1,67.5,4|0,0:0|0:0,0:0:0:0:
239,81,10922,5,0,1:0:0:0:
403,117,11052,2,0,L|478:107,1,67.5,10|4,0:0|0:0,0:0:0:0:
234,211,11313,2,0,B|220:161|220:161|239:80,1,135,2|0,0:0|0:0,0:0:0:0:
340,232,11704,2,0,P|351:263|354:297,1,67.5,4|0,0:0|0:0,0:0:0:0:
128,190,11965,5,2,1:2:0:0:
128,190,12096,1,0,0:0:0:0:
128,190,12226,2,0,L|49:200,1,67.5,4|0,0:0|0:0,0:0:0:0:
87,360,12487,5,10,1:2:0:0:
5,291,12617,1,0,0:0:0:0:
87,360,12748,2,0,L|153:351,1,67.5,4|8,0:0|0:0,0:0:0:0:
315,332,13009,5,0,1:0:0:0:
278,230,13139,2,0,P|249:247|226:270,1,67.5,10|4,0:0|0:0,0:0:0:0:
345,227,13400,2,0,P|311:224|278:230,1,67.5,2|8,0:0|1:2,0:0:0:0:
399,265,13661,2,0,P|375:242|345:227,1,67.5,2|4,0:0|0:0,0:0:0:0:
32,305,14052,5,4,1:2:0:0:
5,291,14313,6,0,P|36:307|70:311,1,67.5,6|0,0:0|0:0,0:0:0:0:
158,365,14574,2,0,P|193:363|225:350,1,67.5,10|0,1:2|0:0,0:0:0:0:
330,350,14835,2,0,P|360:330|380:303,1,67.5,4|0,0:0|0:0,0:0:0:0:
223,352,15096,5,0,1:0:0:0:
379,305,15226,2,0,P|394:276|399:242,1,67.5,10|4,0:0|0:0,0:0:0:0:
463,363,15487,2,0,P|494:297|500:225,1,135,2|0,0:0|0:0,0:0:0:0:
282,172,15878,2,0,L|290:240,1,67.5,4|0,0:0|0:0,0:0:0:0:
399,52,16139,5,2,1:2:0:0:
399,52,16270,1,0,0:0:0:0:
399,52,16400,2,0,L|391:119,1,67.5,4|0,0:0|0:0,0:0:0:0:
290,240,16661,5,10,1:2:0:0:
185,214,16791,1,0,0:0:0:0:
290,240,16922,2,0,L|282:172,1,67.5,4|0,0:0|0:0,0:0:0:0:
399,52,17183,5,0,1:0:0:0:
282,172,17313,2,0,L|274:104,2,67.5,10|4|0,0:0|0:0|0:0,0:0:0:0:
300,333,17704,1,10,1:2:0:0:
300,333,17770,1,8,0:0:0:0:
300,333,17835,1,8,0:0:0:0:
185,214,17965,1,12,1:2:0:0:
382,262,18096,1,8,0:0:0:0:
267,50,18226,5,6,1:2:0:0:
267,50,18487,2,0,P|232:63|189:66,1,67.5,2|0,0:0|0:0,0:0:0:0:
80,7,18748,2,0,B|61:61|61:61|72:147,1,135,10|0,1:2|0:0,0:0:0:0:
133,288,19139,1,0,0:0:0:0:
192,196,19270,5,2,1:2:0:0:
192,196,19400,1,8,0:0:0:0:
37,246,19531,2,0,L|30:321,1,67.5,0|2,0:0|0:0,0:0:0:0:
202,372,19791,1,8,1:2:0:0:
133,288,19922,1,0,0:0:0:0:
298,213,20052,2,0,L|291:145,1,67.5,0|0,0:0|0:0,0:0:0:0:
278,10,20313,5,0,1:0:0:0:
278,10,20574,2,0,P|324:27|350:31,1,67.5,2|0,0:0|0:0,0:0:0:0:
156,155,20835,2,0,L|291:145,1,135,10|0,1:2|0:0,0:0:0:0:
470,187,21226,1,0,0:0:0:0:
436,84,21357,5,0,1:2:0:0:
436,84,21487,1,10,0:0:0:0:
371,231,21617,2,0,L|378:299,1,67.5,0|2,0:0|0:0,0:0:0:0:
477,255,21878,2,0,L|470:187,1,67.5,8|0,1:2|0:0,0:0:0:0:
291,145,22139,1,0,0:0:0:0:
436,84,22270,1,0,0:0:0:0:
382,351,22400,5,4,1:2:0:0:
382,351,22661,2,0,P|351:339|318:334,1,67.5,2|0,0:0|0:0,0:0:0:0:
244,253,22922,2,0,L|109:263,1,135,10|0,1:2|0:0,0:0:0:0:
19,324,23313,1,0,0:0:0:0:
86,154,23444,5,2,1:2:0:0:
86,154,23574,1,8,0:0:0:0:
2,259,23704,2,0,P|5:293|19:324,1,67.5,0|2,0:0|0:0,0:0:0:0:
193,158,23965,2,0,P|189:125|176:94,1,67.5,8|0,1:2|0:0,0:0:0:0:
109,262,24226,1,0,0:0:0:0:
15,70,24357,1,0,0:0:0:0:
300,162,24487,5,4,1:2:0:0:
278,267,25009,1,4,1:2:0:0:
257,373,25531,1,4,1:2:0:0:
300,162,25791,5,8,0:0:0:0:
257,373,25922,1,8,0:0:0:0:
264,271,26052,5,2,0:0:0:0:
282,281,26183,1,6,0:0:0:0:
292,263,26313,1,4,0:0:0:0:
274,253,26444,1,4,0:0:0:0:
278,267,26574,5,4,1:2:0:0:
277,266,26835,2,0,P|251:246|219:234,1,67.5,2|0,0:0|0:0,0:0:0:0:
351,362,27096,2,0,L|495:350,1,135,10|0,1:2|0:0,0:0:0:0:
485,350,27487,1,0,0:0:0:0:
370,210,27617,5,2,1:2:0:0:
370,210,27748,1,8,0:0:0:0:
462,153,27878,2,0,P|474:184|479:217,1,67.5,0|2,0:0|0:0,0:0:0:0:
277,266,28139,2,0,P|265:235|260:202,1,67.5,8|0,1:2|0:0,0:0:0:0:
390,73,28400,1,0,0:0:0:0:
370,210,28531,1,0,0:0:0:0:
308,3,28661,5,0,1:0:0:0:
308,3,28922,2,0,P|282:23|250:33,1,67.5,2|0,0:0|0:0,0:0:0:0:
144,60,29183,2,0,L|10:43,1,135,10|0,1:2|0:0,0:0:0:0:
10,43,29574,1,0,0:0:0:0:
192,157,29704,5,0,1:0:0:0:
192,157,29835,1,10,0:0:0:0:
91,195,29965,2,0,L|101:272,1,67.5,0|2,0:0|0:0,0:0:0:0:
278,300,30226,2,0,L|269:233,1,67.5,8|0,1:2|0:0,0:0:0:0:
99,261,30487,1,0,0:0:0:0:
192,157,30617,1,0,0:0:0:0:
116,369,30748,5,4,1:2:0:0:
116,368,31009,2,0,P|82:368|50:357,1,67.5,2|0,0:0|0:0,0:0:0:0:
205,307,31270,2,0,P|264:276|331:272,1,135,8|2,1:2|0:0,0:0:0:0:
473,350,31661,1,0,0:0:0:0:
404,146,31791,5,2,1:2:0:0:
486,215,31922,2,0,L|473:350,1,135,8|2,0:0|0:0,0:0:0:0:
404,146,32313,2,0,L|410:78,1,67.5,8|0,1:2|0:0,0:0:0:0:
486,215,32574,1,0,0:0:0:0:
331,272,32704,1,0,0:0:0:0:
414,24,32835,5,4,1:2:0:0:
380,127,33357,1,4,1:2:0:0:
486,104,33878,1,4,1:2:0:0:
414,24,34139,5,8,0:0:0:0:
414,24,34204,1,8,0:0:0:0:
414,24,34270,1,8,0:0:0:0:
380,127,34400,1,10,0:0:0:0:
486,104,34531,1,2,0:0:0:0:
380,127,34661,1,8,0:0:0:0:
486,104,34791,1,8,0:0:0:0:
273,150,34922,6,0,P|205:148|143:123,1,135,2|4,1:2|0:0,0:0:0:0:
273,150,35444,6,0,B|228:166|196:186|196:186|176:153|143:123,1,168.75,10|4,1:2|0:0,0:0:0:0:
227,53,35835,1,0,0:0:0:0:
273,150,35965,6,0,P|195:205|144:123,1,216,2|4,1:2|0:0,0:0:0:0:
227,53,36357,1,0,0:0:0:0:
382,133,36487,6,0,L|448:123,1,67.5,8|0,1:2|0:0,0:0:0:0:
273,150,36748,1,14,0:0:0:0:
273,150,36878,1,8,0:0:0:0:
486,207,37009,6,0,B|503:134|503:134|490:21,2,161.999995056153,6|2|8,1:2|1:2|0:0,0:0:0:0:
410,283,37661,2,0,P|396:314|394:348,1,67.5,2|0,1:2|0:0,0:0:0:0:
495,338,37922,6,0,B|401:318|401:318|278:343,1,202.5,2|0,1:2|1:0,0:0:0:0:
28,366,38574,2,0,P|14:335|12:301,1,67.5,10|0,0:0|1:0,0:0:0:0:
216,193,38835,1,4,0:0:0:0:
110,172,38965,1,4,0:0:0:0:
323,213,39096,6,0,L|309:78,1,135,2|4,1:2|0:0,0:0:0:0:
323,213,39617,6,0,P|359:142|310:79,1,168.75,10|4,1:2|0:0,0:0:0:0:
216,193,40009,1,0,0:0:0:0:
323,213,40139,6,0,B|346:221|346:221|302:147|335:65|335:65|309:79,1,216,6|4,1:2|1:2,0:0:0:0:
216,193,40531,1,0,1:0:0:0:
308,325,40661,2,0,L|392:314,1,67.5,8|0,0:0|0:0,0:0:0:0:
216,193,40922,2,0,L|149:201,1,67.5,4|0,0:0|0:0,0:0:0:0:
317,12,41183,6,0,P|318:45|309:78,1,67.5,0|0,1:0|0:0,0:0:0:0:
194,371,41444,2,0,P|193:338|202:305,1,67.5,0|0,1:0|0:0,0:0:0:0:
467,130,41704,6,0,P|445:155|416:172,1,67.5,10|0,0:0|0:0,0:0:0:0:
44,253,41965,2,0,P|66:228|96:212,1,67.5,0|2,0:0|0:0,0:0:0:0:
148,201,42161,1,0,0:0:0:0:
148,201,42226,6,0,L|157:123,1,67.5,0|0,1:0|0:0,0:0:0:0:
363,182,42487,2,0,L|356:250,1,67.5,2|0,1:2|0:0,0:0:0:0:
137,309,42748,5,8,0:0:0:0:
137,309,42878,1,2,0:0:0:0:
375,75,43009,1,4,0:0:0:0:
375,75,43139,1,4,0:0:0:0:
346,357,43270,5,6,1:2:0:0:
166,27,43531,1,0,1:0:0:0:
200,46,43617,1,0,1:0:0:0:
235,65,43704,1,0,1:0:0:0:
274,83,43791,2,0,L|375:75,1,101.25,10|0,0:0|0:0,0:0:0:0:
418,42,44052,2,0,P|451:44|484:59,1,67.5,2|8,1:2|0:0,0:0:0:0:
216,193,44313,5,8,0:0:0:0:
475,265,44444,1,8,0:0:0:0:
267,208,44574,5,4,0:0:0:0:
508,162,44704,1,4,0:0:0:0:
388,185,44835,1,0,0:0:0:0:
388,185,45357,6,0,B|404:227|404:227|396:287,1,101.250003862381,4|0,1:2|0:0,0:0:0:0:
280,170,45617,6,0,L|285:102,1,67.5,6|0,0:0|0:0,0:0:0:0:
388,185,45878,1,10,1:2:0:0:
252,274,46009,2,0,P|221:260|196:238,1,67.5,0|4,0:0|0:0,0:0:0:0:
40,229,46270,6,0,B|137:212|137:212|196:238,1,161.999995056153,2|8,0:0|0:0,0:0:0:0:
68,138,46661,5,4,0:0:0:0:
68,138,46791,2,0,L|1:149,1,67.5,2|8,0:0|1:2,0:0:0:0:
86,349,47052,2,0,L|152:337,1,67.5,2|4,0:0|0:0,0:0:0:0:
303,276,47313,6,0,B|376:285|376:285|428:267|428:267|508:278,1,202.500007724762,2|0,0:0|0:0,0:0:0:0:
363,190,47704,6,0,P|349:159|345:125,1,67.5,6|0,0:0|0:0,0:0:0:0:
492,15,47965,1,10,1:2:0:0:
454,131,48096,1,0,0:0:0:0:
501,277,48226,1,4,0:0:0:0:
363,190,48357,6,0,B|290:181|290:181|238:199|238:199|158:188,2,202.500007724762,2|8|0,0:0|0:0|0:0,0:0:0:0:
174,296,49009,6,0,L|107:287,1,67.5,10|0,1:2|0:0,0:0:0:0:
281,308,49270,1,6,0:0:0:0:
281,308,49400,1,0,0:0:0:0:
164,188,49531,6,0,P|112:105|135:9,1,202.500007724762,6|4,1:2|0:0,0:0:0:0:
347,195,50052,2,0,P|399:278|376:374,1,202.500007724762,10|4,1:2|0:0,0:0:0:0:
387,190,50444,5,2,0:0:0:0:
387,190,50574,2,0,P|409:218|421:251,1,67.5,0|8,0:0|0:0,0:0:0:0:
410,355,50835,1,4,0:0:0:0:
410,355,50965,1,2,0:0:0:0:
281,166,51096,2,0,P|293:135|314:109,1,67.5,8|0,1:2|0:0,0:0:0:0:
314,272,51357,2,0,P|280:277|247:272,1,67.5,4|0,0:0|0:0,0:0:0:0:
94,173,51617,6,0,B|117:273|117:273|85:376,1,202.500007724762,2|4,1:2|0:0,0:0:0:0:
418,211,52139,2,0,B|395:111|395:111|427:8,1,202.500007724762,10|4,1:2|0:0,0:0:0:0:
396,112,52531,5,10,0:0:0:0:
289,124,52791,1,10,0:0:0:0:
182,137,53052,1,0,0:0:0:0:
75,150,53183,5,8,1:2:0:0:
182,137,53313,1,8,0:0:0:0:
396,112,53444,5,4,0:0:0:0:
289,124,53574,1,2,0:0:0:0:
117,51,53704,5,0,1:0:0:0:
117,51,53965,2,0,P|144:76|159:119,1,67.5,4|0,0:0|0:0,0:0:0:0:
3,45,54226,6,0,P|97:26|156:103,1,202.500007724762,4|4,0:0|0:0,0:0:0:0:
65,299,54617,6,0,L|56:219,1,67.5,2|0,0:0|0:0,0:0:0:0:
188,359,54878,1,10,0:0:0:0:
188,359,55009,2,0,L|197:279,1,67.5,4|0,0:0|0:0,0:0:0:0:
271,148,55270,1,8,1:2:0:0:
271,148,55401,2,0,L|262:68,1,67.5,2|4,0:0|0:0,0:0:0:0:
394,206,55661,1,2,0:0:0:0:
394,206,55791,6,0,B|407:108|407:108|472:106|486:159,2,202.500007724762,0|4|10,1:0|0:0|1:2,0:0:0:0:
481,368,56444,2,0,P|500:336|510:291,1,67.5,0|4,0:0|0:0,0:0:0:0:
487,159,56704,6,0,B|389:185|389:185|288:173,1,202.500007724762,2|8,0:0|0:0,0:0:0:0:
349,296,57096,6,0,L|428:305,1,67.5,4|0,0:0|0:0,0:0:0:0:
329,75,57357,1,10,1:2:0:0:
221,62,57487,1,0,0:0:0:0:
114,50,57617,1,4,0:0:0:0:
288,173,57748,1,2,0:0:0:0:
221,62,57878,6,0,B|179:144|179:144|194:253,2,202.500007724762,4|6|10,1:2|0:0|1:2,0:0:0:0:
288,174,58531,5,0,0:0:0:0:
288,174,58661,2,0,L|298:240,1,67.5,4|2,0:0|0:0,0:0:0:0:
101,308,58922,2,0,L|90:374,1,67.5,0|10,0:0|0:0,0:0:0:0:
194,253,59183,5,4,0:0:0:0:
194,253,59444,1,10,1:2:0:0:
177,146,59574,1,0,0:0:0:0:
160,39,59704,1,4,0:0:0:0:
30,196,59835,1,2,0:0:0:0:
30,196,59965,6,0,P|127:182|193:252,1,202.500007724762,4|6,1:2|0:0,0:0:0:0:
482,188,60487,5,10,1:2:0:0:
482,188,60617,2,0,L|398:182,1,67.5,0|4,0:0|0:0,0:0:0:0:
263,80,60878,6,0,L|347:74,1,67.5,2|0,0:0|1:0,0:0:0:0:
446,291,61139,1,0,0:0:0:0:
441,317,61270,1,2,0:0:0:0:
436,343,61400,1,2,0:0:0:0:
249,310,61531,5,4,0:0:0:0:
369,165,61661,1,4,0:0:0:0:
172,184,61791,5,8,0:0:0:0:
446,291,61922,1,8,0:0:0:0:
309,240,62052,5,4,1:2:0:0:
333,263,62313,6,0,L|326:179,1,67.5,2|0,0:0|0:0,0:0:0:0:
221,217,62574,2,0,L|214:133,1,67.5,10|0,1:2|0:0,0:0:0:0:
109,171,62835,2,0,L|103:103,1,67.5,0|0,0:0|0:0,0:0:0:0:
215,149,63096,5,0,1:0:0:0:
103,104,63226,2,0,L|96:20,1,67.5,10|0,0:0|0:0,0:0:0:0:
9,283,63487,2,0,B|67:265|67:265|156:292,1,135,2|0,0:0|0:0,0:0:0:0:
212,365,63878,2,0,L|294:355,1,67.5,0|0,0:0|0:0,0:0:0:0:
482,279,64139,5,2,1:2:0:0:
482,279,64270,1,0,0:0:0:0:
482,279,64400,2,0,P|442:274|403:253,1,67.5,4|0,0:0|0:0,0:0:0:0:
382,83,64661,5,10,1:2:0:0:
292,140,64791,1,0,0:0:0:0:
382,83,64922,2,0,P|395:113|400:146,1,67.5,4|0,0:0|0:0,0:0:0:0:
279,357,65183,5,0,1:0:0:0:
243,255,65313,2,0,L|321:264,1,67.5,10|4,0:0|0:0,0:0:0:0:
175,247,65574,2,0,L|243:255,1,67.5,2|8,0:0|1:2,0:0:0:0:
107,239,65835,2,0,L|175:247,1,67.5,2|4,0:0|0:0,0:0:0:0:
0,226,66226,5,4,1:2:0:0:
18,254,66487,6,0,P|18:220|32:189,1,67.5,2|0,0:0|0:0,0:0:0:0:
123,131,66748,2,0,P|147:107|178:95,1,67.5,10|0,1:2|0:0,0:0:0:0:
283,118,67009,2,0,P|317:118|348:132,1,67.5,0|0,0:0|0:0,0:0:0:0:
178,95,67270,5,0,1:0:0:0:
348,132,67400,2,0,P|371:156|383:187,1,67.5,10|0,0:0|0:0,0:0:0:0:
425,55,67661,2,0,P|468:113|490:188,1,135,2|0,0:0|0:0,0:0:0:0:
272,284,68052,2,0,L|279:217,1,67.5,0|0,0:0|0:0,0:0:0:0:
459,337,68313,5,2,1:2:0:0:
459,337,68444,1,0,0:0:0:0:
459,337,68574,2,0,L|453:270,1,67.5,4|0,0:0|0:0,0:0:0:0:
279,217,68835,5,10,0:0:0:0:
383,187,68965,1,0,0:0:0:0:
279,217,69096,2,0,L|285:149,1,67.5,4|0,0:0|0:0,0:0:0:0:
114,15,69357,5,2,0:0:0:0:
133,120,69487,1,8,0:0:0:0:
32,84,69617,1,8,0:0:0:0:
32,84,69683,1,8,0:0:0:0:
32,84,69748,1,2,0:0:0:0:
215,51,69878,5,2,0:0:0:0:
32,84,70009,1,8,0:0:0:0:
285,149,70139,1,2,0:0:0:0:
114,15,70270,1,4,0:0:0:0:
82,228,70400,5,4,0:0:0:0:
82,228,70661,5,2,0:0:0:0:
200,203,70922,1,2,0:0:0:0:
103,333,71183,1,2,0:0:0:0:
61,123,71444,1,0,0:0:0:0:
61,123,71574,1,2,0:0:0:0:
103,333,71835,1,2,0:0:0:0:
