osu file format v14

[General]
AudioFilename: audio.mp3
AudioLeadIn: 0
PreviewTime: 44678
Countdown: 0
SampleSet: Soft
StackLeniency: 0.3
Mode: 0
LetterboxInBreaks: 0
EpilepsyWarning: 1
WidescreenStoryboard: 1

[Editor]
DistanceSpacing: 0.5
BeatDivisor: 4
GridSize: 4
TimelineZoom: 1

[Metadata]
Title:Joyful Todays
TitleUnicode:Joyful Todays
Artist:Nakano Azusa(CV:Taketatsu Ayana)
ArtistUnicode:中野 梓(CV:竹達彩奈)
Creator:Left
Version:Insane
Source:けいおん!!
Tags:k-on!! BetaStar TaMul Akitoshi joker- joker Koiyuki Minakami Yuki cut version character song
BeatmapID:1206076
BeatmapSetID:568893

[Difficulty]
HPDrainRate:6
CircleSize:4.3
OverallDifficulty:7.3
ApproachRate:9
SliderMultiplier:2.4
SliderTickRate:1

[Events]
//Background and Video events
0,0,"BG.jpg",0,0
//Break Periods
//Storyboard Layer 0 (Background)
//Storyboard Layer 1 (Fail)
//Storyboard Layer 2 (Pass)
//Storyboard Layer 3 (Foreground)
//Storyboard Sound Samples

[TimingPoints]
487,521.739130434783,4,2,4,55,1,0
617,-100,4,2,2,55,0,0
1269,-100,4,2,4,55,0,0
1531,521.739130434783,4,2,5,55,1,0
1661,-100,4,2,2,55,0,0
8704,-100,4,2,3,55,0,0
9878,-83.3333333333333,4,2,5,65,0,0
10009,-83.3333333333333,4,2,2,65,0,0
14052,-83.3333333333333,4,2,5,65,0,0
14183,-83.3333333333333,4,2,2,65,0,0
18226,-83.3333333333333,4,2,5,65,0,0
18487,-83.3333333333333,4,2,2,65,0,0
22400,-83.3333333333333,4,2,5,65,0,0
22661,-83.3333333333333,4,2,2,65,0,0
24487,-83.3333333333333,4,2,3,65,0,0
25531,-83.3333333333333,4,2,5,65,0,0
25791,-83.3333333333333,4,2,4,65,0,0
26574,-83.3333333333333,4,2,5,65,0,0
26835,-83.3333333333333,4,2,2,65,0,0
30748,-83.3333333333333,4,2,5,65,0,0
31009,-83.3333333333333,4,2,2,65,0,0
32835,-83.3333333333333,4,2,3,65,0,0
33878,-83.3333333333333,4,2,5,65,0,0
34139,-83.3333333333333,4,2,4,65,0,0
34661,-83.3333333333333,4,2,2,65,0,0
37009,-83.3333333333333,4,2,5,65,0,0
37270,-83.3333333333333,4,2,2,65,0,0
38835,-83.3333333333333,4,2,4,65,0,0
39096,-83.3333333333333,4,2,2,65,0,0
40139,-83.3333333333333,4,2,5,65,0,0
40400,-83.3333333333333,4,2,2,65,0,0
42748,-83.3333333333333,4,2,4,65,0,0
43270,-83.3333333333333,4,2,5,65,0,0
43531,-83.3333333333333,4,2,2,65,0,0
43726,-83.3333333333333,4,2,2,5,0,0
43791,-83.3333333333333,4,2,2,65,0,0
43987,-83.3333333333333,4,2,2,5,0,0
44052,-83.3333333333333,4,2,2,65,0,0
44313,-83.3333333333333,4,2,2,75,0,0
44574,-83.3333333333333,4,2,4,85,0,0
44835,-111.111111111111,4,2,2,30,0,0
45096,-111.111111111111,4,2,2,30,0,0
45357,-74.0740740740741,4,2,5,75,0,1
45617,-74.0740740740741,4,2,2,75,0,1
49531,-74.0740740740741,4,2,5,75,0,1
49791,-74.0740740740741,4,2,2,75,0,1
52661,-74.0740740740741,4,2,2,5,0,1
52791,-74.0740740740741,4,2,2,75,0,1
52922,-74.0740740740741,4,2,2,5,0,1
53052,-74.0740740740741,4,2,2,75,0,1
53313,-74.0740740740741,4,2,4,75,0,1
53704,-111.111111111111,4,2,5,50,0,0
53965,-111.111111111111,4,2,2,50,0,0
54226,-66.6666666666667,4,2,5,85,0,1
54357,-66.6666666666667,4,2,2,85,0,1
54617,-74.0740740740741,4,2,2,75,0,1
57878,-74.0740740740741,4,2,5,75,0,1
58139,-74.0740740740741,4,2,2,75,0,1
59965,-74.0740740740741,4,2,5,75,0,1
60226,-74.0740740740741,4,2,2,75,0,1
61270,-74.0740740740741,4,2,4,75,0,1
62052,-83.3333333333333,4,2,5,65,0,0
62313,-83.3333333333333,4,2,2,65,0,0
66226,-83.3333333333333,4,2,5,65,0,0
66487,-83.3333333333333,4,2,2,65,0,0
69357,-83.3333333333333,4,2,4,65,0,0
70400,-83.3333333333333,4,2,3,65,0,0
70661,-111.111111111111,4,2,0,65,0,0

[Colours]
Combo1 : 185,188,249
Combo2 : 255,153,204
Combo3 : 255,255,198
Combo4 : 247,111,131
SliderTrackOverride : 0,30,60

[HitObjects]
344,213,487,5,2,0:0:0:0:
348,140,617,1,8,0:0:0:0:
355,66,747,2,0,L|349:13,2,30,8|8|8,0:0|0:0|0:0,0:0:0:0:
278,173,1008,6,0,L|200:159,1,60,8|8,0:0|0:0,0:0:0:0:
399,280,1269,2,0,L|496:265,1,60,4|0,0:0|0:0,0:0:0:0:
255,354,1531,6,0,P|227:356|161:325,2,60,6|8|8,1:2|0:0|0:0,0:0:0:0:
286,373,2052,2,0,P|228:381|148:346,1,120,8|0,0:0|0:0,0:0:0:0:
110,182,2444,6,0,B|106:229|106:229|115:254|115:254|106:325,1,120,2|8,1:2|0:0,0:0:0:0:
247,224,2835,1,0,1:0:0:0:
247,224,3096,2,0,B|220:212|220:212|181:220,1,60,8|0,0:0|0:0,0:0:0:0:
54,306,3357,2,0,B|80:291|80:291|132:307,1,60,0|0,0:0|0:0,0:0:0:0:
115,131,3617,6,0,L|105:39,2,60,2|8|8,1:2|0:0|0:0,0:0:0:0:
99,164,4139,2,0,L|86:45,1,120,8|0,0:0|0:0,0:0:0:0:
164,214,4531,6,0,P|121:243|32:203,1,120,2|8,1:2|0:0,0:0:0:0:
209,150,4922,1,0,1:0:0:0:
209,150,5183,2,0,L|213:83,1,60,8|0,0:0|0:0,0:0:0:0:
119,279,5444,2,0,L|127:367,1,60,0|0,0:0|0:0,0:0:0:0:
317,237,5704,6,0,P|347:224|401:242,2,60,2|8|8,1:2|0:0|0:0,0:0:0:0:
283,226,6226,2,0,P|342:198|419:211,1,120,8|0,0:0|0:0,0:0:0:0:
228,288,6617,6,0,B|206:310|206:310|194:189,1,120,2|8,1:2|0:0,0:0:0:0:
181,65,7008,1,0,1:0:0:0:
181,65,7270,2,0,P|217:77|271:62,1,60,8|0,0:0|1:0,0:0:0:0:
380,178,7531,2,0,P|348:179|287:220,1,60,0|0,0:0|0:0,0:0:0:0:
228,288,7791,6,0,L|224:367,2,60,2|8|8,1:2|0:0|0:0,0:0:0:0:
224,93,8313,2,0,B|223:127|223:127|239:172|239:172|237:239,1,120,8|0,0:0|0:0,0:0:0:0:
224,347,8704,1,4,1:2:0:0:
229,294,9878,6,0,L|145:285,1,71.9999978027344,4|0,1:2|0:0,0:0:0:0:
294,238,10139,2,0,P|313:274|307:330,1,71.9999978027344,6|0,0:0|0:0,0:0:0:0:
281,155,10400,2,0,P|302:121|354:98,1,71.9999978027344,10|0,1:2|0:0,0:0:0:0:
218,210,10661,2,0,P|177:209|131:175,1,71.9999978027344,4|0,0:0|0:0,0:0:0:0:
328,103,10922,5,0,1:0:0:0:
328,103,11052,2,0,B|334:156|334:156|323:193|323:193|331:266,1,143.999995605469,10|2,0:0|0:0,0:0:0:0:
409,246,11444,2,0,P|406:204|419:164,1,71.9999978027344,8|0,1:2|0:0,0:0:0:0:
248,106,11704,2,0,P|252:148|239:190,1,71.9999978027344,4|0,0:0|0:0,0:0:0:0:
109,296,11965,5,2,1:2:0:0:
109,296,12096,2,0,P|183:256|252:283,1,143.999995605469
322,368,12487,5,10,1:2:0:0:
322,368,12618,2,0,P|256:334|237:263,1,143.999995605469,0|8,0:0|0:0,0:0:0:0:
279,149,13009,5,2,1:2:0:0:
279,149,13139,2,0,P|283:219|226:274,1,143.999995605469,8|0,0:0|0:0,0:0:0:0:
109,203,13531,5,10,1:2:0:0:
109,203,13661,2,0,B|88:175|88:175|216:188,1,143.999995605469
291,286,14052,6,0,P|256:294|198:272,1,71.9999978027344,4|0,1:2|0:0,0:0:0:0:
314,185,14313,2,0,L|397:193,1,71.9999978027344,6|0,0:0|0:0,0:0:0:0:
404,337,14574,2,0,L|366:256,1,71.9999978027344,10|0,1:2|0:0,0:0:0:0:
489,184,14835,2,0,L|434:260,1,71.9999978027344,4|0,0:0|0:0,0:0:0:0:
270,113,15096,5,0,1:0:0:0:
270,113,15226,2,0,P|320:69|406:99,1,143.999995605469,10|2,0:0|0:0,0:0:0:0:
357,216,15617,2,0,P|344:185|349:130,1,71.9999978027344,8|0,1:2|0:0,0:0:0:0:
427,261,15878,2,0,P|431:300|415:343,1,71.9999978027344,4|0,0:0|0:0,0:0:0:0:
218,346,16139,5,2,1:2:0:0:
218,346,16270,2,0,B|214:290|214:290|224:258|224:258|218:190,1,143.999995605469
342,134,16661,5,10,1:2:0:0:
342,134,16792,2,0,B|295:165|295:165|257:173|257:173|211:209,1,143.999995605469
96,131,17183,5,2,1:2:0:0:
96,131,17314,2,0,B|143:153|143:153|174:184|174:184|224:205,1,143.999995605469,8|0,0:0|0:0,0:0:0:0:
363,61,17704,1,10,1:2:0:0:
363,61,17770,1,8,0:0:0:0:
363,61,17835,1,8,0:0:0:0:
296,108,17965,2,0,P|283:66|291:21,1,71.9999978027344,12|8,1:2|0:0,0:0:0:0:
470,138,18226,5,6,1:2:0:0:
470,138,18487,2,0,L|481:219,1,71.9999978027344,2|0,0:0|0:0,0:0:0:0:
449,288,18748,2,0,B|406:259|406:259|390:140,1,143.999995605469,10|0,1:2|0:0,0:0:0:0:
227,48,19270,5,2,1:2:0:0:
237,133,19400,2,0,L|250:292,1,143.999995605469,8|2,0:0|0:0,0:0:0:0:
331,233,19791,2,0,B|339:197|339:197|320:153,1,71.9999978027344,8|0,1:2|0:0,0:0:0:0:
157,185,20052,2,0,B|149:221|149:221|168:265,1,71.9999978027344,0|0,0:0|0:0,0:0:0:0:
237,133,20313,5,0,1:0:0:0:
237,133,20574,2,0,L|247:44,1,71.9999978027344,2|0,0:0|0:0,0:0:0:0:
308,191,20835,2,0,P|235:227|152:161,1,143.999995605469,10|0,1:2|0:0,0:0:0:0:
30,26,21357,5,0,1:2:0:0:
39,110,21487,2,0,L|54:275,1,143.999995605469,10|2,0:0|0:0,0:0:0:0:
138,209,21878,2,0,L|129:116,1,71.9999978027344,8|0,1:2|0:0,0:0:0:0:
52,253,22139,2,0,L|61:346,1,71.9999978027344,0|0,0:0|0:0,0:0:0:0:
208,271,22400,5,4,1:2:0:0:
208,271,22661,2,0,L|319:265,1,71.9999978027344,2|0,0:0|0:0,0:0:0:0:
452,334,22922,2,0,B|401:330|401:330|363:351|363:351|303:347,1,143.999995605469,10|0,1:2|0:0,0:0:0:0:
136,146,23444,5,2,1:2:0:0:
200,215,23574,2,0,P|263:226|327:143,1,143.999995605469,8|2,0:0|0:0,0:0:0:0:
147,75,23965,2,0,P|138:112|137:177,1,71.9999978027344,8|0,1:2|0:0,0:0:0:0:
212,285,24226,2,0,P|209:249|199:215,1,71.9999978027344,0|0,0:0|0:0,0:0:0:0:
407,162,24487,5,4,1:2:0:0:
394,246,25009,1,4,1:2:0:0:
330,192,25531,1,4,1:2:0:0:
407,162,25791,6,0,L|501:169,1,71.9999978027344,8|8,0:0|0:0,0:0:0:0:
371,265,26052,2,0,L|465:272,1,71.9999978027344,2|6,0:0|0:0,0:0:0:0:
338,367,26313,2,0,L|432:374,1,71.9999978027344,4|4,0:0|0:0,0:0:0:0:
277,293,26574,6,0,B|219:297|219:297|191:287|191:287|102:293,1,143.999995605469,4|2,1:2|0:0,0:0:0:0:
51,247,26965,1,0,0:0:0:0:
51,247,27096,2,0,P|9:180|35:109,1,143.999995605469,10|0,1:2|0:0,0:0:0:0:
100,63,27487,1,0,0:0:0:0:
233,180,27617,6,0,L|311:174,2,71.9999978027344,2|8|0,1:2|0:0|0:0,0:0:0:0:
167,125,28009,1,2,0:0:0:0:
223,250,28139,2,0,P|233:201|231:165,1,71.9999978027344,8|0,1:2|0:0,0:0:0:0:
176,54,28400,2,0,P|166:103|168:139,1,71.9999978027344,0|0,0:0|0:0,0:0:0:0:
306,127,28661,6,0,B|341:107|341:107|467:124,1,143.999995605469,0|2,1:0|0:0,0:0:0:0:
490,208,29052,1,0,0:0:0:0:
490,208,29183,2,0,P|422:250|340:209,1,143.999995605469,10|0,1:2|0:0,0:0:0:0:
303,162,29574,1,0,0:0:0:0:
184,296,29704,6,0,L|191:378,2,71.9999978027344,0|10|0,1:0|0:0|0:0,0:0:0:0:
241,230,30096,1,2,0:0:0:0:
114,174,30226,2,0,P|74:166|20:167,1,71.9999978027344,8|0,1:2|0:0,0:0:0:0:
241,230,30487,2,0,P|281:222|335:223,1,71.9999978027344,0|0,0:0|0:0,0:0:0:0:
131,316,30748,6,0,L|108:123,1,143.999995605469,4|2,1:2|0:0,0:0:0:0:
163,90,31139,1,0,0:0:0:0:
163,90,31270,2,0,P|236:73|300:141,1,143.999995605469,8|2,1:2|0:0,0:0:0:0:
315,199,31661,1,0,0:0:0:0:
195,336,31791,6,0,L|109:328,2,71.9999978027344,2|8|0,1:2|0:0|0:0,0:0:0:0:
252,268,32183,1,2,0:0:0:0:
327,377,32313,2,0,P|337:339|334:301,1,71.9999978027344,8|0,1:2|0:0,0:0:0:0:
261,197,32574,2,0,P|250:231|251:267,1,71.9999978027344,0|0,0:0|0:0,0:0:0:0:
466,178,32835,5,4,1:2:0:0:
408,243,33357,1,4,1:2:0:0:
332,202,33878,1,4,1:2:0:0:
408,243,34139,5,8,0:0:0:0:
408,243,34204,1,8,0:0:0:0:
408,243,34270,1,8,0:0:0:0:
332,202,34400,2,0,L|337:109,1,71.9999978027344,10|2,0:0|0:0,0:0:0:0:
481,285,34661,2,0,L|476:378,1,71.9999978027344,8|8,0:0|0:0,0:0:0:0:
288,329,34922,6,0,L|115:315,1,143.999995605469,2|4,1:2|0:0,0:0:0:0:
335,130,35444,2,0,L|508:116,1,143.999995605469,10|4,1:2|0:0,0:0:0:0:
295,207,35835,1,0,0:0:0:0:
295,207,35965,6,0,P|249:141|269:73,2,143.999995605469,2|4|8,1:2|0:0|1:2,0:0:0:0:
386,213,36617,2,0,L|483:202,2,71.9999978027344,0|14|8,0:0|0:0|0:0,0:0:0:0:
285,299,37009,5,6,1:2:0:0:
261,83,37270,1,2,1:2:0:0:
285,299,37531,1,8,0:0:0:0:
213,237,37661,2,0,P|211:200|224:151,1,71.9999978027344,2|0,1:2|0:0,0:0:0:0:
413,173,37922,6,0,B|452:219|452:219|283:210,1,215.999993408203,2|0,1:2|1:0,0:0:0:0:
53,267,38574,1,10,0:0:0:0:
296,210,38835,2,0,L|194:203,1,71.9999978027344,4|4,0:0|0:0,0:0:0:0:
138,240,39096,6,0,P|119:160|118:93,1,143.999995605469,2|4,1:2|0:0,0:0:0:0:
296,210,39617,2,0,P|293:281|275:351,1,143.999995605469,10|4,1:2|0:0,0:0:0:0:
186,322,40009,1,0,0:0:0:0:
186,322,40139,6,0,L|6:313,1,143.999995605469,6|4,1:2|1:2,0:0:0:0:
86,231,40531,1,0,1:0:0:0:
44,149,40661,2,0,P|35:110|36:66,1,71.9999978027344,8|0,0:0|0:0,0:0:0:0:
86,231,40922,5,4,0:0:0:0:
172,220,41052,1,0,0:0:0:0:
258,210,41183,1,0,1:0:0:0:
359,14,41444,5,0,1:0:0:0:
512,165,41704,1,10,0:0:0:0:
418,363,41965,1,0,0:0:0:0:
258,210,42226,5,0,1:0:0:0:
512,165,42487,1,2,1:2:0:0:
258,210,42748,2,0,L|149:203,1,71.9999978027344,8|2,0:0|0:0,0:0:0:0:
314,285,43009,1,4,0:0:0:0:
314,285,43139,1,4,0:0:0:0:
333,96,43270,5,6,1:2:0:0:
333,96,43531,2,0,L|326:31,2,47.9999985351563,0|0|0,1:0|1:0|1:0,0:0:0:0:
349,109,43791,2,0,P|390:111|432:84,1,71.9999978027344,10|0,0:0|0:0,0:0:0:0:
395,244,44052,1,2,1:2:0:0:
235,213,44183,1,8,0:0:0:0:
292,366,44313,5,8,0:0:0:0:
314,229,44444,1,8,0:0:0:0:
333,96,44574,1,4,0:0:0:0:
135,281,44835,6,0,L|66:277,1,53.9999983520508,0|0,0:0|0:0,0:0:0:0:
76,359,45096,2,0,L|145:363,1,53.9999983520508,0|0,0:0|0:0,0:0:0:0:
230,254,45357,6,0,B|168:250|168:250|137:266|137:266|48:261,1,162.000000617981,4|6,1:2|0:0,0:0:0:0:
186,333,45748,1,0,0:0:0:0:
119,182,45878,1,10,1:2:0:0:
119,182,46009,2,0,P|111:132|131:91,1,81.0000003089905,0|4,0:0|0:0,0:0:0:0:
281,122,46270,6,0,B|307:158|307:158|179:147,1,162.000000617981,2|8,0:0|0:0,0:0:0:0:
152,259,46661,2,0,L|246:250,1,81.0000003089905,4|2,0:0|0:0,0:0:0:0:
306,158,46922,1,8,1:2:0:0:
306,158,47052,2,0,P|321:117|302:54,1,81.0000003089905,2|4,0:0|0:0,0:0:0:0:
167,41,47313,5,2,0:0:0:0:
226,110,47444,2,0,B|218:167|218:167|231:207|231:207|218:289,2,162.000000617981,0|6|10,0:0|0:0|1:2,0:0:0:0:
306,158,48096,1,0,0:0:0:0:
147,218,48226,1,4,0:0:0:0:
252,353,48357,6,0,P|324:373|411:293,1,162.000000617981,2|8,0:0|0:0,0:0:0:0:
447,235,48748,2,0,B|468:195|441:150|441:150|416:108|446:47,1,162.000000617981,4|10,0:0|1:2,0:0:0:0:
373,200,49139,1,0,0:0:0:0:
373,200,49270,2,0,P|328:200|279:165,1,81.0000003089905,6|0,0:0|0:0,0:0:0:0:
197,301,49531,6,0,B|233:335|233:335|376:318,2,162.000000617981,6|4|10,1:2|0:0|1:2,0:0:0:0:
197,301,50313,1,4,0:0:0:0:
250,234,50444,6,0,P|218:216|144:236,1,81.0000003089905,2|0,0:0|0:0,0:0:0:0:
24,244,50704,2,0,P|56:262|130:242,1,81.0000003089905,8|4,0:0|0:0,0:0:0:0:
166,136,50965,1,2,0:0:0:0:
166,136,51096,2,0,L|175:223,1,81.0000003089905,8|0,1:2|0:0,0:0:0:0:
89,341,51357,2,0,L|99:257,1,81.0000003089905,4|0,0:0|0:0,0:0:0:0:
293,245,51617,5,2,1:2:0:0:
28,212,51878,1,4,0:0:0:0:
293,245,52139,1,10,1:2:0:0:
28,212,52400,1,4,0:0:0:0:
108,155,52531,6,0,P|116:114|113:40,1,81.0000003089905,10|0,0:0|0:0,0:0:0:0:
213,300,52791,2,0,P|205:341|208:415,1,81.0000003089905,10|0,0:0|0:0,0:0:0:0:
293,245,53052,1,0,0:0:0:0:
377,349,53183,6,0,L|276:342,1,81.0000003089905,8|8,1:2|0:0,0:0:0:0:
127,208,53444,2,0,L|207:202,1,81.0000003089905,4|2,0:0|0:0,0:0:0:0:
373,75,53704,5,0,1:0:0:0:
373,75,53965,2,0,L|382:148,1,53.9999983520508,4|0,0:0|0:0,0:0:0:0:
353,59,54226,6,0,L|377:246,1,180.000006866455,4|4,0:0|0:0,0:0:0:0:
316,318,54617,6,0,P|223:325|183:269,1,162.000000617981,2|8,0:0|0:0,0:0:0:0:
375,237,55009,2,0,L|474:246,1,81.0000003089905,4|2,0:0|0:0,0:0:0:0:
316,318,55270,1,8,1:2:0:0:
316,318,55400,2,0,P|275:243|304:157,1,162.000000617981,2|2,0:0|0:0,0:0:0:0:
380,114,55791,6,0,B|314:110|314:110|286:129|286:129|197:126,2,162.000000617981,0|4|10,1:0|0:0|1:2,0:0:0:0:
434,212,56444,1,0,0:0:0:0:
342,273,56574,1,4,0:0:0:0:
292,172,56704,6,0,B|263:140|225:127|225:127|181:131|136:167,1,162.000000617981,2|8,0:0|0:0,0:0:0:0:
91,238,57096,2,0,L|103:340,1,81.0000003089905,4|0,0:0|0:0,0:0:0:0:
265,353,57357,2,0,L|274:272,1,81.0000003089905,10|0,1:2|0:0,0:0:0:0:
292,172,57617,1,4,0:0:0:0:
292,172,57748,1,2,0:0:0:0:
375,291,57878,6,0,P|438:305|501:226,2,162.000000617981,4|6|10,1:2|0:0|1:2,0:0:0:0:
408,141,58531,2,0,B|421:166|421:166|417:244,1,81.0000003089905,0|4,0:0|0:0,0:0:0:0:
286,265,58791,6,0,L|255:100,1,162.000000617981,2|8,0:0|0:0,0:0:0:0:
236,23,59183,1,4,0:0:0:0:
237,336,59444,2,0,P|277:352|344:330,1,81.0000003089905,10|0,1:2|0:0,0:0:0:0:
334,195,59704,2,0,P|297:179|255:184,1,81.0000003089905,4|2,0:0|0:0,0:0:0:0:
137,291,59965,6,0,P|74:305|11:226,2,162.000000617981,4|6|10,1:2|0:0|1:2,0:0:0:0:
104,141,60617,2,0,B|91:166|91:166|95:244,1,81.0000003089905,0|4,0:0|0:0,0:0:0:0:
226,265,60878,6,0,L|257:100,1,162.000000617981,2|0,0:0|0:0,0:0:0:0:
328,165,61270,1,2,0:0:0:0:
328,165,61400,1,2,0:0:0:0:
277,14,61531,1,4,0:0:0:0:
277,14,61661,1,4,0:0:0:0:
169,126,61791,1,8,0:0:0:0:
255,105,61922,1,8,0:0:0:0:
192,217,62052,6,0,B|140:215|140:215|125:204|125:204|111:213|111:213|22:210,2,143.999995605469,4|2|10,1:2|0:0|1:2,0:0:0:0:
192,217,62835,2,0,P|201:257|199:303,1,71.9999978027344,0|0,0:0|0:0,0:0:0:0:
68,341,63096,5,0,1:0:0:0:
68,340,63226,2,0,B|37:310|37:310|56:196,1,143.999995605469,10|2,0:0|0:0,0:0:0:0:
169,171,63617,2,0,L|159:77,1,71.9999978027344,8|0,1:2|0:0,0:0:0:0:
312,242,63878,2,0,L|304:322,1,71.9999978027344,0|0,0:0|0:0,0:0:0:0:
242,205,64139,5,2,1:2:0:0:
242,205,64270,2,0,P|307:162|384:209,1,143.999995605469
445,276,64661,5,10,1:2:0:0:
445,276,64791,2,0,P|375:241|377:151,1,143.999995605469
405,63,65183,5,2,1:2:0:0:
405,63,65313,2,0,P|409:140|330:183,1,143.999995605469,8|0,0:0|0:0,0:0:0:0:
212,137,65704,5,10,1:2:0:0:
212,137,65835,2,0,L|231:298,1,143.999995605469
130,227,66226,5,4,1:2:0:0:
363,180,66487,2,0,B|357:125|357:125|366:92|366:92|356:16,2,143.999995605469,2|10|0,0:0|1:2|0:0,0:0:0:0:
447,229,67139,1,0,0:0:0:0:
315,263,67270,5,0,1:0:0:0:
315,263,67400,2,0,L|155:249,1,143.999995605469,10|2,0:0|0:0,0:0:0:0:
290,352,67791,2,0,P|331:353|372:335,1,71.9999978027344,8|0,1:2|0:0,0:0:0:0:
384,253,68052,2,0,P|343:252|302:270,1,71.9999978027344,0|0,0:0|0:0,0:0:0:0:
133,311,68313,5,2,1:2:0:0:
133,311,68444,2,0,L|121:133,1,143.999995605469
214,285,68835,5,10,0:0:0:0:
214,285,68965,2,0,L|202:107,1,143.999995605469
297,264,69357,5,2,0:0:0:0:
297,264,69487,1,8,0:0:0:0:
174,215,69617,1,8,0:0:0:0:
174,215,69683,1,8,0:0:0:0:
174,215,69748,1,2,0:0:0:0:
283,124,69878,6,0,P|293:82|293:35,1,71.9999978027344,2|8,0:0|0:0,0:0:0:0:
174,215,70139,2,0,P|176:250|185:285,1,71.9999978027344,2|4,0:0|0:0,0:0:0:0:
297,264,70400,1,4,0:0:0:0:
179,71,70661,5,2,0:0:0:0:
118,141,70922,1,2,0:0:0:0:
34,105,71183,1,2,0:0:0:0:
122,155,71444,1,0,0:0:0:0:
122,155,71574,1,2,0:0:0:0:
179,71,71835,1,2,0:0:0:0:
