osu file format v14

[General]
AudioFilename: audio.mp3
AudioLeadIn: 0
PreviewTime: 44678
Countdown: 0
SampleSet: Soft
StackLeniency: 0.4
Mode: 0
LetterboxInBreaks: 0
EpilepsyWarning: 1
WidescreenStoryboard: 1

[Editor]
DistanceSpacing: 1
BeatDivisor: 4
GridSize: 4
TimelineZoom: 1

[Metadata]
Title:Joyful Todays
TitleUnicode:Joyful Todays
Artist:Nakano Azusa(CV:Taketatsu Ayana)
ArtistUnicode:中野 梓(CV:竹達彩奈)
Creator:Left
Version:Akitoshi's Normal
Source:けいおん!!
Tags:k-on!! BetaStar TaMul Akitoshi joker- joker Koiyuki Minakami Yuki cut version character song
BeatmapID:1206074
BeatmapSetID:568893

[Difficulty]
HPDrainRate:4
CircleSize:3.3
OverallDifficulty:4
ApproachRate:5
SliderMultiplier:1.9
SliderTickRate:1

[Events]
//Background and Video events
0,0,"BG.jpg",0,0
//Break Periods
//Storyboard Layer 0 (Background)
//Storyboard Layer 1 (Fail)
//Storyboard Layer 2 (Pass)
//Storyboard Layer 3 (Foreground)
//Storyboard Sound Samples

[TimingPoints]
487,521.739130434783,4,2,4,55,1,0
1531,521.739130434783,4,2,5,55,1,0
1661,-100,4,2,2,55,0,0
8704,-100,4,2,3,55,0,0
9878,-100,4,2,5,65,0,0
10009,-100,4,2,2,65,0,0
14052,-100,4,2,5,65,0,0
14183,-100,4,2,2,65,0,0
18226,-100,4,2,5,65,0,0
18487,-100,4,2,2,65,0,0
22400,-100,4,2,5,65,0,0
22661,-100,4,2,2,65,0,0
24487,-100,4,2,3,65,0,0
25531,-100,4,2,5,65,0,0
25791,-100,4,2,4,65,0,0
26574,-100,4,2,5,65,0,0
26835,-100,4,2,2,65,0,0
30748,-100,4,2,5,65,0,0
31009,-100,4,2,2,65,0,0
32835,-100,4,2,3,65,0,0
33878,-100,4,2,5,65,0,0
34139,-100,4,2,4,65,0,0
34661,-100,4,2,2,65,0,0
37009,-100,4,2,5,65,0,0
37270,-100,4,2,2,65,0,0
38835,-100,4,2,4,65,0,0
39096,-100,4,2,2,65,0,0
40139,-100,4,2,5,65,0,0
40400,-100,4,2,2,65,0,0
42748,-100,4,2,4,65,0,0
43270,-100,4,2,5,65,0,0
43531,-100,4,2,2,65,0,0
44313,-100,4,2,2,75,0,0
44574,-100,4,2,4,85,0,0
44835,-100,4,2,2,30,0,0
45096,-100,4,2,2,30,0,0
45357,-100,4,2,5,75,0,1
45617,-100,4,2,2,75,0,1
49531,-100,4,2,5,75,0,1
49791,-100,4,2,2,75,0,1
53444,-100,4,2,4,75,0,1
53704,-100,4,2,5,50,0,0
53965,-100,4,2,2,50,0,0
54226,-100,4,2,5,85,0,1
54357,-100,4,2,2,85,0,1
54617,-100,4,2,2,75,0,1
57878,-100,4,2,5,75,0,1
58139,-100,4,2,2,75,0,1
59965,-100,4,2,5,75,0,1
60226,-100,4,2,2,75,0,1
61531,-100,4,2,4,75,0,1
62052,-100,4,2,5,65,0,0
62313,-100,4,2,2,65,0,0
66226,-100,4,2,5,65,0,0
66487,-100,4,2,2,65,0,0
69357,-100,4,2,4,65,0,0
70400,-100,4,2,3,65,0,0
70661,-100,4,2,0,65,0,0

[Colours]
Combo1 : 185,188,249
Combo2 : 255,153,204
Combo3 : 255,255,198
Combo4 : 247,111,131
SliderTrackOverride : 0,30,60

[HitObjects]
0,66,1531,6,0,P|92:34|175:84,1,190,6|8,1:2|0:0,0:0:0:0:
262,183,2444,2,0,L|418:172,1,142.5,2|0,1:2|1:0,0:0:0:0:
498,160,3096,1,8,0:0:0:0:
505,254,3357,1,0,0:0:0:0:
455,335,3617,6,0,P|381:383|253:343,1,190,2|8,1:2|0:0,0:0:0:0:
188,262,4531,2,0,B|147:256|147:256|89:269|89:269|21:260,1,142.5,2|0,1:2|1:0,0:0:0:0:
1,180,5183,1,8,0:0:0:0:
1,84,5444,1,0,0:0:0:0:
84,40,5704,6,0,P|154:23|241:110,1,190,2|8,1:2|0:0,0:0:0:0:
250,236,6617,2,0,B|317:253|323:206|402:232,1,142.5,2|0,1:2|1:0,0:0:0:0:
483,246,7270,1,8,0:0:0:0:
500,339,7531,1,0,0:0:0:0:
408,364,7791,6,0,B|349:372|310:330|310:330|270:340|227:325,1,190,2|8,1:2|0:0,0:0:0:0:
137,298,8574,2,0,L|83:312,1,47.5,0|4,0:0|1:2,0:0:0:0:
91,309,9878,6,0,L|83:186,1,95,4|6,1:2|0:0,0:0:0:0:
169,170,10400,2,0,L|161:47,1,95,10|4,1:2|0:0,0:0:0:0:
245,27,10922,2,0,P|313:23|373:83,2,142.5,0|2|4,1:0|0:0|0:0,0:0:0:0:
284,113,11965,6,0,B|297:164|297:164|289:319,1,190,2|8,1:2|1:2,0:0:0:0:
207,349,12748,1,4,0:0:0:0:
128,301,13009,2,0,B|115:250|115:250|123:95,1,190,2|8,1:2|1:2,0:0:0:0:
203,64,13791,1,4,0:0:0:0:
284,113,14052,6,0,L|405:107,1,95,4|6,1:2|0:0,0:0:0:0:
388,203,14574,2,0,L|267:209,1,95,10|4,1:2|0:0,0:0:0:0:
200,228,15096,2,0,P|235:283|313:301,2,142.5,0|2|4,1:0|0:0|0:0,0:0:0:0:
184,134,16139,6,0,P|137:63|30:53,1,190,2|8,1:2|1:2,0:0:0:0:
9,140,16922,1,4,0:0:0:0:
12,234,17183,2,0,B|71:241|71:241|140:223|140:223|225:230,1,190,2|10,1:2|1:2,0:0:0:0:
293,237,17965,1,12,1:2:0:0:
380,198,18226,6,0,P|384:145|366:106,1,95,6|2,1:2|0:0,0:0:0:0:
291,49,18748,2,0,P|238:45|199:63,1,95,10|0,1:2|0:0,0:0:0:0:
151,143,19270,2,0,L|6:137,2,142.5,2|2|0,1:2|0:0|0:0,0:0:0:0:
241,172,20313,6,0,B|254:217|254:217|249:270,1,95,0|2,1:0|0:0,0:0:0:0:
183,333,20835,2,0,B|138:346|138:346|85:341,1,95,10|0,1:2|0:0,0:0:0:0:
19,278,21357,2,0,P|8:216|11:118,2,142.5,2|2|0,1:2|0:0|0:0,0:0:0:0:
90,341,22400,6,0,B|141:316|141:316|288:326,1,190,4|10,1:2|1:2,0:0:0:0:
368,337,23183,1,0,0:0:0:0:
438,273,23444,2,0,P|456:211|394:128,2,142.5,2|2|0,1:2|0:0|0:0,0:0:0:0:
361,217,24487,6,0,L|136:226,2,190,4|4|4,1:2|1:2|1:2,0:0:0:0:
422,144,25791,1,8,0:0:0:0:
398,51,26052,2,0,P|336:33|255:50,1,142.5,2|4,0:0|0:0,0:0:0:0:
222,75,26574,6,0,B|174:82|174:82|104:65,1,95,4|2,1:2|0:0,0:0:0:0:
48,19,27096,2,0,P|34:59|42:114,1,95,10|0,1:2|0:0,0:0:0:0:
78,197,27617,2,0,L|70:348,2,142.5,2|2|0,1:2|0:0|0:0,0:0:0:0:
169,170,28661,6,0,P|217:190|280:189,1,95,0|2,1:0|0:0,0:0:0:0:
330,129,29183,2,0,P|378:109|441:110,1,95,10|0,1:2|0:0,0:0:0:0:
491,169,29704,2,0,B|505:264|505:264|488:330,2,142.5,2|2|0,1:2|0:0|0:0,0:0:0:0:
420,106,30748,6,0,B|366:89|324:111|324:111|278:135|216:113,1,190,4|8,1:2|1:2,0:0:0:0:
148,77,31531,1,2,0:0:0:0:
67,126,31791,2,0,P|38:188|81:274,2,142.5,2|2|0,1:2|0:0|0:0,0:0:0:0:
132,194,32835,6,0,L|355:178,2,190,4|4|4,1:2|1:2|1:2,0:0:0:0:
59,255,34139,1,8,0:0:0:0:
90,344,34400,2,0,P|149:368|244:341,1,142.5,10|8,0:0|0:0,0:0:0:0:
263,325,34922,6,0,B|317:316|317:316|385:331|385:331|458:322,1,190,2|10,1:2|1:2,0:0:0:0:
450,132,35965,2,0,B|396:123|396:123|328:138|328:138|255:129,1,190,2|8,1:2|1:2,0:0:0:0:
167,120,36748,1,14,0:0:0:0:
78,155,37009,6,0,B|66:201|66:201|77:266,1,95,6|2,1:2|1:2,0:0:0:0:
145,310,37531,2,0,P|84:342|11:319,2,142.5,10|2|0,0:0|1:2|1:0,0:0:0:0:
219,250,38574,2,0,L|350:244,1,95,10|4,0:0|0:0,0:0:0:0:
408,235,39096,6,0,B|420:104|420:104|390:44,1,190,2|10,1:2|1:2,0:0:0:0:
205,67,40139,2,0,B|193:198|193:198|223:258,1,190,6|8,1:2|0:0,0:0:0:0:
281,322,40922,1,4,0:0:0:0:
374,338,41183,6,0,P|448:311|480:191,1,190,2|10,1:2|0:0,0:0:0:0:
458,121,41965,1,0,0:0:0:0:
393,51,42226,2,0,L|268:56,1,95,0|0,1:0|1:0,0:0:0:0:
230,122,42748,2,0,L|105:127,1,95,8|4,0:0|0:0,0:0:0:0:
40,140,43270,6,0,P|50:201|62:333,1,190,6|10,1:2|0:0,0:0:0:0:
147,369,44052,1,2,1:2:0:0:
221,310,44313,2,0,P|270:298|330:315,1,95,8|4,0:0|0:0,0:0:0:0:
393,358,44835,1,0,0:0:0:0:
474,186,45357,6,0,B|482:139|482:139|471:67,1,95,4|6,1:2|0:0,0:0:0:0:
400,32,45878,2,0,P|342:63|269:48,1,142.5,10|2,1:2|0:0,0:0:0:0:
180,13,46531,1,8,0:0:0:0:
102,67,46791,2,0,L|107:188,1,95,2|2,0:0|0:0,0:0:0:0:
130,254,47313,6,0,P|214:271|288:219,1,142.5,2|6,0:0|0:0,0:0:0:0:
327,178,47965,2,0,L|479:170,2,142.5,10|2|4,1:2|0:0|0:0,0:0:0:0:
263,248,49009,2,0,P|252:298|265:357,1,95,10|6,1:2|0:0,0:0:0:0:
351,361,49531,6,0,P|362:311|349:252,1,95,6|4,1:2|0:0,0:0:0:0:
327,178,50052,2,0,B|321:139|321:139|343:88|343:88|336:25,1,142.5,10|2,1:2|0:0,0:0:0:0:
245,18,50704,1,8,0:0:0:0:
175,82,50965,2,0,B|116:88|116:88|69:54|8:82,1,142.5,2|4,0:0|0:0,0:0:0:0:
60,164,51617,6,0,L|66:276,1,95,2|4,1:2|0:0,0:0:0:0:
73,353,52139,2,0,P|142:365|205:320,1,142.5,10|10,1:2|0:0,0:0:0:0:
244,243,52791,1,10,0:0:0:0:
269,151,53052,2,0,L|441:158,1,142.5,2|4,0:0|0:0,0:0:0:0:
496,199,53704,5,0,1:0:0:0:
496,294,53965,1,4,0:0:0:0:
432,366,54226,2,0,L|260:359,1,142.5,4|2,0:0|0:0,0:0:0:0:
200,327,54878,1,8,0:0:0:0:
132,260,55139,2,0,P|124:215|142:154,1,95,2|2,0:0|0:0,0:0:0:0:
190,90,55661,6,0,B|282:97|282:97|353:75,1,142.5,2|4,0:0|0:0,0:0:0:0:
388,7,56313,2,0,P|421:56|402:145,2,142.5,10|2|4,1:2|0:0|0:0,0:0:0:0:
329,82,57357,2,0,P|313:130|325:185,1,95,10|4,1:2|0:0,0:0:0:0:
328,219,57748,6,0,L|160:208,1,142.5,2|6,0:0|0:0,0:0:0:0:
91,206,58400,2,0,P|119:276|201:303,2,142.5,10|2|4,1:2|0:0|0:0,0:0:0:0:
139,123,59444,2,0,P|182:110|242:128,1,95,10|4,1:2|0:0,0:0:0:0:
269,147,59835,6,0,L|433:139,1,142.5,2|6,0:0|0:0,0:0:0:0:
505,130,60487,2,0,P|481:78|392:47,2,142.5,10|2|2,1:2|0:0|0:0,0:0:0:0:
469,218,61531,2,0,L|477:334,1,95,4|8,0:0|0:0,0:0:0:0:
392,358,62052,6,0,B|306:384|295:318|194:352,1,190,4|10,1:2|1:2,0:0:0:0:
115,376,62835,1,0,0:0:0:0:
43,313,63096,2,0,L|30:136,2,142.5,0|2|0,1:0|0:0|0:0,0:0:0:0:
115,376,64139,6,0,P|208:369|266:292,1,190,2|8,1:2|1:2,0:0:0:0:
266,201,64922,1,4,0:0:0:0:
237,110,65183,2,0,B|362:93|362:93|426:131,1,190,2|8,1:2|1:2,0:0:0:0:
490,185,65965,1,4,0:0:0:0:
477,279,66226,6,0,P|438:314|368:320,1,95,4|2,1:2|0:0,0:0:0:0:
315,275,66748,2,0,B|268:263|268:263|212:268,1,95,10|0,1:2|0:0,0:0:0:0:
129,293,67270,2,0,P|183:356|264:354,2,142.5,0|2|0,1:0|0:0|0:0,0:0:0:0:
117,198,68313,6,0,B|122:65|122:65|197:32,1,190,2|8,1:2|0:0,0:0:0:0:
264,12,69096,1,4,0:0:0:0:
344,62,69357,2,0,L|447:54,1,95,2|8,0:0|0:0,0:0:0:0:
450,148,69878,2,0,L|347:156,1,95,2|2,0:0|0:0,0:0:0:0:
256,192,70400,12,2,71835,0:0:0:0:
