osu file format v14

[General]
AudioFilename: audio.mp3
AudioLeadIn: 0
PreviewTime: 166147
Countdown: 0
SampleSet: Soft
StackLeniency: 0.3
Mode: 0
LetterboxInBreaks: 0
WidescreenStoryboard: 1

[Editor]
Bookmarks: 25330,207167
DistanceSpacing: 1.3
BeatDivisor: 4
GridSize: 4
TimelineZoom: 1.7

[Metadata]
Title:Goodbye Smile
TitleUnicode:さよならスマイル
Artist:Nakanishi ft. GUMI
ArtistUnicode:Nakanishi ft. GUMI
Creator:Yumeko
Version:Sore ja...Sayonara
Source:
Tags:Vocaloid
BeatmapID:1028698
BeatmapSetID:482069

[Difficulty]
HPDrainRate:5
CircleSize:4
OverallDifficulty:8
ApproachRate:9.5
SliderMultiplier:1.6
SliderTickRate:1

[Events]
//Background and Video events
0,0,"7f2bf88828d5f7d1862ac4a8b0e647bd.jpg",0,0
//Break Periods
//Storyboard Layer 0 (Background)
//Storyboard Layer 1 (Fail)
//Storyboard Layer 2 (Pass)
//Storyboard Layer 3 (Foreground)
//Storyboard Sound Samples

[TimingPoints]
841,306.122448979592,4,2,1,100,1,0
2295,-100,4,2,1,5,0,0
2371,-100,4,2,1,70,0,0
2601,-100,4,2,1,5,0,0
2677,-100,4,2,1,70,0,0
8264,-100,4,2,1,5,0,0
8341,-100,4,2,1,70,0,0
9335,-100,4,2,1,5,0,0
9412,-100,4,2,1,70,0,0
10866,-100,4,2,1,5,0,0
10943,-100,4,2,1,70,0,0
11172,-100,4,2,1,5,0,0
11249,-86.9565217391304,4,2,1,70,0,0
11478,-100,4,2,1,5,0,0
11555,-76.9230769230769,4,2,1,70,0,0
11861,-100,4,2,1,70,0,0
12091,-100,4,2,1,5,0,0
12167,-111.111111111111,4,2,1,70,0,0
12397,-100,4,2,1,5,0,0
12473,-100,4,2,1,70,0,0
12626,-83.3333333333333,4,2,1,70,0,0
12856,-100,4,2,1,5,0,0
12932,-100,4,2,1,70,0,0
13392,-100,4,2,1,70,0,0
13621,-100,4,2,1,5,0,0
13698,-86.9565217391304,4,2,1,70,0,0
13927,-86.9565217391304,4,2,1,5,0,0
14004,-66.6666666666667,4,2,1,70,0,0
14310,-100,4,2,1,70,0,0
19208,-100,4,2,1,70,0,0
19437,-100,4,2,1,5,0,0
19514,-100,4,2,1,70,0,0
19744,-100,4,2,1,5,0,0
19820,-100,4,2,1,70,0,0
20050,-100,4,2,1,5,0,0
20126,-100,4,2,1,70,0,0
20356,-100,4,2,1,5,0,0
20432,-100,4,2,1,70,0,0
21198,-100,4,2,1,70,0,0
25713,-100,4,2,1,5,0,0
25789,-111.111111111111,4,2,1,70,0,0
26172,-111.111111111111,4,2,1,5,0,0
26249,-80,4,2,1,70,0,0
26478,-80,4,2,1,5,0,0
26555,-100,4,2,1,70,0,0
35356,-100,4,2,1,5,0,0
35356,-100,4,2,1,70,0,0
35432,-95.2380952380952,4,2,1,70,0,0
35662,-95.2380952380952,4,2,1,5,0,0
35738,-90.9090909090909,4,2,1,70,0,0
35968,-90.9090909090909,4,2,1,5,0,0
36045,-86.9565217391304,4,2,1,70,0,0
36274,-86.9565217391304,4,2,1,5,0,0
36351,-83.3333333333333,4,2,1,70,0,0
37269,-86.9565217391304,4,2,1,70,0,0
38111,-86.9565217391304,4,2,1,5,0,0
38187,-100,4,2,1,70,0,0
38723,-100,4,2,1,5,0,0
38800,-83.3333333333333,4,2,1,70,0,0
39029,-100,4,2,1,5,0,0
39106,-100,4,2,1,70,0,0
41249,-100,4,2,1,70,0,0
45841,-90.9090909090909,4,2,1,70,0,0
46070,-100,4,2,1,5,0,0
46147,-100,4,2,1,70,0,0
50356,-100,4,2,1,70,0,0
50662,-100,4,2,1,5,0,0
50738,-125,4,2,1,70,0,0
50968,-100,4,2,1,5,0,0
51045,-100,4,2,1,70,0,0
53111,-100,4,2,1,5,0,0
53187,-90.9090909090909,4,2,1,70,0,0
55636,-100,4,2,1,70,0,0
55866,-100,4,2,1,5,0,0
55943,-95.2380952380952,4,2,1,70,0,0
56172,-95.2380952380952,4,2,1,5,0,0
56249,-90.9090909090909,4,2,1,70,0,0
56478,-90.9090909090909,4,2,1,5,0,0
56555,-86.9565217391304,4,2,1,70,0,0
56784,-86.9565217391304,4,2,1,5,0,0
56861,-83.3333333333333,4,2,1,70,0,0
57091,-83.3333333333333,4,2,1,5,0,0
57167,-80,4,2,1,70,0,0
57473,-76.9230769230769,4,2,1,70,0,0
57703,-76.9230769230769,4,2,1,5,0,0
57779,-74.0740740740741,4,2,1,70,0,0
58009,-74.0740740740741,4,2,1,5,0,0
58085,-71.4285714285714,4,2,1,70,0,0
60841,-66.6666666666667,4,2,1,70,0,1
64744,-66.6666666666667,4,2,1,5,0,1
64820,-66.6666666666667,4,2,1,70,0,1
65050,-66.6666666666667,4,2,1,5,0,1
65126,-66.6666666666667,4,2,1,70,0,1
69718,-66.6666666666667,4,2,1,70,0,0
70560,-66.6666666666667,4,2,1,5,0,1
70636,-66.6666666666667,4,2,1,70,0,1
76835,-66.6666666666667,4,2,1,5,0,1
76912,-100,4,2,1,70,0,0
77907,-100,4,2,1,5,0,0
77983,-86.9565217391304,4,2,1,70,0,0
80432,-66.6666666666667,4,2,1,70,0,1
81886,-66.6666666666667,4,2,1,5,0,1
81963,-66.6666666666667,4,2,1,70,0,1
90152,-66.6666666666667,4,2,1,5,0,0
90228,-66.6666666666667,4,2,1,70,0,1
91376,-66.6666666666667,4,2,1,5,0,1
91453,-66.6666666666667,4,2,1,70,0,1
91682,-66.6666666666667,4,2,1,5,0,1
91759,-66.6666666666667,4,2,1,70,0,1
91988,-66.6666666666667,4,2,1,5,0,1
92065,-66.6666666666667,4,2,1,70,0,1
92295,-66.6666666666667,4,2,1,5,0,1
92371,-66.6666666666667,4,2,1,70,0,1
92601,-66.6666666666667,4,2,1,5,0,1
92677,-66.6666666666667,4,2,1,70,0,1
93672,-66.6666666666667,4,2,1,5,0,1
93749,-71.4285714285714,4,2,1,70,0,1
94820,-66.6666666666667,4,2,1,70,0,1
97575,-90.9090909090909,4,2,1,70,0,0
98570,-90.9090909090909,4,2,1,5,0,0
98647,-90.9090909090909,4,2,1,70,0,0
99029,-90.9090909090909,4,2,1,5,0,0
99106,-100,4,2,1,70,0,0
99335,-90.9090909090909,4,2,1,5,0,0
99412,-76.9230769230769,4,2,1,70,0,0
99718,-66.6666666666667,4,2,1,70,0,0
100024,-90.9090909090909,4,2,1,70,0,0
100407,-90.9090909090909,4,2,1,5,0,0
100483,-90.9090909090909,4,2,1,65,0,0
104616,-111.111111111111,4,2,1,70,0,0
104846,-90.9090909090909,4,2,1,5,0,0
104922,-90.9090909090909,4,2,1,70,0,0
106759,-90.9090909090909,4,2,1,70,0,0
107295,-90.9090909090909,4,2,1,5,0,0
107371,-90.9090909090909,4,2,1,70,0,0
112193,-90.9090909090909,4,2,1,5,0,0
112269,-90.9090909090909,4,2,1,70,0,0
116478,-90.9090909090909,4,2,1,5,0,0
116555,-117.647058823529,4,2,1,70,0,0
117014,-90.9090909090909,4,2,1,70,0,0
124437,-90.9090909090909,4,2,1,5,0,0
124514,-76.9230769230769,4,2,1,70,0,0
124744,-90.9090909090909,4,2,1,5,0,0
124820,-90.9090909090909,4,2,1,70,0,0
125738,-90.9090909090909,4,2,1,50,0,0
125815,-90.9090909090909,4,2,1,52,0,0
125892,-90.9090909090909,4,2,1,54,0,0
125968,-90.9090909090909,4,2,1,56,0,0
126045,-90.9090909090909,4,2,1,58,0,0
126121,-90.9090909090909,4,2,1,60,0,0
126198,-90.9090909090909,4,2,1,62,0,0
126274,-90.9090909090909,4,2,1,64,0,0
126351,-90.9090909090909,4,2,1,66,0,0
126427,-90.9090909090909,4,2,1,68,0,0
126504,-90.9090909090909,4,2,1,70,0,0
126580,-90.9090909090909,4,2,1,72,0,0
126657,-90.9090909090909,4,2,1,80,0,0
126963,-83.3333333333333,4,2,1,70,0,0
140432,-76.9230769230769,4,2,1,70,0,0
145943,-76.9230769230769,4,2,1,73,0,0
146096,-76.9230769230769,4,2,1,76,0,0
146249,-76.9230769230769,4,2,1,79,0,0
146402,-76.9230769230769,4,2,1,82,0,0
146555,-66.6666666666667,4,2,1,85,0,1
146861,-66.6666666666667,4,2,1,70,0,1
150458,-66.6666666666667,4,2,1,5,0,1
150534,-66.6666666666667,4,2,1,70,0,1
150764,-66.6666666666667,4,2,1,5,0,1
150841,-66.6666666666667,4,2,1,70,0,1
155432,-66.6666666666667,4,2,1,70,0,0
156274,-66.6666666666667,4,2,1,5,0,1
156351,-66.6666666666667,4,2,1,70,0,1
162626,-100,4,2,1,70,0,0
163392,-86.9565217391304,4,2,1,70,0,0
163621,-100,4,2,1,5,0,0
163698,-76.9230769230769,4,2,1,70,0,0
166147,-66.6666666666667,4,2,1,70,0,1
167601,-66.6666666666667,4,2,1,5,0,1
167677,-66.6666666666667,4,2,1,70,0,1
167907,-66.6666666666667,4,2,1,5,0,1
167983,-66.6666666666667,4,2,1,70,0,1
170968,-66.6666666666667,4,2,1,5,0,1
171045,-66.6666666666667,4,2,1,70,0,1
175866,-66.6666666666667,4,2,1,5,0,0
175943,-66.6666666666667,4,2,1,70,0,1
177091,-66.6666666666667,4,2,1,5,0,1
177167,-66.6666666666667,4,2,1,70,0,1
177397,-66.6666666666667,4,2,1,5,0,1
177473,-66.6666666666667,4,2,1,70,0,1
177703,-66.6666666666667,4,2,1,5,0,1
177779,-66.6666666666667,4,2,1,70,0,1
178009,-66.6666666666667,4,2,1,5,0,1
178085,-66.6666666666667,4,2,1,70,0,1
178315,-66.6666666666667,4,2,1,5,0,1
178392,-66.6666666666667,4,2,1,70,0,1
179386,-66.6666666666667,4,2,1,5,0,1
179463,-66.6666666666667,4,2,1,70,0,1
183289,-83.3333333333333,4,2,1,70,0,0
185662,-83.3333333333333,4,2,1,5,0,0
185738,-83.3333333333333,4,2,1,70,0,0
188187,-100,4,2,1,70,0,0
188417,-100,4,2,1,5,0,0
188494,-100,4,2,1,70,0,0
188723,-100,4,2,1,5,0,0
188800,-100,4,2,1,70,0,0
194386,-100,4,2,1,5,0,0
194463,-100,4,2,1,70,0,0
195458,-100,4,2,1,5,0,0
195534,-100,4,2,1,70,0,0
196988,-100,4,2,1,5,0,0
197065,-90.9090909090909,4,2,1,70,0,0
197295,-100,4,2,1,5,0,0
197371,-83.3333333333333,4,2,1,70,0,0
197601,-100,4,2,1,5,0,0
197677,-76.9230769230769,4,2,1,70,0,0
197983,-100,4,2,1,70,0,0
198213,-100,4,2,1,5,0,0
198289,-100,4,2,1,70,0,0
198519,-100,4,2,1,5,0,0
198596,-100,4,2,1,70,0,0
198978,-100,4,2,1,5,0,0
199055,-83.3333333333333,4,2,1,70,0,0
199514,-117.647058823529,4,2,1,70,0,0
199744,-100,4,2,1,5,0,0
199820,-90.9090909090909,4,2,1,70,0,0
200050,-100,4,2,1,5,0,0
200126,-74.0740740740741,4,2,1,70,0,0
200356,-100,4,2,1,5,0,0
200432,-100,4,2,1,70,0,0

[Colours]
Combo1 : 98,176,255
Combo2 : 10,252,113
Combo3 : 0,215,107
Combo4 : 231,216,163

[HitObjects]
376,108,841,5,0,3:0:0:0:
392,96,1147,1,0,3:0:0:0:
408,84,1453,1,0,3:0:0:0:
412,96,1759,5,0,1:0:0:0:
417,115,1835,1,0,1:0:0:0:
419,137,1912,1,0,1:0:0:0:
419,157,1988,1,0,1:0:0:0:
413,178,2065,6,0,B|370:205|370:205|366:263|346:283,1,120,8|0,1:0|1:0,1:0:0:0:
336,296,2371,2,0,L|192:280,1,120,0|0,1:0|1:0,1:0:0:0:
208,280,2677,1,0,1:0:0:0:
96,56,2830,2,0,L|76:168,1,80,8|0,1:0|1:0,1:0:0:0:
332,76,3136,6,0,B|344:128|344:128|308:228,1,160,0|0,1:0|1:0,1:0:0:0:
184,272,3596,2,0,L|260:344,1,80,8|0,1:0|1:0,1:0:0:0:
176,120,3902,2,0,L|104:196,1,80,8|0,1:0|1:0,1:0:0:0:
332,76,4208,2,0,L|392:0,1,80,8|0,1:0|1:0,1:0:0:0:
120,178,4514,6,8,P|176:214|288:226,2,160,8|8|8,1:0|1:0|1:0,1:0:0:0:
424,252,5279,1,8,1:0:0:0:
424,252,5432,1,8,1:0:0:0:
176,312,5585,6,8,P|113:307|77:211,1,160,8|0,1:0|1:0,1:0:0:0:
264,148,6045,2,0,L|304:52,1,80,8|0,1:0|1:0,1:0:0:0:
223,341,6351,2,0,L|175:257,1,80,8|0,1:0|1:0,1:0:0:0:
200,40,6657,2,0,L|240:136,1,80,8|0,1:0|1:0,1:0:0:0:
44,320,6963,6,0,L|104:220,1,80,8|0,1:0|1:0,1:0:0:0:
148,196,7269,6,0,P|176:176|196:112,1,80,8|0,1:0|1:0,1:0:0:0:
224,364,7575,1,8,1:0:0:0:
280,136,7728,1,8,1:0:0:0:
368,352,7881,1,8,1:0:0:0:
496,112,8034,6,0,B|512:196|474:253,1,120,8|0,1:0|1:0,1:0:0:0:
474,245,8341,1,8,1:0:0:0:
352,148,8494,1,8,1:0:0:0:
352,148,8647,1,0,1:0:0:0:
144,232,8800,1,8,1:0:0:0:
144,232,8953,1,0,1:0:0:0:
260,32,9106,2,0,P|300:64|296:148,1,120,8|0,1:0|1:0,1:0:0:0:
300,144,9412,5,8,1:0:0:0:
300,335,9565,1,8,1:0:0:0:
196,168,9718,1,8,1:0:0:0:
300,335,9871,5,8,1:0:0:0:
388,160,10024,1,8,1:0:0:0:
300,335,10177,1,8,1:0:0:0:
306,129,10330,1,8,1:0:0:0:
138,337,10483,2,0,B|90:305|90:305|126:213|70:133,1,200,8|0,1:0|1:0,1:0:0:0:
440,84,10943,6,0,P|419:145|440:216,1,120,8|0,1:0|1:0,1:0:0:0:
400,45,11249,6,0,P|373:108|381:215,1,138.000002632141,8|0,1:0|1:0,1:0:0:0:
357,20,11555,6,0,P|326:80|319:184,1,155.999992858887,8|0,1:0|1:0,1:0:0:0:
96,24,11861,6,0,B|117:59|172:76|180:112,1,120,8|0,1:0|1:0,1:0:0:0:
168,140,12167,2,0,B|132:180|156:248,1,107.999996704102,8|0,1:0|1:0,1:0:0:0:
160,256,12473,1,8,1:0:0:0:
465,313,12626,2,0,P|425:233|428:148,1,143.999995605469,8|0,1:0|1:0,1:0:0:0:
420,140,12932,6,0,B|348:140|348:140|352:196|312:232,1,160,8|8,1:0|1:0,1:0:0:0:
80,88,13392,2,0,L|168:188,1,120,8|0,1:0|1:0,1:0:0:0:
216,168,13698,2,0,L|120:56,1,138.000002632141,8|0,1:0|1:0,1:0:0:0:
152,16,14004,2,0,L|280:172,1,180.000006866455,8|0,1:0|1:0,1:0:0:0:
512,80,14310,6,0,P|437:94|483:129,1,160,8|8,1:0|1:0,1:0:0:0:
192,132,14769,1,8,1:0:0:0:
288,296,14922,1,8,1:0:0:0:
316,116,15075,1,8,1:0:0:0:
48,224,15228,1,8,1:0:0:0:
316,116,15381,1,8,1:0:0:0:
348,96,15458,1,0,1:0:0:0:
376,76,15534,5,0,1:0:0:0:
216,280,15687,1,8,1:0:0:0:
248,260,15764,1,0,1:0:0:0:
276,240,15840,5,0,1:0:0:0:
400,316,15994,1,8,1:0:0:0:
432,296,16071,1,0,1:0:0:0:
460,276,16147,5,0,1:0:0:0:
316,116,16300,1,8,1:0:0:0:
296,84,16377,1,0,1:0:0:0:
276,56,16453,5,0,1:0:0:0:
128,204,16606,2,0,B|121:144|180:140|188:56,1,160,8|8,1:0|1:0,1:0:0:0:
328,184,17065,1,8,1:0:0:0:
128,204,17218,1,0,1:0:0:0:
328,184,17371,2,0,P|348:232|324:284,1,80,8|0,1:0|1:0,1:0:0:0:
124,200,17677,1,8,1:0:0:0:
424,164,17830,6,8,P|396:128|284:88,1,160,8|8,1:0|1:0,1:0:0:0:
168,320,18289,1,8,1:0:0:0:
252,224,18443,1,8,1:0:0:0:
196,104,18596,1,8,1:0:0:0:
264,320,18749,5,8,1:0:0:0:
380,224,18903,1,8,1:0:0:0:
196,104,19056,1,8,1:0:0:0:
492,224,19208,6,0,B|528:176|528:176|520:132|492:112,1,120,8|0,1:0|1:0,1:0:0:0:
440,64,19514,2,0,P|380:108|324:116,1,120,8|0,1:0|1:0,1:0:0:0:
252,164,19820,2,0,P|304:204|376:228,1,120,8|0,1:0|1:0,1:0:0:0:
432,272,20126,2,0,P|388:304|320:316,1,120,8|0,1:0|1:0,1:0:0:0:
296,312,20432,5,8,1:3:0:0:
144,132,20585,1,8,1:3:0:0:
224,228,20738,1,8,1:3:0:0:
64,32,20892,1,8,1:3:0:0:
92,280,21198,5,0,1:0:0:0:
248,272,21351,2,0,B|281:260|281:260|320:228,1,80,0|0,1:0|1:0,1:0:0:0:
420,156,21657,5,8,1:0:0:0:
420,156,21963,5,8,1:0:0:0:
420,280,22269,5,8,1:0:0:0:
264,272,22422,2,8,B|230:260|230:260|192:228,1,80,8|8,1:0|1:0,1:0:0:0:
92,156,22728,1,8,1:0:0:0:
108,240,22881,6,8,B|119:273|119:273|192:295|192:295|240:348,2,160,8|8|8,1:0|1:0|1:0,1:0:0:0:
192,108,23647,2,8,P|240:68|288:60,1,80,8|8,1:0|1:0,1:0:0:0:
348,184,23953,1,8,1:0:0:0:
144,352,24106,1,8,1:0:0:0:
144,352,24412,6,0,P|196:364|256:356,1,80,8|0,1:0|1:0,1:0:0:0:
356,224,24718,2,0,P|336:176|304:156,1,80,8|0,1:0|1:0,1:0:0:0:
128,160,25024,2,0,P|80:180|60:212,1,80,8|0,1:0|1:0,1:0:0:0:
208,376,25330,6,0,P|256:356|248:212,1,200,8|8,1:0|1:0,1:0:0:0:
252,220,25789,6,8,P|192:196|120:100,1,179.999994506836,8|0,1:0|1:0,1:0:0:0:
136,88,26249,6,0,P|176:56|288:64,1,150,8|0,1:0|1:0,1:0:0:0:
276,64,26555,6,0,P|278:107|394:187,1,160,8|8,1:0|1:0,1:0:0:0:
276,256,27014,1,0,1:0:0:0:
180,160,27167,1,0,1:0:0:0:
276,64,27320,1,0,1:0:0:0:
371,160,27473,1,8,1:0:0:0:
180,160,27626,6,0,P|156:200|156:248,2,80,0|0|0,1:0|1:0|1:0,1:0:0:0:
368,92,28085,1,8,1:0:0:0:
368,92,28238,2,0,P|408:116|456:116,1,80,0|0,1:0|1:0,1:0:0:0:
248,88,28545,1,0,1:0:0:0:
432,36,28698,1,8,1:0:0:0:
372,176,28851,1,0,1:0:0:0:
64,201,29004,6,0,L|16:285,1,80,8|0,1:0|1:0,1:0:0:0:
372,176,29310,2,0,L|420:92,1,80,8|0,1:0|1:0,1:0:0:0:
88,160,29616,1,8,1:0:0:0:
411,106,29769,1,0,1:0:0:0:
236,296,29922,1,8,1:0:0:0:
248,88,30075,6,0,P|280:44|332:24,1,80,8|8,1:0|1:0,1:0:0:0:
304,236,30381,1,8,1:0:0:0:
284,260,30458,1,8,1:0:0:0:
260,280,30534,2,8,B|220:291|220:291|152:292|160:292,1,80,8|8,1:0|1:0,1:0:0:0:
116,156,30841,5,8,1:0:0:0:
368,124,30994,1,8,1:0:0:0:
368,124,31070,1,8,1:0:0:0:
368,124,31147,1,8,1:0:0:0:
264,288,31300,1,0,1:0:0:0:
92,220,31453,6,8,P|156:220|236:140,1,160,8|8,1:0|1:0,1:0:0:0:
368,360,31912,1,0,1:0:0:0:
368,360,31988,1,0,1:0:0:0:
368,360,32065,2,0,P|312:368|280:360,1,80,8|0,1:0|1:0,1:0:0:0:
104,280,32371,1,8,1:0:0:0:
240,240,32524,1,0,1:0:0:0:
368,208,32677,6,0,P|420:192|452:156,1,80,8|0,1:0|1:0,1:0:0:0:
312,88,32983,1,8,1:0:0:0:
128,88,33136,1,0,1:0:0:0:
208,280,33289,1,8,1:0:0:0:
376,216,33443,1,0,1:0:0:0:
280,72,33596,1,8,1:0:0:0:
160,192,33749,1,0,1:0:0:0:
376,216,33902,6,0,P|380:288|368:324,1,80,8|0,1:0|1:0,1:0:0:0:
80,156,34208,6,0,P|76:84|88:48,1,80,8|0,1:0|1:0,1:0:0:0:
140,332,34514,1,8,1:0:0:0:
80,156,34667,1,0,1:0:0:0:
216,64,34820,1,8,1:0:0:0:
356,288,34973,2,0,P|341:350|312:267,1,200,8|0,1:0|1:0,1:0:0:0:
332,220,35432,6,0,B|452:234|484:190,1,125.999996154785,8|0,1:0|1:0,1:0:0:0:
512,156,35738,6,0,B|548:92|484:20,1,132.00000402832,8|0,1:0|1:0,1:0:0:0:
428,72,36045,2,0,P|372:96|272:84,1,138.000002632141,8|0,1:0|1:0,1:0:0:0:
224,48,36351,2,8,P|128:64|92:164,2,191.999994140625,8|8|8,1:0|1:0|1:0,1:0:0:0:
320,64,37116,1,0,1:0:0:0:
328,260,37269,2,0,P|318:310|276:340,1,92.0000017547608,8|0,1:0|1:0,1:0:0:0:
124,220,37575,6,0,P|128:172|194:127,1,92.0000017547608,8|0,1:0|1:0,1:0:0:0:
300,60,37881,2,0,P|372:80|416:168,1,138.000002632141,8|0,1:0|1:0,1:0:0:0:
416,152,38187,1,8,1:0:0:0:
288,240,38341,1,0,1:0:0:0:
64,152,38494,2,0,B|120:236|120:236|176:236,1,120,8|0,1:0|1:0,1:0:0:0:
176,172,38800,6,0,P|204:116|280:76,1,143.999995605469,8|0,1:0|1:0,1:0:0:0:
296,152,39106,6,0,B|340:200|340:200|408:212,1,120,8|0,1:0|1:0,1:0:0:0:
408,208,39412,1,8,1:0:0:0:
92,288,39718,1,8,1:0:0:0:
92,288,40024,1,8,1:0:0:0:
92,288,40330,2,0,P|80:233|104:160,1,120,8|0,1:0|1:0,1:0:0:0:
120,155,40636,5,8,1:0:0:0:
153,147,40713,1,0,1:0:0:0:
191,147,40789,1,8,1:0:0:0:
230,155,40866,1,0,1:0:0:0:
266,174,40943,1,8,1:0:0:0:
290,211,41019,1,0,1:0:0:0:
304,252,41096,1,8,1:0:0:0:
216,56,41249,5,8,1:0:0:0:
216,56,41555,1,0,1:0:0:0:
216,56,41861,1,8,1:0:0:0:
396,192,42014,1,0,1:0:0:0:
408,212,42091,1,0,1:0:0:0:
412,232,42167,2,0,P|404:288|388:308,1,80,0|0,1:0|1:0,1:0:0:0:
96,152,42473,1,8,1:0:0:0:
96,152,42779,5,0,1:0:0:0:
304,64,42932,1,0,1:0:0:0:
304,64,43085,2,0,P|344:96|348:136,1,80,8|0,1:0|1:0,1:0:0:0:
348,236,43392,5,8,1:0:0:0:
140,324,43545,1,0,1:0:0:0:
140,324,43698,2,0,P|100:292|96:252,1,80,8|0,1:0|1:0,1:0:0:0:
216,56,44004,1,8,1:0:0:0:
216,56,44157,2,0,L|204:144,1,80,0|8,1:0|1:0,1:0:0:0:
424,196,44463,1,0,1:0:0:0:
424,196,44616,2,0,L|428:112,1,80,8|0,1:0|1:0,1:0:0:0:
140,324,44922,5,8,1:0:0:0:
424,196,45228,1,0,1:0:0:0:
120,228,45534,2,0,P|88:200|96:112,1,120,0|0,1:0|1:0,1:0:0:0:
0,136,45841,2,0,P|20:244|64:276,1,132.00000402832,8|0,1:0|1:0,1:0:0:0:
176,64,46147,6,8,B|228:84|228:84|208:164|128:168,1,160,8|8,1:0|1:0,1:0:0:0:
84,180,46606,1,0,1:0:0:0:
204,272,46759,1,0,1:0:0:0:
116,328,46912,1,0,1:0:0:0:
304,256,47065,2,0,P|356:256|384:240,1,80,8|0,1:0|1:0,1:0:0:0:
208,128,47371,2,0,P|156:128|128:144,1,80,8|0,1:0|1:0,1:0:0:0:
440,228,47677,2,0,P|440:160|420:136,1,80,8|0,1:0|1:0,1:0:0:0:
72,180,47983,6,0,P|44:220|68:268,1,80,8|0,1:0|1:0,1:0:0:0:
365,255,48289,2,0,P|420:239|452:219,1,80,8|0,1:0|1:0,1:0:0:0:
208,128,48596,2,0,P|162:126|108:168,1,80,8|0,1:0|1:0,1:0:0:0:
340,40,48902,1,8,1:0:0:0:
336,176,49055,1,0,1:0:0:0:
336,176,49131,1,0,1:0:0:0:
336,176,49208,6,8,P|404:188|500:144,2,160,8|8|8,1:0|1:0|1:0,1:0:0:0:
192,320,49973,1,0,1:0:0:0:
60,240,50126,2,8,P|52:188|104:88,2,160,8|8|8,1:0|1:0|1:0,1:0:0:0:
248,88,50892,1,0,1:0:0:0:
248,88,50968,1,0,1:0:0:0:
248,88,51045,6,0,P|304:116|352:192,1,120,8|0,1:0|1:0,1:0:0:0:
344,168,51351,1,8,1:0:0:0:
344,168,51504,1,0,1:0:0:0:
316,304,51657,2,0,P|240:296|268:232,1,160,8|8,1:0|1:0,1:0:0:0:
352,124,52116,1,0,1:0:0:0:
396,256,52269,5,8,1:0:0:0:
176,108,52422,2,0,B|92:28,2,80,0|8|0,1:0|1:0|1:0,1:0:0:0:
384,128,52881,2,0,B|396:184|396:184|352:228,1,120,8|0,1:0|1:0,1:0:0:0:
320,224,53187,2,0,L|232:144,1,88.000002685547,8|0,1:0|1:0,1:0:0:0:
84,96,53494,6,0,B|56:152|56:152|64:192,1,88.000002685547,8|0,1:0|1:0,1:0:0:0:
100,288,53800,1,8,1:0:0:0:
288,288,53953,1,0,1:0:0:0:
432,168,54106,2,0,P|408:104|300:64,1,176.000005371094,8|8,1:0|1:0,1:0:0:0:
284,220,54565,1,0,1:0:0:0:
436,304,54718,6,8,P|472:272|452:124,1,176.000005371094,8|8,1:0|1:0,1:0:0:0:
456,136,55101,1,0,1:0:0:0:
432,120,55177,1,0,1:0:0:0:
180,164,55330,1,8,1:0:0:0:
156,148,55407,1,0,1:0:0:0:
132,132,55483,1,0,1:0:0:0:
336,320,55636,6,0,P|352:280|300:228,1,120,8|0,1:0|1:0,1:0:0:0:
220,228,55943,6,0,B|236:164|276:148|320:156,1,125.999996154785,8|0,1:0|1:0,1:0:0:0:
348,224,56249,6,0,B|400:192|392:120|360:96,1,132.00000402832,8|0,1:0|1:0,1:0:0:0:
328,40,56555,2,0,P|256:4|204:32,1,138.000002632141,8|0,1:0|1:0,1:0:0:0:
264,84,56861,2,0,P|276:168|240:216,1,143.999995605469,8|0,1:0|1:0,1:0:0:0:
168,228,57167,6,0,L|328:212,1,150,8|0,1:0|1:0,1:0:0:0:
392,208,57473,2,0,B|393:233|368:280|368:280|284:292,1,155.999992858887,8|0,1:0|1:0,1:0:0:0:
216,256,57779,2,0,L|88:132,1,162.000000617981,8|0,1:0|1:0,1:0:0:0:
16,112,58085,2,0,B|76:116|76:116|96:136|96:136|236:140,1,223.999993164063,8|8,1:0|1:0,1:0:0:0:
435,154,58545,5,8,1:0:0:0:
325,248,58698,1,8,1:0:0:0:
231,139,58851,1,8,1:0:0:0:
339,45,59004,1,8,1:0:0:0:
421,213,59157,5,8,1:0:0:0:
260,56,59310,1,8,1:0:0:0:
180,280,59463,1,8,1:0:0:0:
396,120,59616,5,8,1:0:0:0:
176,28,59769,1,8,1:0:0:0:
220,344,59922,1,8,1:0:0:0:
396,120,60075,1,8,1:0:0:0:
412,92,60152,1,8,1:0:0:0:
432,64,60228,1,8,1:0:0:0:
300,228,60381,5,8,1:0:0:0:
282,201,60458,1,8,1:0:0:0:
264,174,60534,1,8,1:0:0:0:
472,324,60687,5,8,1:0:0:0:
440,340,60764,1,8,1:0:0:0:
404,348,60841,2,8,P|348:356|156:288,1,240.000009155274,10|8,1:0|1:0,1:0:0:0:
80,176,61300,1,0,1:0:0:0:
240,288,61453,1,0,1:0:0:0:
340,88,61606,1,0,1:0:0:0:
240,288,61759,2,0,P|176:304|92:288,1,120.000004577637,8|0,1:0|1:0,1:0:0:0:
312,148,62065,5,0,1:0:0:0:
324,120,62142,1,0,1:0:0:0:
340,88,62218,1,0,1:0:0:0:
268,348,62371,5,8,1:0:0:0:
256,320,62448,1,0,1:0:0:0:
240,288,62524,1,0,1:0:0:0:
132,104,62677,1,0,1:0:0:0:
340,88,62830,1,0,1:0:0:0:
440,336,62983,2,8,B|492:216|388:96,1,240.000009155274,8|2,1:0|1:0,1:0:0:0:
232,48,63443,5,0,1:0:0:0:
72,204,63596,1,8,1:0:0:0:
280,260,63749,2,0,B|388:280|388:180|512:156,1,240.000009155274,0|0,1:0|1:0,1:0:0:0:
500,160,64131,1,0,1:0:0:0:
508,156,64208,1,8,1:0:0:0:
280,72,64361,1,0,1:0:0:0:
328,224,64514,6,0,P|292:288|192:348,1,180.000006866455,8|0,1:0|1:0,1:0:0:0:
196,264,64820,2,0,L|204:68,1,180.000006866455,8|0,1:0|1:0,1:0:0:0:
204,76,65126,1,8,1:0:0:0:
460,100,65279,1,0,1:0:0:0:
252,160,65432,2,0,P|192:164|104:124,1,120.000004577637,8|0,1:0|1:0,1:0:0:0:
404,72,65738,6,8,B|460:100|448:160|416:188|416:188|460:252|456:292,1,240.000009155274,10|8,1:0|1:0,1:0:0:0:
324,292,66198,2,0,P|284:292|208:260,1,120.000004577637,0|8,1:0|1:0,1:0:0:0:
136,176,66504,1,0,1:0:0:0:
64,292,66657,1,8,1:0:0:0:
0,168,66810,1,0,1:0:0:0:
420,292,66963,6,0,P|380:324|296:328,1,120.000004577637,8|0,1:0|1:0,1:0:0:0:
32,232,67269,2,0,P|72:192|144:184,1,120.000004577637,8|0,1:0|1:0,1:0:0:0:
348,276,67575,2,0,L|224:228,1,120.000004577637,8|0,1:0|1:0,1:0:0:0:
60,76,67881,2,0,L|192:128,1,120.000004577637,8|0,1:0|1:0,1:0:0:0:
416,256,68187,5,8,1:0:0:0:
424,240,68264,1,0,1:0:0:0:
432,224,68341,2,0,P|440:176|400:108,1,120.000004577637,0|8,1:0|1:0,1:0:0:0:
228,96,68647,1,0,1:0:0:0:
228,248,68800,2,0,B|180:300|180:300|120:320,1,120.000004577637,8|0,1:0|1:0,1:0:0:0:
228,96,69106,1,8,1:0:0:0:
288,344,69259,1,8,1:0:0:0:
60,264,69412,5,8,1:0:0:0:
228,96,69565,1,8,1:0:0:0:
368,176,69718,1,8,1:0:0:0:
396,204,69795,1,8,1:0:0:0:
412,236,69871,1,8,1:0:0:0:
408,276,69948,1,8,1:0:0:0:
388,308,70024,1,8,1:0:0:0:
360,332,70101,1,8,1:0:0:0:
324,344,70177,1,8,1:0:0:0:
288,336,70254,1,8,1:0:0:0:
256,320,70330,6,0,B|204:292|204:292|168:160,1,180.000006866455,8|0,1:0|1:0,1:0:0:0:
160,140,70636,2,0,P|204:176|328:72,1,240.000009155274,10|8,1:0|1:0,1:0:0:0:
160,36,71096,1,0,1:0:0:0:
96,128,71249,1,8,1:0:0:0:
184,192,71402,1,0,1:0:0:0:
296,224,71555,2,0,P|368:224|456:184,1,120.000004577637,8|0,1:0|1:0,1:0:0:0:
200,124,71861,6,0,B|64:104,1,120.000004577637,8|0,1:0|1:0,1:0:0:0:
340,232,72167,2,0,B|471:249,1,120.000004577637,8|0,1:0|1:0,1:0:0:0:
120,220,72473,2,0,B|72:80,1,120.000004577637,8|0,1:0|1:0,1:0:0:0:
420,133,72779,2,0,B|468:273,1,120.000004577637,8|0,1:0|1:0,1:0:0:0:
184,156,73085,6,0,L|44:80,1,120.000004577637,8|0,1:0|1:0,1:0:0:0:
312,36,73392,1,8,1:0:0:0:
304,240,73545,2,0,B|288:296|288:296|224:352,1,120.000004577637,0|8,1:0|1:0,1:0:0:0:
184,156,73851,1,0,1:0:0:0:
384,264,74004,1,8,1:0:0:0:
412,272,74080,1,0,1:0:0:0:
440,280,74157,1,0,1:0:0:0:
184,156,74310,6,0,P|140:192|104:268,1,120.000004577637,8|0,1:0|1:0,1:0:0:0:
364,168,74616,2,0,P|408:132|432:56,1,120.000004577637,8|0,1:0|1:0,1:0:0:0:
280,288,74922,2,0,P|316:332|392:348,1,120.000004577637,8|0,1:0|1:0,1:0:0:0:
364,168,75228,1,8,1:0:0:0:
176,56,75381,1,0,1:0:0:0:
160,264,75534,6,0,P|280:288|332:288,1,120.000004577637,8|8,1:0|1:0,1:0:0:0:
124,128,75841,1,8,1:0:0:0:
352,112,75994,2,0,P|388:156|384:240,1,120.000004577637,0|8,1:0|1:0,1:0:0:0:
240,272,76300,1,8,1:0:0:0:
200,44,76453,1,8,1:0:0:0:
168,152,76606,6,0,P|234:152|304:56,1,180.000006866455,0|0,1:0|1:0,1:0:0:0:
304,60,76912,1,0,1:0:0:0:
224,296,77065,1,8,1:0:0:0:
100,64,77218,1,0,1:0:0:0:
304,60,77371,1,8,1:0:0:0:
100,64,77524,1,0,1:0:0:0:
304,60,77677,2,0,P|380:84|404:120,1,120,8|0,1:0|1:0,1:0:0:0:
320,144,77983,6,8,B|276:160|276:160|344:244|292:308,1,184.000003509522,8|8,1:0|1:0,1:0:0:0:
152,152,78443,1,8,1:0:0:0:
212,300,78596,1,8,1:0:0:0:
320,144,78749,1,8,1:0:0:0:
64,84,78902,1,8,1:0:0:0:
188,336,79055,1,8,1:0:0:0:
192,340,79131,1,8,1:0:0:0:
196,344,79208,5,8,1:0:0:0:
503,337,79361,1,8,1:0:0:0:
276,168,79514,1,8,1:0:0:0:
480,80,79667,1,8,1:0:0:0:
476,304,79820,1,8,1:0:0:0:
259,234,79973,1,8,1:0:0:0:
227,204,80050,5,8,1:0:0:0:
200,166,80126,1,8,1:0:0:0:
193,122,80203,1,8,1:0:0:0:
202,79,80279,1,8,1:0:0:0:
223,39,80356,1,8,1:0:0:0:
253,7,80432,6,8,P|309:-6|398:135,1,240.000009155274,10|0,1:0|1:0,1:0:0:0:
311,233,80892,1,0,1:0:0:0:
144,208,81045,1,8,1:0:0:0:
384,328,81198,1,0,1:0:0:0:
248,160,81351,1,8,1:0:0:0:
384,36,81504,1,0,1:0:0:0:
144,208,81657,6,0,P|108:260|120:380,1,180.000006866455,8|0,1:0|1:0,1:0:0:0:
136,380,81963,2,0,B|208:356|208:356|308:380,1,120.000004577637,8|0,1:0|1:0,1:0:0:0:
420,244,82269,1,8,1:0:0:0:
264,372,82422,1,0,1:0:0:0:
472,144,82575,2,8,P|504:180|456:360,1,240.000009155274,8|10,1:0|1:0,1:0:0:0:
267,89,83034,5,0,1:0:0:0:
420,244,83187,1,0,1:0:0:0:
460,76,83341,2,0,B|406:82|406:82|342:132,1,120.000004577637,0|8,1:0|1:0,1:0:0:0:
168,236,83647,1,0,1:0:0:0:
48,64,83800,1,0,1:0:0:0:
232,164,83953,1,0,1:0:0:0:
232,164,84030,1,0,1:0:0:0:
232,164,84106,2,0,P|248:218|213:312,1,120.000004577637,8|0,1:0|1:0,1:0:0:0:
424,156,84412,6,0,P|444:104|440:32,1,120.000004577637,8|0,1:0|1:0,1:0:0:0:
296,112,84718,1,8,1:0:0:0:
164,220,84871,1,0,1:0:0:0:
300,340,85024,2,8,B|372:356|432:236|508:236,1,240.000009155274,8|10,1:0|1:0,1:0:0:0:
376,52,85483,5,0,1:0:0:0:
212,176,85636,2,0,B|168:204|168:204|80:204,1,120.000004577637,0|0,1:0|1:0,1:0:0:0:
300,340,85943,1,8,1:0:0:0:
364,140,86096,1,0,1:0:0:0:
368,136,86172,1,0,1:0:0:0:
372,132,86249,2,0,B|367:85|367:85|448:8,1,120.000004577637,0|0,1:0|1:0,1:0:0:0:
152,136,86555,6,0,B|85:163|138:235|36:250,1,120.000004577637,8|0,1:0|1:0,1:0:0:0:
336,260,86861,2,0,P|424:308|428:360,1,120.000004577637,8|0,1:0|1:0,1:0:0:0:
492,152,87167,2,0,B|508:80|428:0,1,120.000004577637,8|0,1:0|1:0,1:0:0:0:
192,128,87473,1,8,1:0:0:0:
164,168,87550,1,0,1:0:0:0:
156,216,87626,1,8,1:0:0:0:
164,264,87703,1,0,1:0:0:0:
192,304,87779,6,8,P|252:352|440:336,1,240.000009155274,8|8,1:0|1:0,1:0:0:0:
232,172,88238,1,0,1:0:0:0:
204,32,88392,1,8,1:0:0:0:
72,124,88545,1,0,1:0:0:0:
388,192,88698,1,8,1:0:0:0:
352,224,88774,1,0,1:0:0:0:
316,256,88851,1,8,1:0:0:0:
280,288,88927,1,0,1:0:0:0:
244,316,89004,5,8,1:0:0:0:
168,96,89157,1,8,1:0:0:0:
468,188,89310,1,8,1:0:0:0:
276,40,89463,1,8,1:0:0:0:
116,268,89616,1,8,1:0:0:0:
484,268,89769,1,8,1:0:0:0:
196,176,89922,2,0,B|168:140|168:140|268:108|296:56,1,180.000006866455,8|0,1:0|1:0,1:0:0:0:
312,8,90228,6,8,L|312:272,1,240.000009155274,8|8,1:0|1:0,1:0:0:0:
444,184,90687,1,0,1:0:0:0:
144,184,90841,1,8,1:0:0:0:
212,16,90994,1,0,1:0:0:0:
336,152,91147,2,0,B|368:248|368:248|340:296|300:308,1,180.000006866455,8|0,1:0|1:0,1:0:0:0:
248,256,91453,6,0,B|176:176|176:176|160:96,1,180.000006866455,8|0,1:0|1:0,1:0:0:0:
240,100,91759,2,0,P|248:152|144:208,1,180.000006866455,8|0,1:0|1:0,1:0:0:0:
104,144,92065,2,0,P|72:192|121:334,1,180.000006866455,8|0,1:0|1:0,1:0:0:0:
164,264,92371,2,0,L|376:308,1,180.000006866455,8|0,1:0|1:0,1:0:0:0:
404,260,92677,2,0,P|400:348|344:376,1,120.000004577637,8|8,1:0|1:0,1:0:0:0:
164,264,92983,1,0,1:0:0:0:
276,60,93136,1,8,1:0:0:0:
420,168,93289,5,8,1:0:0:0:
432,192,93366,1,0,1:0:0:0:
440,216,93443,2,0,B|436:272|372:264|372:264|320:288|344:356,1,180.000006866455,8|0,1:0|1:0,1:0:0:0:
332,360,93749,2,0,P|236:360|100:324,1,223.999993164063,8|8,1:0|1:0,1:0:0:0:
112,104,94208,1,8,1:0:0:0:
248,264,94361,1,8,1:0:0:0:
344,28,94514,1,8,1:0:0:0:
408,212,94667,5,8,1:0:0:0:
404,244,94744,1,0,1:0:0:0:
396,272,94820,2,0,P|356:324|288:352,1,120.000004577637,8|0,1:0|1:0,1:0:0:0:
328,44,95126,2,0,P|392:104|420:160,1,120.000004577637,8|0,1:0|1:0,1:0:0:0:
256,196,95432,1,8,1:0:0:0:
116,192,95585,1,0,1:0:0:0:
304,344,95738,2,0,P|368:336|412:264,1,120.000004577637,8|0,1:0|1:0,1:0:0:0:
256,196,96045,1,8,1:0:0:0:
256,48,96198,1,0,1:0:0:0:
256,196,96351,6,0,L|256:332,1,120.000004577637,8|0,1:0|1:0,1:0:0:0:
124,188,96657,2,0,L|44:44,1,120.000004577637,8|0,1:0|1:0,1:0:0:0:
156,344,96963,2,0,L|192:216,1,120.000004577637,8|0,1:0|1:0,1:0:0:0:
300,80,97269,1,8,1:0:0:0:
304,128,97346,1,0,1:0:0:0:
308,176,97422,1,8,1:0:0:0:
312,216,97499,1,0,1:0:0:0:
316,264,97575,6,0,P|276:304|236:312,1,88.000002685547,8|0,1:0|1:0,1:0:0:0:
128,208,97881,2,0,P|92:172|92:128,1,88.000002685547,8|0,1:0|1:0,1:0:0:0:
320,272,98187,1,8,1:0:0:0:
320,272,98341,2,0,B|369:251|369:251|389:167,1,132.00000402832,8|0,1:0|1:0,1:0:0:0:
311,199,98647,6,0,P|250:211|290:106,1,220.000006713867,8|0,1:0|1:0,1:0:0:0:
271,155,99106,2,0,L|194:55,1,120,8|0,1:0|1:0,1:0:0:0:
242,195,99412,2,0,L|139:65,1,155.999992858887,8|0,1:0|1:0,1:0:0:0:
203,228,99718,2,0,L|87:79,1,180.000006866455,8|0,1:0|1:0,1:0:0:0:
280,260,100024,6,8,B|327:306|384:280|384:280|426:292|470:267|470:267,2,176.000005371094,8|8|8,1:0|1:0|1:0,1:0:0:0:
260,60,100789,1,0,1:0:0:0:
376,144,100943,1,8,1:0:0:0:
280,260,101096,1,0,1:0:0:0:
376,144,101249,6,0,L|256:144,1,88.000002685547,8|0,1:0|1:0,1:0:0:0:
72,56,101555,6,0,L|144:112,1,88.000002685547,8|0,1:0|1:0,1:0:0:0:
376,144,101861,6,0,L|476:136,1,88.000002685547,8|0,1:0|1:0,1:0:0:0:
203,228,102167,6,0,L|107:300,1,88.000002685547,8|0,1:0|1:0,1:0:0:0:
368,144,102473,6,8,P|444:152|360:272,1,264.000008056641,8|0,1:0|1:0,1:0:0:0:
180,150,103085,1,8,1:0:0:0:
400,210,103238,1,8,1:0:0:0:
196,272,103392,1,8,1:0:0:0:
116,48,103545,2,0,B|180:80|180:80|120:156|204:184,1,176.000005371094,8|0,1:0|1:0,1:0:0:0:
196,272,104004,6,0,P|164:308|112:336,1,88.000002685547,0|0,1:0|1:0,1:0:0:0:
232,176,104310,2,0,P|264:212|316:240,1,88.000002685547,0|0,1:0|1:0,1:0:0:0:
112,64,104616,2,0,P|160:40|224:56,1,107.999996704102,8|0,1:0|1:0,1:0:0:0:
172,124,104922,6,0,B|108:224,1,88.000002685547,8|0,1:0|1:0,1:0:0:0:
392,200,105228,2,0,B|448:92,1,88.000002685547,8|0,1:0|1:0,1:0:0:0:
264,296,105534,2,0,B|204:392,1,88.000002685547,8|0,1:0|1:0,1:0:0:0:
152,88,105841,1,8,1:0:0:0:
332,88,105994,6,8,P|392:92|476:188,1,176.000005371094,8|8,1:0|1:0,1:0:0:0:
328,304,106453,2,8,P|264:272|248:232,1,88.000002685547,8|8,1:0|1:0,1:0:0:0:
140,148,106759,2,8,L|108:184,1,44.0000013427735,8|8,1:0|1:0,1:0:0:0:
272,80,106912,2,8,L|224:36,1,44.0000013427735,8|8,1:0|1:0,1:0:0:0:
272,252,107065,2,0,P|316:304|408:324,1,132.00000402832,8|0,1:0|1:0,1:0:0:0:
392,320,107371,6,0,P|412:252|428:236,1,88.000002685547,0|0,1:0|1:0,1:0:0:0:
188,72,107677,1,8,1:0:0:0:
188,72,107983,1,0,1:0:0:0:
156,196,108136,1,0,1:0:0:0:
312,224,108289,2,0,P|288:300|260:308,1,88.000002685547,0|0,1:0|1:0,1:0:0:0:
152,192,108596,6,0,P|156:128|180:112,1,88.000002685547,8|0,1:0|1:0,1:0:0:0:
64,336,108902,1,0,1:0:0:0:
64,336,109208,1,0,1:0:0:0:
216,240,109361,1,0,1:0:0:0:
180,360,109514,1,0,1:0:0:0:
84,208,109667,1,0,1:0:0:0:
84,208,109820,6,0,L|36:120,1,88.000002685547,8|0,1:0|1:0,1:0:0:0:
208,136,110126,6,0,L|192:24,1,88.000002685547,0|0,1:0|1:0,1:0:0:0:
340,188,110432,6,0,L|356:92,1,88.000002685547,0|0,1:0|1:0,1:0:0:0:
480,220,110738,6,0,L|448:316,1,88.000002685547,0|0,1:0|1:0,1:0:0:0:
72,44,111045,1,8,1:0:0:0:
96,176,111351,1,0,1:0:0:0:
296,48,111657,1,0,1:0:0:0:
94,176,111963,2,0,P|54:112|78:112,1,132.00000402832,0|0,1:0|1:0,1:0:0:0:
68,148,112269,6,0,P|40:228|116:264,1,176.000005371094,8|0,1:0|1:0,1:0:0:0:
280,268,112728,1,0,1:0:0:0:
304,124,112881,2,0,B|332:224,1,88.000002685547,0|0,1:0|1:0,1:0:0:0:
208,28,113187,2,0,B|180:140,1,88.000002685547,0|0,1:0|1:0,1:0:0:0:
272,320,113494,1,8,1:0:0:0:
72,152,113800,1,0,1:0:0:0:
308,276,114106,5,0,1:0:0:0:
280,136,114412,2,0,L|200:84,1,88.000002685547,0|0,1:0|1:0,1:0:0:0:
312,280,114718,2,0,L|392:332,1,88.000002685547,8|0,1:0|1:0,1:0:0:0:
357,78,115024,1,0,1:0:0:0:
192,104,115177,1,0,1:0:0:0:
192,104,115253,1,0,1:0:0:0:
192,104,115330,6,0,P|260:116|372:64,2,176.000005371094,8|0|8,1:0|1:0|1:0,1:0:0:0:
64,136,116096,1,0,1:0:0:0:
204,208,116249,2,0,B|244:248|296:220|296:220|344:220|360:300,2,176.000005371094,8|0|0,1:0|1:0|1:0,1:0:0:0:
120,288,117014,1,8,1:0:0:0:
120,288,117091,1,8,1:0:0:0:
120,288,117167,6,0,P|60:276|28:256,1,88.000002685547,8|0,1:0|1:0,1:0:0:0:
168,152,117473,1,8,1:0:0:0:
328,160,117626,1,0,1:0:0:0:
264,328,117779,1,8,1:0:0:0:
248,164,117932,2,0,L|216:120,1,44.0000013427735,8|0,1:0|1:0,1:0:0:0:
404,88,118085,2,0,L|448:48,1,44.0000013427735,8|0,1:0|1:0,1:0:0:0:
448,292,118238,1,8,1:0:0:0:
188,260,118392,6,0,L|96:260,1,88.000002685547,8|0,1:0|1:0,1:0:0:0:
256,116,118698,2,0,L|356:116,1,88.000002685547,8|0,1:0|1:0,1:0:0:0:
100,260,119004,1,8,1:0:0:0:
256,116,119157,1,0,1:0:0:0:
400,256,119310,2,0,P|440:284|484:280,1,88.000002685547,8|0,1:0|1:0,1:0:0:0:
344,116,119616,5,8,1:0:0:0:
312,104,119693,5,0,1:0:0:0:
280,92,119769,5,0,1:0:0:0:
228,176,119922,1,8,1:0:0:0:
196,164,119999,5,0,1:0:0:0:
164,152,120075,5,0,1:0:0:0:
104,232,120228,1,8,1:0:0:0:
72,220,120305,5,0,1:0:0:0:
40,208,120381,5,0,1:0:0:0:
296,340,120534,2,8,B|408:332|456:216,1,176.000005371094,8|8,1:0|1:0,1:0:0:0:
438,250,120994,1,0,1:0:0:0:
208,260,121147,1,8,1:0:0:0:
208,260,121300,1,0,1:0:0:0:
256,20,121453,1,8,1:0:0:0:
438,250,121606,1,8,1:0:0:0:
208,260,121759,5,8,1:0:0:0:
404,160,121912,1,0,1:0:0:0:
184,272,122065,2,0,P|136:272|92:224,1,88.000002685547,8|0,1:0|1:0,1:0:0:0:
80,96,122371,1,0,1:0:0:0:
280,100,122524,6,0,P|332:120|344:152,2,88.000002685547,0|8|0,1:0|1:0|1:0,1:0:0:0:
136,184,122983,1,0,1:0:0:0:
236,248,123136,1,0,1:0:0:0:
344,208,123289,6,0,P|396:180|424:152,1,88.000002685547,8|0,1:0|1:0,1:0:0:0:
328,64,123596,1,0,1:0:0:0:
236,248,123749,2,0,P|264:300|292:328,2,88.000002685547,0|8|0,1:0|1:0|1:0,1:0:0:0:
236,124,124208,6,0,P|272:72|348:52,1,132.00000402832,0|0,1:0|1:0,1:0:0:0:
356,64,124514,6,0,P|356:128|332:220,1,155.999992858887,8|0,1:0|1:0,1:0:0:0:
320,232,124820,1,8,1:0:0:0:
176,48,124973,1,8,1:0:0:0:
192,280,125126,1,8,1:0:0:0:
356,64,125279,2,8,L|396:176,1,88.000002685547,8|8,1:0|1:0,1:0:0:0:
112,296,125585,1,8,1:0:0:0:
161,74,125738,1,8,1:0:0:0:
204,83,125815,5,8,1:0:0:0:
243,109,125892,1,8,1:0:0:0:
261,141,125968,1,8,1:0:0:0:
274,186,126045,5,8,1:0:0:0:
308,216,126121,1,8,1:0:0:0:
343,245,126198,1,8,1:0:0:0:
390,244,126274,1,8,1:0:0:0:
443,224,126351,5,8,1:0:0:0:
476,167,126427,1,8,1:0:0:0:
482,107,126503,1,8,1:0:0:0:
452,42,126580,1,8,1:0:0:0:
394,4,126657,5,8,1:0:0:0:
283,241,126963,6,8,B|243:273|243:273|159:257|159:257|83:301,1,191.999994140625,8|8,1:0|1:0,1:0:0:0:
96,156,127422,1,0,1:0:0:0:
288,40,127575,1,0,1:0:0:0:
283,241,127728,5,8,1:0:0:0:
288,40,127881,1,0,1:0:0:0:
460,240,128035,1,0,1:0:0:0:
288,40,128187,5,0,1:0:0:0:
96,156,128341,1,0,1:0:0:0:
460,240,128494,1,8,1:0:0:0:
117,279,128647,5,0,1:0:0:0:
434,81,128800,1,0,1:0:0:0:
96,156,128953,1,0,1:0:0:0:
376,312,129106,1,8,1:0:0:0:
52,32,129259,1,0,1:0:0:0:
424,164,129412,6,0,B|496:240|456:320|412:344,1,191.999994140625,0|8,1:0|1:0,1:0:0:0:
184,280,129871,2,0,B|388:248,1,191.999994140625,0|0,1:0|1:0,1:0:0:0:
88,196,130330,2,0,P|64:140|68:100,1,95.9999970703126,8|0,1:0|1:0,1:0:0:0:
311,186,130636,6,8,P|335:242|248:356,1,191.999994140625,8|8,1:0|1:0,1:0:0:0:
264,128,131096,1,0,1:0:0:0:
276,104,131172,1,0,1:0:0:0:
292,84,131249,2,0,P|328:44|388:41,1,95.9999970703126,8|0,1:0|1:0,1:0:0:0:
120,128,131555,2,0,L|-8:176,1,95.9999970703126,8|0,1:0|1:0,1:0:0:0:
320,328,131861,6,0,P|364:344|514:288,1,191.999994140625,8|0,1:0|1:0,1:0:0:0:
412,100,132320,1,8,1:0:0:0:
220,192,132473,2,0,P|222:279|241:295,1,95.9999970703126,0|8,1:0|1:0,1:0:0:0:
494,200,132779,1,8,1:0:0:0:
436,292,132932,5,0,1:0:0:0:
352,112,133085,1,8,1:0:0:0:
488,124,133238,5,0,1:0:0:0:
352,316,133392,1,8,1:0:0:0:
264,140,133545,5,0,1:0:0:0:
48,172,133698,1,8,1:0:0:0:
160,328,133851,5,0,1:0:0:0:
192,68,134004,1,8,1:0:0:0:
456,32,134157,5,0,1:0:0:0:
400,236,134310,2,0,P|348:256|296:248,1,95.9999970703126,8|0,1:0|1:0,1:0:0:0:
192,216,134616,1,8,1:0:0:0:
116,8,134769,2,8,P|168:-12|300:48,1,191.999994140625,8|8,1:0|1:0,1:0:0:0:
36,88,135228,1,8,1:0:0:0:
360,168,135381,5,0,1:0:0:0:
380,172,135458,1,0,1:0:0:0:
400,184,135534,2,0,P|412:244|388:268,1,95.9999970703126,8|0,1:0|1:0,1:0:0:0:
24,136,135841,2,0,B|1:110|1:110|0:92,1,47.9999985351563,8|0,1:0|0:0,0:0:0:0:
104,136,135994,2,8,B|148:188|148:188|217:216|217:216|256:260,1,191.999994140625,8|8,1:0|1:0,1:0:0:0:
376,240,136453,1,0,1:0:0:0:
376,240,136606,1,8,1:0:0:0:
388,120,136759,6,0,P|364:60|320:24,1,95.9999970703126,8|0,1:0|1:0,1:0:0:0:
160,160,137065,1,8,1:0:0:0:
160,160,137142,5,0,1:0:0:0:
160,160,137218,5,0,1:0:0:0:
392,284,137371,1,8,1:0:0:0:
392,284,137448,5,0,1:0:0:0:
392,284,137524,5,0,1:0:0:0:
88,216,137677,1,8,1:0:0:0:
88,216,137754,5,0,1:0:0:0:
88,216,137830,5,0,1:0:0:0:
376,92,137983,1,8,1:0:0:0:
376,92,138060,5,0,1:0:0:0:
376,92,138136,5,0,1:0:0:0:
368,312,138289,1,8,1:0:0:0:
368,312,138366,5,0,1:0:0:0:
368,312,138442,5,0,1:0:0:0:
128,176,138596,1,8,1:0:0:0:
128,176,138673,5,0,1:0:0:0:
128,176,138749,5,0,1:0:0:0:
400,64,138902,6,0,P|464:152|452:268,1,191.999994140625,8|8,1:0|1:0,1:0:0:0:
212,224,139361,1,0,1:0:0:0:
216,92,139514,2,0,P|224:20|256:-28,1,95.9999970703126,8|0,1:0|1:0,1:0:0:0:
436,80,139820,2,0,P|497:118|526:168,1,95.9999970703126,8|0,1:0|1:0,1:0:0:0:
216,92,140126,6,8,P|144:100|53:190,2,191.999994140625,8|8|8,1:0|1:0|1:0,1:0:0:0:
256,100,140815,1,0,1:0:0:0:
292,104,140892,1,0,1:0:0:0:
312,284,141045,2,8,B|351:206|427:206|427:206|457:125|376:72|347:79,1,311.999985717774,8|0,1:0|1:0,1:0:0:0:
397,325,141657,5,8,1:0:0:0:
288,80,141810,1,0,1:0:0:0:
327,346,141963,1,8,1:0:0:0:
348,53,142116,1,0,1:0:0:0:
261,318,142269,1,8,1:0:0:0:
413,61,142422,1,0,1:0:0:0:
215,311,142575,1,8,1:0:0:0:
449,125,142728,1,0,1:0:0:0:
495,321,142881,5,8,1:0:0:0:
455,287,142957,1,0,1:0:0:0:
409,263,143034,1,8,1:0:0:0:
359,247,143110,1,0,1:0:0:0:
308,242,143187,5,8,1:0:0:0:
124,340,143341,1,0,1:0:0:0:
221,175,143494,1,8,1:0:0:0:
18,261,143647,1,0,1:0:0:0:
135,117,143800,1,8,1:0:0:0:
324,252,143953,5,8,1:0:0:0:
364,286,144029,1,0,1:0:0:0:
410,310,144106,1,8,1:0:0:0:
460,326,144182,1,0,1:0:0:0:
511,331,144259,5,8,1:0:0:0:
395,134,144412,5,8,1:0:0:0:
242,91,144565,1,0,1:0:0:0:
411,35,144718,1,8,1:0:0:0:
184,187,144871,1,0,1:0:0:0:
366,228,145025,5,8,1:0:0:0:
326,262,145101,1,0,1:0:0:0:
280,286,145178,1,8,1:0:0:0:
230,302,145254,1,0,1:0:0:0:
189,294,145330,6,0,B|137:286|137:286|171:270|193:258|193:258|166:253|131:251|131:251|154:233|169:220|169:220|163:203|153:180|153:180|190:143|191:76|191:76,1,363.999983337403,8|0,1:0|1:0,1:0:0:0:
214,90,145943,1,8,1:0:0:0:
264,44,146019,1,0,1:0:0:0:
332,44,146096,1,8,1:0:0:0:
388,76,146172,1,0,1:0:0:0:
416,140,146249,1,8,1:0:0:0:
408,208,146325,1,0,1:0:0:0:
376,268,146402,1,8,1:0:0:0:
312,292,146478,1,0,1:0:0:0:
240,264,146555,6,8,P|200:212|233:35,2,240.000009155274,8|8|8,1:0|1:0|1:0,1:0:0:0:
388,316,147320,5,0,1:0:0:0:
416,328,147397,1,0,1:0:0:0:
448,344,147473,1,8,1:0:0:0:
340,92,147626,1,0,0:0:0:0:
104,232,147779,5,8,1:0:0:0:
76,244,147856,1,0,1:0:0:0:
44,260,147932,1,0,1:0:0:0:
408,168,148085,5,8,1:0:0:0:
436,180,148162,1,0,1:0:0:0:
468,196,148238,1,0,1:0:0:0:
176,72,148391,1,8,1:0:0:0:
397,280,148544,1,8,1:0:0:0:
52,36,148697,2,0,B|0:156|104:276,1,240.000009155274,8|2,1:0|1:0,1:0:0:0:
280,336,149157,5,0,1:0:0:0:
440,180,149310,1,8,1:0:0:0:
232,124,149463,2,0,B|124:104|124:204|0:228,1,240.000009155274,0|0,1:0|1:0,1:0:0:0:
12,224,149845,1,0,1:0:0:0:
4,228,149922,1,8,1:0:0:0:
189,322,150075,1,0,1:0:0:0:
333,161,150228,6,0,P|397:197|457:297,1,180.000006866455,0|0,1:0|1:0,1:0:0:0:
449,293,150534,2,0,L|253:285,1,180.000006866455,8|0,1:0|1:0,1:0:0:0:
261,285,150840,1,0,1:0:0:0:
56,312,150993,1,0,1:0:0:0:
168,96,151146,2,0,L|20:132,1,120.000004577637,8|0,1:0|1:0,1:0:0:0:
398,99,151452,6,0,L|553:152,1,120.000004577637,2|0,1:0|1:0,1:0:0:0:
312,236,151759,1,8,1:0:0:0:
512,138,151912,2,0,P|512:178|480:254,1,120.000004577637,0|0,1:0|1:0,1:0:0:0:
176,244,152218,1,0,1:0:0:0:
248,360,152371,1,8,1:0:0:0:
312,236,152524,1,0,1:0:0:0:
156,28,152677,6,0,P|124:68|120:152,1,120.000004577637,0|0,1:0|1:0,1:0:0:0:
312,236,152983,2,0,P|352:196|360:124,1,120.000004577637,8|0,1:0|1:0,1:0:0:0:
188,100,153289,2,0,L|64:52,1,120.000004577637,0|0,1:0|1:0,1:0:0:0:
100,312,153595,2,0,L|236:260,1,120.000004577637,8|0,1:0|1:0,1:0:0:0:
436,220,153901,5,0,1:0:0:0:
444,204,153978,1,0,1:0:0:0:
452,188,154055,2,0,P|460:140|420:72,1,120.000004577637,0|8,1:0|1:0,1:0:0:0:
287,234,154361,1,0,1:0:0:0:
114,303,154514,2,0,B|62:255|62:255|42:195,1,120.000004577637,0|0,1:0|1:0,1:0:0:0:
287,234,154820,1,8,1:0:0:0:
404,112,154973,6,0,B|456:160|456:160|476:220,1,120.000004577637,0|0,1:0|1:0,1:0:0:0:
313,356,155279,1,0,1:0:0:0:
144,208,155432,1,8,1:0:0:0:
116,180,155509,5,0,1:0:0:0:
100,148,155585,5,8,1:0:0:0:
104,108,155662,5,0,1:0:0:0:
124,76,155738,1,8,1:0:0:0:
152,52,155815,5,0,1:0:0:0:
188,40,155891,5,8,1:0:0:0:
224,48,155968,5,0,1:0:0:0:
256,64,156044,6,0,B|308:92|308:92|344:224,1,180.000006866455,8|0,1:0|1:0,1:0:0:0:
344,232,156351,6,0,P|300:196|176:300,1,240.000009155274,10|8,1:0|1:0,1:0:0:0:
264,320,156810,1,0,1:0:0:0:
360,308,156963,1,8,1:0:0:0:
416,232,157116,1,0,1:0:0:0:
256,192,157269,2,0,P|184:192|96:232,1,120.000004577637,8|0,1:0|1:0,1:0:0:0:
312,260,157575,6,0,B|448:280,1,120.000004577637,8|0,1:0|1:0,1:0:0:0:
168,144,157881,2,0,B|37:127,1,120.000004577637,8|0,1:0|1:0,1:0:0:0:
392,164,158187,2,0,B|440:304,1,120.000004577637,8|0,1:0|1:0,1:0:0:0:
87,242,158493,2,0,B|39:102,1,120.000004577637,8|0,1:0|1:0,1:0:0:0:
328,228,158799,6,0,L|468:304,1,120.000004577637,8|0,1:0|1:0,1:0:0:0:
200,348,159106,1,8,1:0:0:0:
208,144,159259,2,0,B|228:80|228:80|288:32,1,120.000004577637,0|8,1:0|1:0,1:0:0:0:
328,228,159565,1,0,1:0:0:0:
99,162,159718,1,8,1:0:0:0:
71,154,159794,1,0,1:0:0:0:
43,146,159871,1,0,1:0:0:0:
328,228,160024,6,0,P|372:192|408:116,1,120.000004577637,8|0,1:0|1:0,1:0:0:0:
148,216,160330,2,0,P|104:252|80:328,1,120.000004577637,8|0,1:0|1:0,1:0:0:0:
232,96,160636,2,0,P|196:52|120:36,1,120.000004577637,8|0,1:0|1:0,1:0:0:0:
148,216,160942,1,8,1:0:0:0:
342,314,161095,1,0,1:0:0:0:
148,216,161248,6,0,B|172:166|172:166|172:44,1,120.000004577637,8|0,1:0|1:0,1:0:0:0:
381,55,161555,1,8,1:0:0:0:
148,216,161708,2,8,P|112:172|156:2,1,240.000009155274,8|8,1:0|1:0,1:0:0:0:
148,7,162167,1,8,1:0:0:0:
384,163,162320,2,0,P|384:229|288:299,1,180.000006866455,8|0,1:0|1:0,1:0:0:0:
268,296,162626,5,8,1:0:0:0:
339,76,162779,1,8,1:0:0:0:
448,296,162932,5,8,1:0:0:0:
172,84,163085,1,8,1:0:0:0:
425,33,163238,5,8,1:0:0:0:
160,172,163391,2,0,P|76:142|52:106,1,120,8|0,1:0|1:0,1:0:0:0:
43,111,163697,6,0,B|-1:127|-1:127|67:211|24:264,1,160,8|8,1:0|1:0,1:0:0:0:
145,304,164157,1,0,1:0:0:0:
254,153,164310,1,8,1:0:0:0:
432,88,164463,2,0,P|468:156|467:217,1,103.999995239258,0|8,1:0|1:0,1:0:0:0:
240,279,164769,1,0,1:0:0:0:
240,279,164845,1,0,1:0:0:0:
240,279,164922,5,8,1:0:0:0:
118,49,165075,1,8,1:0:0:0:
240,279,165228,1,8,1:0:0:0:
408,41,165381,1,8,1:0:0:0:
55,342,165534,1,8,1:0:0:0:
216,176,165687,1,8,1:0:0:0:
236,216,165764,5,8,1:0:0:0:
264,252,165840,1,8,1:0:0:0:
304,272,165917,1,8,1:0:0:0:
348,276,165993,1,8,1:0:0:0:
392,268,166070,1,8,1:0:0:0:
432,248,166146,6,8,P|461:199|408:52,1,207.999990478516,10|8,1:0|1:0,1:0:0:0:
148,32,166606,1,0,0:0:0:0:
307,262,166759,1,0,1:0:0:0:
337,5,166912,1,0,1:0:0:0:
119,204,167065,1,8,1:0:0:0:
440,102,167218,1,0,1:0:0:0:
119,204,167371,6,0,B|161:214|161:214|299:179,1,180.000006866455,0|0,1:0|1:0,1:0:0:0:
317,182,167677,2,0,P|331:269|288:346,1,180.000006866455,8|0,1:0|1:0,1:0:0:0:
265,341,167983,1,0,1:0:0:0:
81,121,168136,1,0,1:0:0:0:
265,341,168289,2,0,P|377:366|490:294,1,240.000009155274,8|2,1:0|1:0,1:0:0:0:
354,117,168748,5,0,1:0:0:0:
224,324,168901,1,8,1:0:0:0:
264,164,169055,1,0,1:0:0:0:
104,356,169208,1,0,1:0:0:0:
148,184,169361,2,0,B|188:44,1,120.000004577637,0|8,1:0|1:0,1:0:0:0:
377,289,169667,1,0,1:0:0:0:
393,277,169743,1,0,1:0:0:0:
405,261,169820,6,0,P|425:209|421:137,1,120.000004577637,0|0,1:0|1:0,1:0:0:0:
312,340,170126,2,0,L|281:186,1,120.000004577637,8|0,1:0|1:0,1:0:0:0:
252,28,170432,1,0,1:0:0:0:
312,340,170585,1,0,1:0:0:0:
252,28,170738,6,0,B|208:12|208:12|147:33|147:33|209:94|120:164,1,240.000009155274,8|2,1:0|1:0,1:0:0:0:
312,340,171197,1,0,1:0:0:0:
312,340,171350,2,0,B|372:341|372:341|444:312,1,120.000004577637,8|0,1:0|1:0,1:0:0:0:
318,133,171657,1,0,1:0:0:0:
131,123,171810,1,0,1:0:0:0:
127,127,171886,1,0,1:0:0:0:
123,131,171963,2,0,B|53:137|47:255,1,120.000004577637,8|0,1:0|1:0,1:0:0:0:
345,346,172269,6,0,B|374:332|374:332|461:232,1,120.000004577637,0|0,1:0|1:0,1:0:0:0:
212,211,172575,2,0,B|172:192|172:192|120:111,1,120.000004577637,8|0,1:0|1:0,1:0:0:0:
441,113,172881,2,0,B|511:130|505:265,1,120.000004577637,8|0,1:0|1:0,1:0:0:0:
220,116,173187,1,8,1:0:0:0:
248,155,173264,1,0,1:0:0:0:
256,203,173340,1,0,1:0:0:0:
248,251,173417,1,0,1:0:0:0:
219,292,173493,6,0,P|119:354|1:342,1,240.000009155274,8|8,1:0|1:0,1:0:0:0:
212,211,173953,1,8,1:0:0:0:
12,76,174106,1,8,1:0:0:0:
248,116,174259,1,8,1:0:0:0:
32,220,174412,1,8,1:0:0:0:
268,188,174565,1,8,1:0:0:0:
56,72,174718,5,8,1:0:0:0:
220,248,174871,1,8,1:0:0:0:
4,144,175024,1,8,1:0:0:0:
220,40,175177,1,8,1:0:0:0:
236,344,175330,1,8,1:0:0:0:
264,0,175483,1,8,1:0:0:0:
236,344,175636,2,0,B|232:389|232:389|136:346|81:366,1,180.000006866455,8|0,1:0|1:0,1:0:0:0:
81,366,175942,6,0,B|120:344|120:344|196:152,1,240.000009155274,10|8,1:0|1:0,1:0:0:0:
240,16,176401,1,0,1:0:0:0:
376,188,176555,1,8,1:0:0:0:
264,376,176708,1,0,1:0:0:0:
176,232,176861,2,0,B|144:136|144:136|172:88|212:76,1,180.000006866455,8|0,1:0|1:0,1:0:0:0:
264,48,177167,6,0,B|312:56|312:56|352:208,1,180.000006866455,8|0,1:0|1:0,1:0:0:0:
364,252,177473,2,0,P|372:304|268:360,1,180.000006866455,8|0,1:0|1:0,1:0:0:0:
208,324,177779,2,0,P|200:272|284:148,1,180.000006866455,8|0,1:0|1:0,1:0:0:0:
328,176,178085,2,0,L|116:132,1,180.000006866455,8|0,1:0|1:0,1:0:0:0:
80,120,178391,6,0,P|108:64|164:24,1,120.000004577637,8|0,1:0|1:0,1:0:0:0:
396,124,178697,1,8,1:0:0:0:
236,312,178850,1,0,1:0:0:0:
92,216,179003,1,8,1:0:0:0:
80,192,179080,1,0,1:0:0:0:
72,168,179157,2,0,B|72:92|120:136|164:83|164:83|193:10,1,180.000006866455,8|0,1:0|1:0,1:0:0:0:
72,168,179463,6,0,P|152:243|320:208,1,240.000009155274,8|8,1:0|1:0,1:0:0:0:
259,5,179922,1,8,1:0:0:0:
192,156,180075,1,8,1:0:0:0:
400,111,180228,1,8,1:0:0:0:
259,5,180381,5,8,1:0:0:0:
291,9,180458,1,0,1:0:0:0:
324,24,180534,2,0,P|376:64|404:132,1,120.000004577637,8|8,1:0|1:0,1:0:0:0:
187,284,180840,6,8,P|123:224|95:168,1,120.000004577637,8|8,1:0|1:0,1:0:0:0:
234,108,181146,1,8,1:0:0:0:
377,217,181299,1,8,1:0:0:0:
187,284,181452,2,8,P|123:276|79:204,1,120.000004577637,8|8,1:0|1:0,1:0:0:0:
234,108,181759,1,8,1:0:0:0:
416,66,181912,1,8,1:0:0:0:
0,166,182065,6,8,L|136:166,1,120.000004577637,8|0,1:0|1:0,1:0:0:0:
307,355,182371,2,0,L|241:206,1,120.000004577637,8|0,1:0|1:0,1:0:0:0:
466,46,182677,2,0,L|381:166,1,120.000004577637,8|0,1:0|1:0,1:0:0:0:
212,304,182983,5,8,1:0:0:0:
208,256,183060,1,0,1:0:0:0:
204,208,183136,1,0,1:0:0:0:
336,80,183290,6,0,L|448:80,1,95.9999970703126,8|8,1:0|1:0,1:0:0:0:
304,184,183595,5,8,1:0:0:0:
304,184,183749,1,0,1:0:0:0:
180,40,183902,6,0,L|144:132,1,95.9999970703126,8|8,1:0|1:0,1:0:0:0:
172,268,184207,5,8,1:0:0:0:
172,268,184361,1,0,1:0:0:0:
304,184,184515,6,0,L|340:92,1,95.9999970703126,8|8,1:0|1:0,1:0:0:0:
180,40,184820,5,8,1:0:0:0:
180,40,184973,1,0,1:0:0:0:
415,120,185126,6,8,L|367:236,1,95.9999970703126,8|8,1:0|1:0,1:0:0:0:
126,313,185432,2,0,P|90:233|110:233,1,143.999995605469,8|0,1:0|1:0,1:0:0:0:
104,224,185738,6,0,L|192:176,1,95.9999970703126,8|0,1:0|1:0,1:0:0:0:
29,80,186045,1,8,1:0:0:0:
332,137,186198,1,8,1:0:0:0:
68,243,186351,1,8,1:0:0:0:
212,31,186504,1,8,1:0:0:0:
239,360,186657,1,8,1:0:0:0:
182,326,188187,6,0,B|225:299|225:299|229:241|249:221,1,120,8|0,1:0|1:0,1:0:0:0:
296,188,188493,2,0,L|440:204,1,120,8|0,1:0|1:0,1:0:0:0:
424,204,188799,1,8,1:0:0:0:
184,228,188952,2,0,L|76:237,1,80,8|0,1:0|1:0,1:0:0:0:
332,76,189258,6,8,B|344:128|344:128|308:228,1,160,8|8,1:0|1:0,1:0:0:0:
188,296,189718,2,0,L|264:368,1,80,8|0,1:0|1:0,1:0:0:0:
120,178,190024,2,0,L|48:254,1,80,8|0,1:0|1:0,1:0:0:0:
312,232,190330,2,0,L|412:264,1,80,8|0,1:0|1:0,1:0:0:0:
120,178,190636,6,8,P|84:122|72:10,1,160,8|8,1:0|1:0,1:0:0:0:
184,266,191095,1,0,1:0:0:0:
184,266,191248,1,8,1:0:0:0:
367,68,191401,1,0,1:0:0:0:
367,68,191554,1,8,1:0:0:0:
120,178,191707,6,0,B|32:150|32:150,2,80,0|8|0,1:0|1:0|1:0,1:0:0:0:
335,262,192167,2,0,L|232:229,1,80,8|0,1:0|1:0,1:0:0:0:
512,177,192473,2,0,L|430:148,1,80,8|0,1:0|1:0,1:0:0:0:
180,85,192779,2,0,L|220:181,1,80,8|0,1:0|1:0,1:0:0:0:
305,359,193085,6,8,L|368:204,1,160,8|8,1:0|1:0,1:0:0:0:
128,176,193544,1,0,1:0:0:0:
191,304,193698,1,8,1:0:0:0:
191,79,193851,1,8,1:0:0:0:
322,300,194004,1,8,1:0:0:0:
344,167,194156,6,0,B|372:226|322:308,1,120,8|0,1:0|1:0,1:0:0:0:
322,300,194463,1,8,1:0:0:0:
237,181,194616,1,8,1:0:0:0:
148,60,194769,1,0,1:0:0:0:
144,232,194922,1,8,1:0:0:0:
40,124,195075,1,0,1:0:0:0:
260,32,195228,2,0,P|300:64|296:148,1,120,8|0,1:0|1:0,1:0:0:0:
300,144,195534,1,8,1:0:0:0:
163,267,195687,5,8,1:0:0:0:
325,233,195840,1,8,1:0:0:0:
100,300,195993,5,8,1:0:0:0:
383,190,196147,1,8,1:0:0:0:
32,332,196299,5,8,1:0:0:0:
440,150,196452,1,8,1:0:0:0:
0,288,196605,6,0,B|32:240|32:240|124:276|204:220,1,200,8|0,1:0|1:0,1:0:0:0:
216,184,197065,6,0,P|277:163|365:188,1,132.00000402832,8|0,1:0|1:0,1:0:0:0:
376,240,197371,2,0,P|380:176|448:96,1,143.999995605469,8|0,1:0|1:0,1:0:0:0:
452,52,197677,2,0,L|332:96,1,103.999995239258,8|0,1:0|1:0,1:0:0:0:
168,120,197983,6,0,P|123:128|119:54,1,120,8|0,1:0|1:0,1:0:0:0:
136,164,198289,2,0,B|100:204|124:292,1,120,8|0,1:0|1:0,1:0:0:0:
124,288,198595,1,8,1:0:0:0:
465,313,198748,2,0,P|425:233|429:169,1,120,8|0,1:0|1:0,1:0:0:0:
424,184,199055,6,0,B|352:184|352:184|356:240|284:288,1,191.999994140625,8|8,1:0|1:0,1:0:0:0:
80,88,199514,2,0,L|156:180,1,102.000001945496,8|0,1:0|1:0,1:0:0:0:
112,48,199820,2,0,L|204:160,1,132.00000402832,8|0,1:0|1:0,1:0:0:0:
144,8,200126,2,0,L|268:156,1,162.000000617981,8|0,1:0|1:0,1:0:0:0:
252,176,200432,6,0,P|327:162|281:127,1,160,8|8,1:0|1:0,1:0:0:0:
110,104,200891,1,8,1:0:0:0:
284,287,201044,1,8,1:0:0:0:
62,244,201198,1,8,1:0:0:0:
271,79,201351,1,8,1:0:0:0:
203,320,201504,6,8,L|236:217,1,80,12|0,1:0|1:0,1:0:0:0:
494,199,201810,2,8,L|412:170,1,80,12|0,1:0|1:0,1:0:0:0:
52,161,202116,2,8,L|155:188,1,80,12|0,1:0|1:0,1:0:0:0:
404,67,202422,2,8,L|356:151,1,80,12|0,1:0|1:0,1:0:0:0:
133,263,202728,6,0,B|126:203|185:199|193:115,1,160,10|8,1:0|1:0,1:0:0:0:
333,243,203187,1,8,1:0:0:0:
133,263,203340,1,8,1:0:0:0:
333,243,203493,2,8,P|353:291|329:343,1,80,8|8,1:0|1:0,1:0:0:0:
129,259,203799,1,8,1:0:0:0:
333,243,203952,2,8,P|305:207|193:167,1,160,8|8,1:0|1:0,1:0:0:0:
14,160,204412,5,8,1:0:0:0:
201,166,204565,1,8,1:0:0:0:
14,160,204718,2,8,P|-6:112|18:60,1,80,8|8,1:0|1:0,1:0:0:0:
262,77,205024,1,8,1:0:0:0:
0,85,205177,5,8,1:0:0:0:
198,44,205330,2,8,L|108:27,1,80,8|8,1:0|1:0,1:0:0:0:
176,144,205636,2,8,L|80:168,1,80,8|8,1:0|1:0,1:0:0:0:
236,232,205943,2,8,L|164:316,1,80,8|8,1:0|1:0,1:0:0:0:
352,288,206249,2,8,L|332:376,1,80,8|8,1:0|1:0,1:0:0:0:
198,44,206555,5,8,1:3:0:0:
252,304,206708,1,8,1:3:0:0:
290,6,206861,5,8,1:3:0:0:
203,340,207014,1,8,1:3:0:0:
