osu file format v14

[General]
AudioFilename: audio.mp3
AudioLeadIn: 0
PreviewTime: 56660
Countdown: 1
SampleSet: None
StackLeniency: 0.7
Mode: 0
LetterboxInBreaks: 0
WidescreenStoryboard: 1

[Editor]
Bookmarks: 11295,31875,57017,66159
DistanceSpacing: 0.4
BeatDivisor: 8
GridSize: 16
TimelineZoom: 2.9

[Metadata]
Title:YAMABIKO
TitleUnicode:YAMABIKO
Artist:NakamuraEmi
ArtistUnicode:NakamuraEmi
Creator:Liiraye
Version:timing
Source:
Tags:『NIPPONNO ONNAWO UTAU BEST』 Amemura
BeatmapID:2244775
BeatmapSetID:564845

[Difficulty]
HPDrainRate:6
CircleSize:4.4
OverallDifficulty:9
ApproachRate:9.2
SliderMultiplier:1.8
SliderTickRate:1

[Events]
//Background and Video events
0,0,"forest.png",0,0
//Break Periods
//Storyboard Layer 0 (Background)
//Storyboard Layer 1 (Fail)
//Storyboard Layer 2 (Pass)
//Storyboard Layer 3 (Foreground)
//Storyboard Layer 4 (Overlay)
//Storyboard Sound Samples

[TimingPoints]
-125,571.428571428571,4,2,0,40,1,0
-100,-66.6666666666667,4,2,0,40,0,0
1496,571.428571428571,4,2,0,40,1,0
1496,-66.6666666666667,4,2,0,40,0,0
2173,571.428571428571,4,2,0,40,1,0
2173,-66.6666666666667,4,2,0,40,0,0
2877,571.428571428571,4,2,0,40,1,0
2877,-66.6666666666667,4,2,0,40,0,0
3303,-66.6666666666667,4,2,0,5,0,0
3374,-66.6666666666667,4,2,0,40,0,0
4019,545.454545454546,4,2,0,40,1,0
4448,594.059405940594,4,2,0,40,1,0
4448,-66.6666666666667,4,2,0,40,0,0
5042,566.037735849057,4,2,0,40,1,0
5589,-66.6666666666667,4,2,0,5,0,0
5660,-66.6666666666667,4,2,0,40,0,0
6438,571.428571428571,4,2,0,40,1,0
6438,-66.6666666666667,4,2,0,40,0,0
6723,571.428571428571,4,2,0,40,1,0
6723,-66.6666666666667,4,2,0,40,0,0
7865,571.428571428571,4,2,0,40,1,0
7865,-66.6666666666667,4,2,0,40,0,0
11307,571.428571428571,4,2,0,40,1,0
11307,-66.6666666666667,4,2,0,40,0,0
12449,566.037735849057,4,2,0,5,1,0
12449,-66.6666666666667,4,2,0,5,0,0
12590,-66.6666666666667,4,2,0,40,0,0
12878,560.747663551402,4,2,0,40,1,0
13292,571.428571428571,4,2,0,40,1,0
13292,-66.6666666666667,4,2,0,40,0,0
13582,571.428571428571,4,2,0,40,1,0
13582,-66.6666666666667,4,2,0,40,0,0
15877,571.428571428571,4,2,0,40,1,0
15877,-66.6666666666667,4,2,0,40,0,0
17019,-66.6666666666667,4,2,0,5,0,0
17162,-66.6666666666667,4,2,0,40,0,0
18145,606.060606060606,4,2,0,40,1,0
18145,-66.6666666666667,4,2,0,40,0,0
18751,566.037735849057,4,2,0,40,1,0
18751,-66.6666666666667,4,2,0,40,0,0
19034,-66.6666666666667,4,2,0,40,0,0
20446,571.428571428571,4,2,0,40,1,0
20446,-66.6666666666667,4,2,0,40,0,0
21660,-66.6666666666667,4,2,0,5,0,0
21732,-66.6666666666667,4,2,0,40,0,0
23946,-66.6666666666667,4,2,0,5,0,0
24017,-66.6666666666667,4,2,0,40,0,0
24721,571.428571428571,4,2,0,40,1,0
24721,-66.6666666666667,4,2,0,40,0,0
24999,600,4,2,0,40,1,0
24999,-66.6666666666667,4,2,0,40,0,0
25599,571.428571428571,4,2,0,40,1,0
25741,-66.6666666666667,4,2,0,40,0,0
27006,571.428571428571,4,2,0,40,1,0
27006,-66.6666666666667,4,2,0,40,0,0
27291,606.060606060606,4,2,0,40,1,0
27291,-66.6666666666667,4,2,0,40,0,0
28167,571.428571428571,4,2,0,40,1,0
28167,-66.6666666666667,4,2,0,40,0,0
29600,571.428571428571,4,2,0,40,1,0
29600,-66.6666666666667,4,2,0,40,0,0
30460,571.428571428571,4,2,0,40,1,0
30460,-66.6666666666667,4,2,0,40,0,0
31590,571.428571428571,4,2,0,40,1,0
31590,-66.6666666666667,4,2,0,40,0,0
31875,571.428571428571,4,2,0,40,1,0
31875,-66.6666666666667,4,2,0,40,0,0
33000,566.037735849057,4,2,0,40,1,0
33000,-66.6666666666667,4,2,0,40,0,0
34138,588.235294117647,4,2,0,40,1,0
34138,-66.6666666666667,4,2,0,40,0,0
34726,571.428571428571,4,2,0,40,1,0
34726,-66.6666666666667,4,2,0,40,0,0
35297,-66.6666666666667,4,2,0,5,0,0
35440,-66.6666666666667,4,2,0,40,0,0
37041,545.454545454546,4,2,0,40,1,0
37041,-66.6666666666667,4,2,0,40,0,0
37586,576.923076923077,4,2,0,40,1,0
37586,-66.6666666666667,4,2,0,40,0,0
38722,576.923076923077,4,2,0,40,1,0
38722,-66.6666666666667,4,2,0,40,0,0
40439,545.454545454546,4,2,0,40,1,0
40715,571.428571428571,4,2,0,40,1,0
40715,-66.6666666666667,4,2,0,40,0,0
41000,571.428571428571,4,2,0,40,1,0
41000,-66.6666666666667,4,2,0,40,0,0
42285,-66.6666666666667,4,2,0,5,0,0
42357,-66.6666666666667,4,2,0,40,0,0
43285,594.059405940594,4,2,0,40,1,0
43285,-66.6666666666667,4,2,0,40,0,0
44024,566.037735849057,4,2,0,40,1,0
44024,-66.6666666666667,4,2,0,40,0,0
45085,-66.6666666666667,4,2,0,5,0,0
45156,-66.6666666666667,4,2,0,40,0,0
45595,571.428571428571,4,2,0,40,1,0
45595,-66.6666666666667,4,2,0,40,0,0
49860,571.428571428571,4,2,0,40,1,0
49860,-66.6666666666667,4,2,0,40,0,0
51320,571.428571428571,4,2,0,40,1,0
51320,-66.6666666666667,4,2,0,40,0,0
51462,-66.6666666666667,4,2,0,5,0,0
51534,-66.6666666666667,4,2,0,40,0,0
52145,571.428571428571,4,2,0,40,1,0
52145,-66.6666666666667,4,2,0,40,0,0
52430,631.578947368421,4,2,0,40,1,0
53039,560.747663551402,4,2,0,40,1,0
53039,-66.6666666666667,4,2,0,40,0,0
54739,560.747663551402,4,2,0,40,1,0
56430,-66.6666666666667,4,2,0,5,0,0
56732,571.428571428571,4,2,0,40,1,0
56732,-66.6666666666667,4,2,0,40,0,0
56946,-66.6666666666667,4,2,0,5,0,0
57017,571.428571428571,4,2,0,40,1,0
57017,-57.1428571428571,4,2,0,40,0,0
58089,-57.1428571428571,4,2,0,5,0,0
58160,-57.1428571428571,4,2,0,40,0,0
61517,-57.1428571428571,4,2,0,5,0,0
61589,-57.1428571428571,4,2,0,40,0,0
62159,594.059405940594,4,2,0,40,1,0
63314,555.555555555556,4,2,0,40,1,0
63869,571.428571428571,4,2,0,40,1,0
64089,-57.1428571428571,4,2,0,5,0,0
64160,-57.1428571428571,4,2,0,40,0,0
68232,-57.1428571428571,4,2,0,5,0,0
68303,-57.1428571428571,4,2,0,40,0,0
70726,594.059405940594,4,2,0,40,1,0
70946,-57.1428571428571,4,2,0,5,0,0
71017,-57.1428571428571,4,2,0,40,0,0
71320,560.747663551402,4,2,0,40,1,0
73002,576.923076923077,4,2,0,40,1,0
75232,-57.1428571428571,4,2,0,5,0,0
75303,-66.6666666666667,4,2,0,40,0,0
75309,566.037735849057,4,2,0,40,1,0
77573,566.037735849057,4,2,0,40,1,0
79089,-66.6666666666667,4,2,0,5,0,0
79160,-66.6666666666667,4,2,0,40,0,0
79271,600,4,2,0,40,1,0
79803,-66.6666666666667,4,2,0,5,0,0
79871,566.037735849057,4,2,0,40,1,0
79874,-66.6666666666667,4,2,0,40,0,0
81160,-66.6666666666667,4,2,0,5,0,0
81232,-66.6666666666667,4,2,0,40,0,0
81305,566.037735849057,4,2,0,40,1,0
81374,-66.6666666666667,4,2,0,5,0,0
81446,-66.6666666666667,4,2,0,40,0,0
81584,566.037735849057,4,2,0,40,1,0
81660,-66.6666666666667,4,2,0,40,0,0
82089,-66.6666666666667,4,2,0,5,0,0
82160,-66.6666666666667,4,2,0,40,0,0
83089,-66.6666666666667,4,2,0,5,0,0
83160,-66.6666666666667,4,2,0,40,0,0
83446,-66.6666666666667,4,2,0,5,0,0
83517,-66.6666666666667,4,2,0,40,0,0
83660,-66.6666666666667,4,2,0,5,0,0
83732,-66.6666666666667,4,2,0,40,0,0
84414,576.923076923077,4,2,0,40,1,0
84946,-66.6666666666667,4,2,0,5,0,0
85017,-66.6666666666667,4,2,0,40,0,0
86708,576.923076923077,4,2,0,40,1,0
87660,-66.6666666666667,4,2,0,5,0,0
87732,-66.6666666666667,4,2,0,40,0,0
88660,-66.6666666666667,4,2,0,5,0,0
88732,-66.6666666666667,4,2,0,40,0,0
89002,571.428571428571,4,2,0,40,1,0
89002,-66.6666666666667,4,2,0,40,0,0
89787,-66.6666666666667,4,2,0,5,0,0
89859,-66.6666666666667,4,2,0,40,0,0
91859,571.428571428571,4,2,0,40,1,0
92413,571.428571428571,4,2,0,40,1,0
92430,-66.6666666666667,4,2,0,50,0,0
93555,588.235294117647,4,2,0,50,1,0
93573,-33.3333333333333,4,2,0,60,0,1
94143,571.428571428571,4,2,0,60,1,1
94144,-50,4,2,0,60,0,1
94716,-33.3333333333333,4,2,0,60,0,1
97502,-33.3333333333333,4,2,0,5,0,1
97573,-33.3333333333333,4,2,0,60,0,1
98142,571.428571428571,4,2,0,60,1,1
98359,-33.3333333333333,4,2,0,5,0,1
98430,-33.3333333333333,4,2,0,60,0,1
98644,-33.3333333333333,4,2,0,5,0,1
98716,-50,4,2,0,60,0,1
103216,-33.3333333333333,4,2,0,5,0,1
103287,-50,4,2,0,60,0,1
103430,-33.3333333333333,4,2,0,60,0,1
106501,-33.3333333333333,4,2,0,5,0,1
106573,-33.3333333333333,4,2,0,60,0,1
107787,-33.3333333333333,4,2,0,5,0,1
107859,-33.3333333333333,4,2,0,60,0,1
111856,569.728571428571,4,2,0,60,1,1
116413,574.428571428572,4,2,0,60,1,1
121008,571.428571428571,4,2,0,40,1,0
121008,-66.6666666666667,4,2,0,40,0,0
123359,-66.6666666666667,4,2,0,5,0,0
123430,-66.6666666666667,4,2,0,40,0,0
139144,-57.1428571428571,4,2,0,40,0,0
141716,-57.1428571428571,4,2,0,5,0,0
141859,-57.1428571428571,4,2,0,40,0,0
150507,-57.1428571428571,4,2,0,5,0,0
150579,-57.1428571428571,4,2,0,40,0,0
152697,571.428571428571,4,2,0,40,1,0
152697,-57.1428571428571,4,2,0,40,0,0
152797,-57.1428571428571,4,2,0,40,0,0
154142,571.428571428571,4,2,0,40,1,0
155015,560.747663551402,4,2,0,40,1,0
157535,600,4,2,0,40,1,0
158134,571.428571428571,4,2,0,40,1,0
158134,-66.6666666666667,4,2,0,40,0,0
175848,572.84427184466,4,2,0,40,1,0
175858,-33.3333333333333,4,2,0,40,0,1
180433,566.037735849057,4,2,0,40,1,1
182697,576.923076923077,4,2,0,40,1,1
185004,571.428571428571,4,2,0,40,1,1
194125,571.428571428571,4,2,0,40,1,1
212430,-66.6666666666667,4,2,0,40,0,0

[HitObjects]
395,162,1496,5,4,3:0:0:0:
390,147,1591,2,0,P|344:177|283:169,1,90.0000034332277,0|8,1:0|3:0,0:0:0:0:
244,103,1876,2,0,P|283:123|308:160,1,90.0000034332277,0|4,3:0|3:0,3:0:0:0:
390,147,2173,6,0,P|349:67|207:21,1,202.500007724762,4|2,0:0|0:0,0:0:0:0:
147,148,2744,1,2,3:0:0:0:
147,148,2877,2,0,P|178:159|212:158,1,67.5000025749208,2|4,0:0|3:0,0:0:0:0:
316,253,3162,1,8,0:0:0:0:
323,263,3448,1,8,0:0:0:0:
236,353,3591,2,0,L|303:345,1,67.5000025749208,4|8,3:0|0:0,0:0:0:0:
452,225,3876,2,0,P|417:207|382:205,1,67.5000025749208,4|2,3:0|0:0,0:0:0:0:
331,274,4155,1,4,3:0:0:0:
379,351,4291,1,2,3:0:0:0:
470,337,4448,6,0,P|503:273|475:142,1,202.500007724762,8|2,3:0|0:0,0:0:0:0:
312,84,5042,2,0,L|319:152,1,45,2|2,3:0|0:0,0:0:0:0:
421,228,5325,1,2,0:0:0:0:
471,136,5466,1,8,0:0:0:0:
194,232,5749,1,8,0:0:0:0:
249,320,5891,2,0,P|281:329|317:332,1,67.5000025749208,6|8,3:0|0:0,0:0:0:0:
343,147,6174,2,0,P|314:164|290:189,1,67.5000025749208,4|2,3:0|0:0,0:0:0:0:
321,325,6438,1,4,3:0:0:0:
289,197,6580,1,2,3:0:0:0:
445,283,6723,6,0,P|385:205|287:197,1,202.500007724762,8|2,3:0|0:0,0:0:0:0:
416,125,7295,2,0,P|459:117|503:116,1,67.5000025749208,4|2,3:0|0:0,0:0:0:0:
475,214,7580,1,2,0:0:0:0:
323,32,7723,1,8,0:0:0:0:
317,40,8009,1,8,0:0:0:0:
409,134,8152,2,0,P|412:168|409:202,1,67.5000025749208,4|8,3:0|0:0,0:0:0:0:
271,308,8437,2,0,P|268:274|271:241,1,67.5000025749208,4|2,3:0|0:0,0:0:0:0:
399,208,8723,1,4,3:0:0:0:
281,233,8866,1,2,3:0:0:0:
376,330,9009,6,0,P|419:247|377:151,1,202.500007724762,8|2,3:0|0:0,0:0:0:0:
209,99,9580,2,0,P|241:112|274:112,1,67.5000025749208,4|2,3:0|0:0,0:0:0:0:
261,20,9866,1,4,3:0:0:0:
310,240,10009,1,8,0:0:0:0:
304,248,10295,1,8,0:0:0:0:
375,99,10438,2,0,L|382:22,1,67.5000025749208,4|4,3:0|3:0,0:0:0:0:
481,92,10722,1,8,0:0:0:0:
214,175,10866,1,8,0:0:0:0:
207,166,11152,1,2,3:0:0:0:
442,215,11307,6,0,P|444:313|339:371,1,202.500007724762,8|2,3:0|0:0,0:0:0:0:
241,257,11878,2,0,P|287:282|302:309,1,67.5000025749208,4|2,3:0|0:0,0:0:0:0:
214,348,12164,1,4,3:0:0:0:
133,199,12307,2,0,P|126:139|131:107,1,67.5000025749208,8|0,0:0|0:0,0:0:0:0:
254,121,12590,1,2,3:0:0:0:
135,127,12732,1,2,3:0:0:0:
266,119,12878,2,0,P|273:59|270:38,1,45,8|0,0:0|0:0,0:0:0:0:
208,193,13158,1,2,0:0:0:0:
339,212,13292,2,0,P|375:211|406:204,1,67.5000025749208,4|2,3:0|3:0,0:0:0:0:
305,352,13582,6,0,P|214:290|202:199,1,202.500007724762,8|2,3:0|0:0,0:0:0:0:
350,57,14153,2,0,P|340:88|317:115,1,67.5000025749208,4|2,3:0|0:0,0:0:0:0:
256,35,14439,1,4,3:0:0:0:
328,217,14582,1,8,0:0:0:0:
335,207,14867,1,2,3:0:0:0:
340,196,15153,1,8,0:0:0:0:
231,126,15296,2,0,P|180:119|133:128,1,67.5000025749208,4|2,3:0|0:0,0:0:0:0:
135,338,15581,2,0,P|162:318|183:293,1,67.5000025749208,4|2,3:0|3:0,0:0:0:0:
31,66,15877,6,0,P|20:173|92:251,1,202.500007724762,8|2,3:0|0:0,0:0:0:0:
242,199,16448,2,0,P|211:184|177:183,1,67.5000025749208,4|2,3:0|0:0,0:0:0:0:
188,284,16734,1,4,3:0:0:0:
281,111,16877,2,0,L|278:29,1,67.5000025749208,8|0,0:0|0:0,0:0:0:0:
410,109,17162,1,2,3:0:0:0:
285,38,17305,1,2,3:0:0:0:
416,116,17448,2,0,L|418:183,1,67.5000025749208,8|0,0:0|0:0,0:0:0:0:
258,325,17734,1,2,0:0:0:0:
360,364,17877,2,0,P|392:366|426:361,1,67.5000025749208,4|2,3:0|3:0,0:0:0:0:
322,179,18145,6,0,P|217:156|135:226,1,202.500007724762,8|2,3:0|0:0,0:0:0:0:
167,77,18751,2,0,P|170:28|169:7,1,67.5000025749208,2|0,3:0|0:0,0:0:0:0:
243,267,19034,2,0,P|243:300|245:334,1,67.5000025749208,2|0,3:0|0:0,0:0:0:0:
341,295,19317,1,8,0:0:0:0:
140,236,19458,1,8,0:0:0:0:
328,111,19600,2,0,P|326:147|321:182,1,67.5000025749208,4|2,3:0|0:0,0:0:0:0:
244,257,19883,1,8,0:0:0:0:
156,80,20024,1,8,0:0:0:0:
386,170,20166,2,0,P|352:168|319:175,1,67.5000025749208,4|2,3:0|3:0,0:0:0:0:
117,251,20446,6,0,P|145:259|183:259,1,67.5000025749208,10|2,3:0|0:0,0:0:0:0:
317,187,20732,1,2,0:0:0:0:
275,343,20874,2,0,P|212:325|177:266,1,135.000005149842,4|2,3:0|3:0,0:0:0:0:
312,198,21303,1,2,0:0:0:0:
157,375,21446,2,0,P|155:308|186:254,1,101.250003862381,8|0,0:0|0:0,0:0:0:0:
221,200,21732,2,0,P|225:166|226:132,1,67.5000025749208,2|2,3:0|0:0,0:0:0:0:
96,74,22017,1,2,0:0:0:0:
322,42,22160,2,0,L|408:30,1,67.5000025749208,8|0,0:0|0:0,0:0:0:0:
368,256,22446,1,4,3:0:0:0:
221,200,22589,1,2,0:0:0:0:
377,246,22732,6,0,P|388:202|387:158,2,67.5000025749208,10|2|2,3:0|0:0|0:0,0:0:0:0:
229,319,23160,2,0,P|209:280|215:177,1,135.000005149842,4|2,3:0|3:0,0:0:0:0:
360,240,23589,1,2,0:0:0:0:
120,239,23732,2,0,P|125:172|155:121,1,101.250003862381,8|0,0:0|0:0,0:0:0:0:
210,190,24017,2,0,P|240:206|273:209,1,67.5000025749208,2|2,3:0|0:0,0:0:0:0:
276,44,24303,1,2,0:0:0:0:
276,44,24446,2,0,P|245:30|212:27,1,67.5000025749208,8|0,0:0|0:0,0:0:0:0:
217,180,24721,1,4,3:0:0:0:
205,40,24863,1,2,0:0:0:0:
12,170,24999,6,0,P|46:168|78:156,1,67.5000025749208,10|0,3:0|0:0,0:0:0:0:
90,52,25299,1,0,0:0:0:0:
141,256,25449,2,0,P|141:290|136:326,1,67.5000025749208,4|0,3:0|0:0,0:0:0:0:
294,170,25741,2,0,P|293:204|298:240,1,67.5000025749208,4|0,3:0|0:0,0:0:0:0:
163,139,26025,1,2,3:0:0:0:
356,20,26168,1,2,3:0:0:0:
423,137,26311,1,2,3:0:0:0:
256,81,26454,2,0,P|240:50|237:17,1,67.5000025749208,2|2,0:0|0:0,0:0:0:0:
353,202,26740,2,0,P|330:225|298:236,1,67.5000025749208,8|0,0:0|0:0,0:0:0:0:
343,24,27006,1,8,0:0:0:0:
296,227,27148,1,2,3:0:0:0:
177,136,27291,6,0,P|126:121|42:138,1,135.000005149842,10|2,3:0|0:0,0:0:0:0:
270,326,27745,2,0,P|197:338|139:317,1,135.000005149842,2|2,0:0|0:0,0:0:0:0:
353,176,28167,2,0,L|420:186,1,67.5000025749208,2|0,0:0|0:0,0:0:0:0:
257,162,28452,1,8,0:0:0:0:
336,273,28595,1,8,0:0:0:0:
419,70,28738,2,0,L|351:63,1,67.5000025749208,4|2,3:0|0:0,0:0:0:0:
135,211,29024,1,8,0:0:0:0:
264,170,29167,1,8,0:0:0:0:
136,14,29309,2,0,L|109:75,1,67.5000025749208,4|2,3:0|3:0,0:0:0:0:
239,295,29600,5,10,3:0:0:0:
239,295,29742,2,0,P|270:235|263:169,1,135.000005149842,2|2,3:0|0:0,0:0:0:0:
360,186,30171,2,0,P|393:196|433:199,1,67.5000025749208,4|2,3:0|0:0,0:0:0:0:
459,97,30457,1,8,0:0:0:0:
459,97,30602,1,2,3:0:0:0:
398,317,30744,1,2,0:0:0:0:
360,186,30887,1,8,0:0:0:0:
490,228,31031,2,0,P|491:269|496:312,1,67.5000025749208,2|8,3:0|0:0,0:0:0:0:
363,119,31317,2,0,P|362:163|357:213,1,67.5000025749208,8|0,0:0|0:0,0:0:0:0:
156,222,31590,2,0,P|178:197|208:181,1,67.5000025749208,4|2,3:0|3:0,0:0:0:0:
367,334,31875,6,0,P|303:317|250:275,1,135.000005149842,10|2,3:0|0:0,0:0:0:0:
363,256,32303,2,0,P|307:222|285:148,1,135.000005149842,4|2,3:0|3:0,0:0:0:0:
382,157,32732,1,2,0:0:0:0:
96,112,32874,1,2,3:0:0:0:
96,112,33000,2,0,L|162:103,1,67.5000025749208,8|2,0:0|0:0,0:0:0:0:
248,308,33283,1,4,3:0:0:0:
324,187,33424,1,2,0:0:0:0:
324,187,33566,2,0,L|257:195,1,67.5000025749208,8|2,0:0|0:0,0:0:0:0:
173,330,33849,2,0,L|239:321,1,67.5000025749208,8|2,0:0|0:0,0:0:0:0:
163,104,34138,6,0,P|105:135|90:199,1,135.000005149842,10|2,3:0|0:0,0:0:0:0:
178,191,34579,1,2,0:0:0:0:
63,51,34726,1,4,3:0:0:0:
307,40,34868,2,0,P|331:66|349:93,1,67.5000025749208,8|0,3:0|0:0,0:0:0:0:
418,21,35154,2,0,P|379:51|348:92,1,101.250003862381,8|0,0:0|0:0,0:0:0:0:
330,190,35440,2,0,P|337:155|353:123,1,67.5000025749208,2|2,3:0|0:0,0:0:0:0:
434,230,35726,1,8,0:0:0:0:
207,127,35868,2,0,P|172:131|115:133,1,67.5000025749208,4|0,0:0|0:0,0:0:0:0:
176,345,36154,2,0,P|181:315|180:278,1,67.5000025749208,4|2,3:0|3:0,0:0:0:0:
33,88,36440,6,0,P|43:149|35:217,2,101.250003862381,4|2|2,1:2|0:0|0:0,0:0:0:0:
214,126,37041,2,0,P|214:83|225:26,2,90.0000034332277,2|2|2,0:0|0:0|3:0,0:0:0:0:
299,264,37586,2,0,L|295:344,1,67.5000025749208,4|2,0:0|0:0,0:0:0:0:
141,215,37874,1,8,3:0:0:0:
214,126,38018,1,8,0:0:0:0:
421,185,38162,2,0,L|425:265,1,67.5000025749208,4|2,0:0|0:0,0:0:0:0:
227,280,38451,1,4,3:0:0:0:
196,115,38595,1,8,0:0:0:0:
409,38,38722,5,8,0:3:0:0:
409,38,38866,2,0,P|389:77|289:100,1,135.000005149842,2|0,3:0|0:0,0:0:0:0:
180,240,39298,1,8,3:0:0:0:
179,240,39443,2,0,P|167:174|210:99,1,135.000005149842,2|0,3:0|0:0,0:0:0:0:
282,194,39875,1,2,0:0:0:0:
326,52,40020,1,2,0:0:0:0:
366,300,40308,1,2,0:0:0:0:
439,136,40575,5,2,0:0:0:0:
375,291,40715,1,4,3:0:0:0:
300,124,40857,1,2,3:0:0:0:
450,268,41000,5,8,3:0:0:0:
450,268,41142,2,0,P|424:230|332:226,1,135.000005149842,4|0,3:0|0:0,0:0:0:0:
300,124,41571,2,0,P|289:93|262:61,2,67.5000025749208,2|2|2,0:0|3:0|0:0,0:0:0:0:
154,115,42000,1,2,3:0:0:0:
154,115,42142,2,0,P|204:123|243:120,1,67.5000025749208,2|0,3:0|0:0,0:0:0:0:
265,59,42357,2,0,P|316:30|380:29,1,101.250003862381,2|2,3:0|3:0,0:0:0:0:
345,248,42714,2,0,P|349:224|345:169,1,67.5000025749208,2|0,0:0|3:0,0:0:0:0:
219,287,43000,1,2,0:3:0:0:
310,374,43142,1,2,0:0:0:0:
431,356,43285,6,0,P|406:315|412:268,1,67.5000025749208,8|2,3:0|0:0,0:0:0:0:
431,356,43582,2,0,P|463:319|474:221,1,135.000005149842,2|8,3:0|0:0,0:0:0:0:
176,171,44024,1,0,0:0:0:0:
130,250,44165,2,0,P|167:257|197:255,1,67.5000025749208,2|8,3:0|0:0,0:0:0:0:
275,54,44448,1,2,3:0:0:0:
199,92,44590,1,2,0:0:0:0:
176,171,44731,1,2,0:0:0:0:
196,254,44873,2,0,P|244:240|295:248,1,101.250003862381,8|0,0:0|0:0,0:0:0:0:
367,310,45156,2,0,P|374:257|372:230,1,67.5000025749208,2|4,0:0|3:0,0:0:0:0:
305,154,45439,1,4,3:0:0:0:
439,92,45595,6,0,P|499:85|520:86,2,67.5000025749208,8|0|8,3:0|0:0|3:0,0:0:0:0:
223,181,46023,2,0,L|144:175,1,67.5000025749208,0|8,0:0|0:0,0:0:0:0:
366,192,46309,1,8,3:0:0:0:
300,98,46452,2,0,P|290:53|288:22,1,67.5000025749208
484,125,46738,1,8,0:0:0:0:
244,202,46881,1,2,3:0:0:0:
406,268,47024,2,0,P|433:246|447:216,1,67.5000025749208
124,62,47309,1,8,0:0:0:0:
183,298,47452,1,2,3:0:0:0:
280,151,47595,2,0,P|283:117|280:83,1,67.5000025749208,4|2,3:0|0:0,0:0:0:0:
184,312,47880,6,0,P|165:231|176:173,1,135.000005149842,8|2,3:0|0:0,0:0:0:0:
273,160,48309,1,4,3:0:0:0:
41,169,48452,1,2,0:0:0:0:
41,169,48595,2,0,P|114:188|191:174,1,135.000005149842,2|0,0:0|0:0,0:0:0:0:
273,160,49024,1,2,0:0:0:0:
281,240,49166,1,2,3:0:0:0:
184,106,49309,1,2,0:0:0:0:
172,180,49452,2,0,B|164:248,1,67.5000025749208,8|4,0:0|3:0,0:0:0:0:
108,334,49738,1,2,0:0:0:0:
162,261,49860,1,2,0:0:0:0:
204,344,50002,1,2,3:0:0:0:
474,284,50145,5,8,3:0:0:0:
399,305,50288,1,2,0:0:0:0:
399,305,50431,2,0,L|382:168,1,135.000005149842,4|8,0:0|0:0,0:0:0:0:
462,193,50860,1,8,0:0:0:0:
378,288,51002,2,0,L|390:377,1,67.5000025749208,2|2,3:0|0:0,0:0:0:0:
159,296,51320,6,0,P|165:263|181:233,1,67.5000025749208,2|0,3:0|0:0,0:0:0:0:
288,231,51534,2,0,P|239:252|179:235,1,101.250003862381,2|8,3:0|0:0,0:0:0:0:
234,168,51891,1,8,3:0:0:0:
264,340,52034,1,8,3:0:0:0:
37,256,52145,5,2,3:0:0:0:
234,168,52287,1,4,3:0:0:0:
116,68,52430,1,4,0:0:0:0:
234,168,52587,1,2,0:0:0:0:
112,240,52745,1,2,0:0:0:0:
193,243,52903,1,2,3:0:0:0:
112,240,53039,2,0,L|114:167,1,67.5000025749208,4|4,3:0|3:0,0:0:0:0:
431,80,53319,5,2,3:0:0:0:
234,168,53459,1,4,3:0:0:0:
352,268,53599,1,4,0:0:0:0:
234,168,53739,1,2,0:0:0:0:
356,96,53880,1,2,0:0:0:0:
275,93,54020,1,2,3:0:0:0:
356,96,54160,2,0,L|353:170,1,67.5000025749208,4|4,3:0|3:0,0:0:0:0:
249,307,54440,5,4,0:0:0:0:
408,244,54581,1,2,0:0:0:0:
143,171,54739,1,2,3:0:0:0:
256,192,54859,12,0,56430,0:0:0:0:
444,300,56732,6,0,P|436:252|439:181,1,101.250003862381,4|0,1:2|0:0,0:0:0:0:
181,194,57017,6,0,P|211:208|267:206,1,78.7500007510185,8|2,3:0|0:0,0:0:0:0:
383,40,57302,2,0,L|375:129,1,78.7500007510185,6|2,3:0|0:0,0:0:0:0:
359,242,57588,1,8,0:0:0:0:
238,112,57731,1,2,0:0:0:0:
351,251,57874,2,0,P|309:252|232:290,1,118.125001126528,4|0,3:0|0:0,0:0:0:0:
105,203,58159,2,0,P|158:203|196:182,1,78.7500007510185,2|2,3:0|0:0,0:0:0:0:
240,282,58445,1,4,3:0:0:0:
109,316,58588,1,8,0:0:0:0:
238,356,58731,1,0,1:0:0:0:
238,356,58874,2,0,B|252:320|252:320|239:281,1,78.7500007510185,2|0,3:0|0:0,0:0:0:0:
105,203,59159,1,2,3:0:0:0:
105,203,59302,6,0,B|91:164|91:164|103:128,2,78.7500007510185,8|2|2,3:0|3:0|0:0,0:0:0:0:
261,106,59731,1,2,0:0:0:0:
329,175,59874,1,8,0:0:0:0:
359,182,60017,1,2,3:0:0:0:
402,266,60159,1,4,3:0:0:0:
432,256,60302,1,4,3:0:0:0:
329,175,60445,2,0,P|288:186|252:223,1,78.7500007510185,2|8,0:0|0:0,0:0:0:0:
269,103,60731,1,2,3:0:0:0:
262,229,60874,1,2,0:0:0:0:
254,29,61017,2,0,P|268:62|264:103,1,78.7500007510185,0|0,1:0|0:0,0:0:0:0:
255,30,61302,2,0,P|226:81|231:139,1,118.125001126528,4|0,0:0|0:0,0:0:0:0:
475,129,61588,6,0,P|413:83|337:93,1,157.500001502037,8|2,3:0|3:0,0:0:0:0:
88,218,62064,1,2,0:0:0:0:
126,292,62159,2,0,P|165:293|204:290,1,78.7500007510185,8|2,0:0|0:0,0:0:0:0:
322,118,62445,1,2,3:0:0:0:
316,196,62604,1,2,3:0:0:0:
323,207,62753,1,2,0:0:0:0:
330,216,62901,2,0,L|336:138,1,78.7500007510185,8|4,0:0|3:0,0:0:0:0:
462,143,63159,1,2,0:0:0:0:
218,34,63314,2,0,P|159:28|122:34,1,78.7500007510185,0|0,1:0|0:0,0:0:0:0:
266,236,63588,2,0,P|305:238|344:233,1,78.7500007510185,4|0,3:0|0:0,0:0:0:0:
152,330,63874,6,0,P|121:280|123:222,1,118.125001126528,8|0,3:0|0:0,0:0:0:0:
273,139,64159,1,2,3:0:0:0:
273,139,64302,2,0,L|267:224,1,78.7500007510185,4|8,3:0|0:0,0:0:0:0:
103,241,64588,2,0,P|142:242|181:235,1,78.7500007510185,2|0,0:0|0:0,0:0:0:0:
348,144,64874,1,2,0:0:0:0:
184,70,65016,2,0,P|165:104|162:143,1,78.7500007510185,2|8,3:0|0:0,0:0:0:0:
405,334,65302,2,0,P|368:290|315:274,1,78.7500007510185,4|4,3:0|3:0,0:0:0:0:
122,323,65588,2,0,P|162:331|199:324,1,78.7500007510185,0|0,1:0|0:0,0:0:0:0:
294,109,65874,1,4,3:0:0:0:
340,270,66017,1,2,3:0:0:0:
93,181,66159,6,0,P|83:136|84:81,2,78.7500007510185,8|2|2,3:0|0:0|3:0,0:0:0:0:
289,124,66588,1,2,0:0:0:0:
195,304,66731,2,0,P|148:335|98:334,1,78.7500007510185,8|2,0:0|0:0,0:0:0:0:
207,73,67017,2,0,L|194:181,1,78.7500007510185,2|0,0:0|0:0,0:0:0:0:
348,261,67302,2,0,L|369:370,1,78.7500007510185,2|8,3:0|0:0,0:0:0:0:
194,168,67588,1,2,0:0:0:0:
283,71,67731,2,0,P|348:62|383:66,1,78.7500007510185,2|0,3:0|1:0,0:0:0:0:
477,247,68016,2,0,P|419:239|331:247,1,118.125001126528,4|0,3:0|0:0,0:0:0:0:
276,279,68302,1,2,3:0:0:0:
406,144,68445,5,2,3:0:0:0:
395,73,68588,1,2,3:0:0:0:
325,86,68731,1,2,0:0:0:0:
336,155,68874,1,2,0:0:0:0:
185,236,69016,1,8,0:0:0:0:
176,167,69159,1,2,3:0:0:0:
325,86,69302,1,2,0:0:0:0:
336,155,69445,1,2,0:0:0:0:
177,64,69588,1,2,3:0:0:0:
243,38,69731,2,0,P|256:101|259:139,2,78.7500007510185,8|2|2,0:0|0:0|3:0,0:0:0:0:
409,318,70159,1,0,1:0:0:0:
341,339,70302,2,0,P|331:300|326:261,2,78.7500007510185,4|4|2,3:0|3:0|3:0,0:0:0:0:
399,160,70731,6,0,P|345:140|277:156,1,118.125001126528,8|0,3:0|0:0,0:0:0:0:
240,231,71016,2,0,P|276:196|287:159,1,78.7500007510185,4|0,3:0|0:0,0:0:0:0:
174,42,71302,2,0,L|178:139,1,78.7500007510185,8|2,0:0|0:0,0:0:0:0:
16,144,71588,2,0,P|50:123|89:119,1,78.7500007510185,2|0,3:0|0:0,0:0:0:0:
127,309,71874,1,2,3:0:0:0:
75,244,72016,1,8,0:0:0:0:
75,244,72159,1,2,0:0:0:0:
222,181,72302,1,2,3:0:0:0:
84,93,72445,1,0,1:0:0:0:
84,93,72588,2,0,P|62:192|85:262,1,157.500001502037,4|2,0:0|0:0,0:0:0:0:
190,204,73016,6,0,L|235:173,2,39.3750003755093,8|2|2,3:0|0:0|3:0,0:0:0:0:
317,241,73302,2,0,L|430:220,1,78.7500007510185,4|2,3:0|0:0,0:0:0:0:
332,133,73588,1,8,0:0:0:0:
231,345,73731,2,0,P|187:281|189:203,1,157.500001502037,2|2,3:0|0:0,0:0:0:0:
371,66,74159,2,0,P|340:124|319:141,1,78.7500007510185,4|8,3:0|0:0,0:0:0:0:
99,106,74444,1,4,3:0:0:0:
208,31,74588,1,4,3:0:0:0:
377,248,74732,1,0,1:0:0:0:
268,173,74877,1,4,3:0:0:0:
120,341,75016,2,0,L|269:331,1,118.125001126528,2|0,3:0|0:0,0:0:0:0:
313,326,75302,5,8,3:0:0:0:
377,248,75445,1,2,0:0:0:0:
416,341,75588,1,2,0:0:0:0:
406,68,75874,1,2,1:2:0:0:
445,161,76016,1,2,0:0:0:0:
342,146,76159,2,0,P|292:144|263:152,1,67.5000025749208,2|0,3:0|0:0,0:0:0:0:
171,198,76445,2,0,P|172:164|176:123,2,67.5000025749208,4|2|2,3:0|0:0|3:0,0:0:0:0:
287,79,76874,1,4,3:0:0:0:
287,79,77016,2,0,P|285:34|276:-7,1,67.5000025749208,0|2,1:0|3:0,0:0:0:0:
214,297,77302,1,2,0:0:0:0:
251,193,77445,1,2,0:0:0:0:
251,193,77588,6,0,P|208:188|175:193,2,67.5000025749208,8|2|2,3:0|0:0|3:0,0:0:0:0:
331,345,78016,1,4,3:0:0:0:
454,216,78159,1,0,1:0:0:0:
454,216,78302,2,0,P|460:165|459:127,1,67.5000025749208,2|2,3:0|0:0,0:0:0:0:
288,30,78588,1,2,0:0:0:0:
373,162,78731,1,4,0:0:0:0:
373,162,78874,2,0,P|340:153|265:163,1,101.250003862381,8|0,0:0|0:0,0:0:0:0:
258,243,79159,2,0,P|270:211|274:178,1,67.5000025749208,4|2,0:0|0:0,0:0:0:0:
195,69,79445,1,2,3:0:0:0:
288,30,79588,2,0,L|405:38,1,101.250003862381,4|0,3:0|0:0,0:0:0:0:
476,85,79874,5,8,3:0:0:0:
346,255,80016,1,2,3:0:0:0:
432,303,80159,2,0,P|427:337|416:369,1,67.5000025749208,2|4,0:0|3:0,0:0:0:0:
404,159,80445,1,0,1:0:0:0:
404,159,80588,2,0,P|409:193|420:225,1,67.5000025749208,2|2,3:0|0:0,0:0:0:0:
210,147,80874,1,2,3:0:0:0:
197,303,81016,2,0,P|214:262|214:222,1,67.5000025749208,8|0,0:0|0:0,0:0:0:0:
78,143,81231,2,0,P|100:195|127:219,1,67.5000025749208,8|0,0:0|0:0,0:0:0:0:
359,121,81445,1,8,0:0:0:0:
359,121,81588,2,0,P|352:161|348:199,1,67.5000025749208,4|2,1:2|3:0,0:0:0:0:
345,319,81874,2,0,P|396:326|463:311,1,101.250003862381,4|0,3:0|0:0,0:0:0:0:
462,238,82159,6,0,P|443:279|442:315,1,67.5000025749208,8|8,3:0|0:0,0:0:0:0:
366,175,82445,2,0,P|360:142|345:113,1,67.5000025749208,4|0,3:0|0:0,0:0:0:0:
281,169,82731,1,0,1:0:0:0:
478,163,82874,2,0,P|430:177|380:177,1,101.250003862381,2|0,3:0|0:0,0:0:0:0:
318,61,83159,1,8,0:0:0:0:
318,61,83302,2,0,L|385:57,1,67.5000025749208,2|0,3:0|0:0,0:0:0:0:
231,133,83516,2,0,L|163:136,1,67.5000025749208,2|0,3:0|0:0,0:0:0:0:
346,332,83731,1,2,3:0:0:0:
346,332,83874,2,0,P|365:304|370:271,1,67.5000025749208,4|2,1:2|0:0,0:0:0:0:
197,260,84159,2,0,L|282:267,1,67.5000025749208,4|2,3:0|3:0,0:0:0:0:
391,172,84445,5,8,3:0:0:0:
282,266,84588,1,8,0:0:0:0:
231,133,84731,2,0,P|230:63|241:29,1,101.250003862381,4|0,3:0|0:0,0:0:0:0:
321,41,85016,2,0,P|281:49|245:37,1,67.5000025749208,0|0,1:0|0:0,0:0:0:0:
48,120,85302,2,0,P|87:111|123:123,1,67.5000025749208,2|2,3:0|0:0,0:0:0:0:
178,224,85588,1,4,3:0:0:0:
56,268,85731,1,2,3:0:0:0:
191,213,85874,1,4,3:0:0:0:
69,257,86016,1,2,3:0:0:0:
212,364,86159,1,0,1:0:0:0:
212,364,86302,2,0,P|226:333|228:299,1,67.5000025749208,2|2,0:0|0:0,0:0:0:0:
121,76,86588,1,2,3:0:0:0:
268,136,86731,6,0,P|301:137|334:129,2,67.5000025749208,10|2|2,3:0|0:0|3:0,0:0:0:0:
261,118,87302,1,4,1:2:0:0:
370,301,87445,2,0,P|439:301|475:268,1,101.250003862381,4|0,3:0|0:0,0:0:0:0:
463,193,87731,1,8,3:0:0:0:
374,284,87874,1,2,3:0:0:0:
343,114,88016,2,0,L|337:35,2,67.5000025749208,4|8|2,3:0|0:0|3:0,0:0:0:0:
221,199,88445,2,0,L|232:330,1,101.250003862381,0|0,1:0|0:0,0:0:0:0:
311,356,88731,1,4,3:0:0:0:
131,259,88874,1,2,3:0:0:0:
336,135,89002,6,0,L|403:128,1,67.5000025749208,8|2,3:0|0:0,0:0:0:0:
477,302,89287,2,0,P|419:285|393:261,1,67.5000025749208,4|2,3:0|0:0,0:0:0:0:
168,346,89573,2,0,P|221:288|270:279,1,101.250003862381,0|0,1:0|0:0,0:0:0:0:
338,153,89859,2,0,P|330:192|317:217,1,67.5000025749208,2|2,0:0|3:0,0:0:0:0:
196,171,90144,1,8,3:0:0:0:
329,356,90287,2,0,P|332:279|287:221,1,135.000005149842,4|8,3:0|0:0,0:0:0:0:
176,328,90716,1,4,1:2:0:0:
419,221,90859,2,0,L|486:215,1,67.5000025749208,2|2,0:0|3:0,0:0:0:0:
442,107,91144,1,2,0:0:0:0:
398,332,91287,5,4,0:0:0:0:
303,262,91430,2,0,L|263:257,2,33.7500012874604,4|4|2,3:0|3:0|3:0,0:0:0:0:
490,202,91716,1,2,0:0:0:0:
320,177,91859,2,0,P|309:208|303:242,1,67.5000025749208,2|0,3:0|0:0,0:0:0:0:
134,80,92144,2,0,P|144:111|150:145,1,67.5000025749208,8|2,3:0|0:0,0:0:0:0:
137,310,92430,2,0,P|181:307|210:297,1,67.5000025749208,0|2,1:0|0:0,0:0:0:0:
404,203,92716,1,0,1:0:0:0:
150,145,92859,1,2,3:0:0:0:
331,137,93002,1,10,3:0:0:0:
255,62,93144,1,0,1:0:0:0:
251,95,93287,1,4,3:0:0:0:
247,128,93430,1,4,3:0:0:0:
296,307,93573,6,0,B|328:306|328:306|349:324|349:324|382:285|382:285|415:301|415:301|447:298,1,180.000006866455,4|0,1:0|0:0,0:0:0:0:
501,214,93859,2,0,B|399:213|399:213|430:229,1,135.000005149842,4|0,3:0|0:0,0:0:0:0:
213,116,94144,6,0,B|331:107,1,90,4|2,0:0|0:0,0:0:0:0:
303,109,94359,1,2,0:0:0:0:
303,109,94430,1,2,0:0:0:0:
265,323,94573,1,4,3:0:0:0:
265,323,94716,6,0,P|267:262|357:228,2,135.000005149842,0|2|4,1:0|0:0|3:0,0:0:0:0:
154,210,95144,1,2,3:0:0:0:
359,137,95287,2,0,P|393:168|477:188,1,135.000005149842,0|0,1:0|0:0,0:0:0:0:
320,47,95573,5,2,0:0:0:0:
226,27,95716,1,2,0:0:0:0:
154,210,95859,2,0,B|147:257|147:257|155:298|155:298|149:343,2,135.000005149842,6|2|4,0:0|0:0|3:0,0:0:0:0:
82,160,96287,1,2,0:0:0:0:
274,171,96430,2,0,B|268:216|268:216|276:257|276:257|269:304,1,135.000005149842,0|0,1:0|0:0,0:0:0:0:
73,346,96716,5,2,0:0:0:0:
274,171,96859,1,4,0:0:0:0:
160,63,97002,1,2,0:0:0:0:
86,214,97144,1,4,0:0:0:0:
160,63,97287,2,0,P|214:113|201:246,1,202.500007724762,4|0,3:0|0:0,0:0:0:0:
86,214,97573,2,0,P|151:202|209:234,1,135.000005149842,0|2,1:0|0:0,0:0:0:0:
263,335,97859,1,4,3:0:0:0:
348,315,98002,1,2,3:0:0:0:
432,291,98144,6,0,B|439:222|380:172|380:172|423:199|466:182,1,202.500007724762,4|0,1:0|0:0,0:0:0:0:
443,187,98430,2,0,P|343:188|243:224,1,202.500007724762,4|0,3:0|0:0,0:0:0:0:
116,102,98716,6,0,P|158:116|203:118,1,90,4|2,1:2|0:0,0:0:0:0:
203,118,98930,1,2,0:0:0:0:
203,118,99002,1,2,0:0:0:0:
339,93,99144,1,2,3:0:0:0:
119,223,99287,2,0,P|91:284|91:351,2,135.000005149842,4|2|4,3:0|0:0|3:0,0:0:0:0:
343,279,99716,1,2,3:0:0:0:
343,279,99859,2,0,P|223:298|183:273,1,135.000005149842,0|2,1:0|0:0,0:0:0:0:
246,197,100144,1,2,0:0:0:0:
215,294,100287,1,2,0:0:0:0:
170,93,100430,6,0,P|208:173|272:203,1,135.000005149842,6|2,0:0|0:0,0:0:0:0:
444,97,100716,2,0,P|361:73|299:89,1,135.000005149842,4|2,3:0|0:0,0:0:0:0:
372,355,101001,2,0,B|376:308|376:308|365:263|365:263|368:221,1,135.000005149842,0|2,1:0|0:0,0:0:0:0:
368,221,101216,1,2,0:0:0:0:
368,221,101287,1,2,0:0:0:0:
496,264,101430,1,8,3:0:0:0:
213,317,101573,2,0,B|117:336|117:336|163:352,1,135.000005149842,4|2,3:0|0:0,0:0:0:0:
78,209,101859,2,0,P|70:131|126:62,1,135.000005149842,4|2,3:0|0:0,0:0:0:0:
376,20,102144,1,0,1:0:0:0:
282,252,102287,1,2,3:3:0:0:
376,20,102430,2,0,B|357:116|357:116|341:70,1,135.000005149842,12|0,3:0|0:0,0:0:0:0:
210,82,102716,6,0,P|277:74|344:80,1,135.000005149842,4|2,0:0|0:0,0:0:0:0:
456,252,103001,2,0,P|392:226|247:215,1,202.500007724762,4|0,3:0|0:0,0:0:0:0:
138,256,103287,6,0,P|144:212|141:167,1,90,4|2,1:2|0:0,0:0:0:0:
141,167,103501,1,2,0:0:0:0:
141,167,103573,1,2,0:0:0:0:
278,81,103716,2,0,P|260:170|266:255,1,135.000005149842,8|0,3:0|1:0,0:0:0:0:
403,293,104001,1,2,3:0:0:0:
403,293,104144,2,0,P|381:213|292:171,1,135.000005149842,4|2,3:0|3:2,0:0:0:0:
160,284,104430,2,0,B|208:299|208:299|308:281,1,135.000005149842,0|2,1:0|0:0,0:0:0:0:
360,115,104716,1,2,0:0:0:0:
291,283,104859,1,2,0:0:0:0:
216,172,105001,5,6,0:0:0:0:
216,172,105144,2,0,P|63:167|32:177,1,135.000005149842,2|4,0:0|3:0,0:0:0:0:
135,316,105430,1,2,0:0:0:0:
82,162,105573,2,0,P|77:67|100:-1,2,135.000005149842,0|2|2,1:0|0:0|0:0,0:0:0:0:
300,228,106001,2,0,P|362:202|427:218,1,135.000005149842,2|2,3:0|0:0,0:0:0:0:
303,63,106287,2,0,P|185:102|79:48,1,202.500007724762,2|0,3:0|0:0,0:0:0:0:
114,78,106573,1,4,3:0:0:0:
223,223,106716,2,0,P|235:317|223:388,1,135.000005149842,0|2,1:0|0:0,0:0:0:0:
352,368,107001,1,4,3:0:0:0:
116,343,107144,1,2,3:0:0:0:
352,368,107287,6,0,P|355:300|346:233,1,135.000005149842,6|0,0:0|0:0,0:0:0:0:
479,63,107573,2,0,P|452:222|480:310,1,202.500007724762,4|0,3:0|0:0,0:0:0:0:
346,233,107859,2,0,B|239:219|239:219|292:189,1,135.000005149842,0|2,1:0|0:0,0:0:0:0:
262,205,108073,1,2,0:0:0:0:
262,205,108144,1,2,0:0:0:0:
230,335,108287,1,2,3:0:0:0:
102,238,108430,2,0,P|91:151|101:82,2,135.000005149842,4|2|4,3:0|3:0|3:0,0:0:0:0:
396,80,108859,1,4,3:0:0:0:
229,108,109001,2,0,P|115:108|47:87,1,135.000005149842,0|0,1:0|0:0,0:0:0:0:
241,232,109287,2,0,B|292:232|326:200|326:200|328:228|362:257,1,135.000005149842,4|2,3:0|0:0,0:0:0:0:
399,312,109501,1,2,0:0:0:0:
399,312,109573,6,0,P|340:313|227:340,2,135.000005149842,4|2|0,1:2|0:0|0:0,0:0:0:0:
421,201,110001,1,2,0:0:0:0:
265,135,110144,2,0,P|198:148|154:147,1,90.0000034332277,2|0,3:0|0:0,0:0:0:0:
271,142,110335,2,0,P|276:230|311:322,1,180.000006866455,2|2,3:0|3:0,0:0:0:0:
322,304,110621,1,2,0:0:0:0:
335,293,110716,2,0,P|219:269|141:285,1,135.000005149842,8|8,1:2|0:0,0:0:0:0:
325,170,111001,1,4,3:0:0:0:
203,270,111144,1,2,3:0:0:0:
325,170,111287,2,0,P|226:109|109:101,1,135.000005149842,4|0,0:0|0:0,0:0:0:0:
452,20,111573,2,0,P|418:115|418:216,1,202.500007724762,4|0,0:0|0:0,0:0:0:0:
454,288,111803,6,0,P|483:271|499:241,5,67.5000025749208,0|2|4|2|4|2,1:0|3:0|3:0|3:0|3:0|3:0,0:0:0:0:
261,213,112374,1,4,3:0:0:0:
261,213,112446,2,0,P|240:204|150:215,3,90.0000034332277,0|4|4|8,1:0|3:0|3:0|3:0,0:0:0:0:
361,155,112874,1,8,3:0:0:0:
361,155,113017,2,0,P|372:116|355:0,1,135.000005149842,4|8,3:0|3:0,0:0:0:0:
462,221,113303,1,4,3:0:0:0:
462,221,113446,1,4,3:0:0:0:
316,309,113589,2,0,P|207:309|157:298,2,135.000005149842,0|8|4,1:0|3:0|3:0,0:0:0:0:
350,229,114017,1,4,3:0:0:0:
393,106,114160,6,0,P|356:163|349:230,1,135.000005149842,4|0,0:0|0:0,0:0:0:0:
147,127,114589,1,4,3:0:0:0:
216,81,114732,1,8,3:0:0:0:
216,81,114803,2,0,P|254:120|263:249,1,180.000006866455,2|8,3:0|3:0,0:0:0:0:
497,230,115160,1,2,0:0:0:0:
497,230,115303,2,0,P|448:313|447:378,1,135.000005149842,4|8,3:0|3:0,0:0:0:0:
334,88,115589,2,0,P|365:177|352:245,1,135.000005149842,4|4,3:0|3:0,0:0:0:0:
475,95,115874,1,0,1:0:0:0:
486,161,116017,1,8,3:0:0:0:
497,230,116160,1,8,3:0:0:0:
258,123,116303,1,4,3:0:0:0:
227,196,116446,5,4,0:0:0:0:
227,196,116589,2,0,L|407:223,1,135.000005149842,2|2,3:0|3:0,0:0:0:0:
144,248,116874,1,4,3:0:0:0:
116,326,117017,1,4,0:0:0:0:
116,326,117160,2,0,L|281:315,1,135.000005149842,2|2,3:0|3:0,0:0:0:0:
119,73,117446,2,0,P|74:151|82:257,1,135.000005149842,8|4,3:0|3:0,0:0:0:0:
220,191,117732,2,0,P|272:335|311:353,1,135.000005149842,8|4,3:0|3:0,0:0:0:0:
358,225,118017,1,4,3:0:0:0:
224,193,118160,2,0,P|116:183|2:217,1,135.000005149842,0|2,1:0|0:0,0:0:0:0:
90,186,118374,1,2,0:0:0:0:
90,186,118446,1,4,3:0:0:0:
241,73,118589,1,2,3:0:0:0:
241,73,118732,6,0,P|349:83|463:49,1,135.000005149842,4|2,0:0|3:0,0:0:0:0:
381,86,119160,1,4,3:0:0:0:
381,86,119303,2,0,P|373:194|382:274,2,135.000005149842,0|2|2,1:0|0:0|0:0,0:0:0:0:
228,297,119732,1,2,1:2:0:0:
228,297,119803,1,0,1:0:0:0:
228,297,119874,2,0,P|132:271|68:273,1,135.000005149842,0|2,1:0|3:0,0:0:0:0:
300,135,120160,1,4,3:0:0:0:
128,33,120303,1,4,3:0:0:0:
128,33,120446,2,0,P|122:100|132:167,1,135.000005149842,8|4,3:0|3:0,0:0:0:0:
140,174,121008,1,2,0:0:0:0:
140,174,121150,6,0,P|200:167|234:179,1,67.5000025749208,4|2,0:0|3:0,0:0:0:0:
313,87,121436,1,2,3:0:0:0:
206,168,121579,1,2,0:0:0:0:
313,87,121722,2,0,P|317:125|313:173,1,67.5000025749208,8|2,0:0|0:0,0:0:0:0:
199,79,122008,2,0,P|188:35|190:7,1,67.5000025749208,2|0,0:0|0:0,0:0:0:0:
295,238,122293,1,4,3:0:0:0:
212,260,122436,2,0,P|197:325|199:353,1,67.5000025749208,2|0,3:0|0:0,0:0:0:0:
419,221,122722,1,2,0:0:0:0:
383,151,122865,2,0,P|349:151|315:153,2,67.5000025749208,0|2|4,1:0|0:0|3:0,0:0:0:0:
209,64,123293,6,0,P|175:125|170:147,1,67.5000025749208,8|0,3:0|0:0,0:0:0:0:
83,154,123508,2,0,P|127:146|195:144,1,101.250003862381,4|0,0:0|0:0,0:0:0:0:
301,98,123865,1,0,1:0:0:0:
301,98,124008,1,2,0:0:0:0:
416,163,124150,1,2,3:0:0:0:
416,163,124293,1,2,0:0:0:0:
392,70,124436,1,2,0:0:0:0:
327,188,124579,1,2,3:0:0:0:
301,98,124722,1,4,3:0:0:0:
416,163,124865,1,2,3:0:0:0:
299,288,125008,1,4,3:0:0:0:
299,288,125150,2,0,P|330:277|441:283,1,135.000005149842,2|2,0:0|0:0,0:0:0:0:
481,147,125579,6,0,P|449:158|415:162,1,67.5000025749208,4|2,3:0|0:0,0:0:0:0:
290,221,125865,2,0,L|302:315,1,67.5000025749208,2|2,3:0|0:0,0:0:0:0:
415,162,126151,1,0,1:0:0:0:
290,221,126293,2,0,P|213:212|172:170,1,135.000005149842,2|2,3:0|0:0,0:0:0:0:
112,224,126722,5,2,0:0:0:0:
176,176,126865,1,2,0:0:0:0:
240,224,127008,1,2,3:0:0:0:
304,176,127151,1,8,0:0:0:0:
128,97,127292,2,0,P|94:91|61:89,1,67.5000025749208,0|2,1:0|0:0,0:0:0:0:
156,316,127578,2,0,P|154:282|167:251,1,67.5000025749208,8|2,3:0|0:0,0:0:0:0:
358,277,127864,5,4,3:0:0:0:
392,186,128007,1,2,0:0:0:0:
392,186,128150,2,0,P|441:198|474:198,1,67.5000025749208,2|2,3:0|0:0,0:0:0:0:
294,74,128436,2,0,P|256:85|221:113,1,67.5000025749208,0|2,1:0|3:0,0:0:0:0:
330,270,128722,1,4,3:0:0:0:
304,176,128865,1,2,0:0:0:0:
112,224,129008,5,2,0:0:0:0:
176,160,129151,1,2,0:0:0:0:
240,240,129293,1,2,3:0:0:0:
304,176,129437,1,8,0:0:0:0:
274,351,129580,1,0,1:0:0:0:
372,242,129722,2,0,B|306:261|306:219|239:240,1,135.000005149842,4|4,0:0|0:0,0:0:0:0:
274,351,130151,5,4,3:0:0:0:
340,131,130294,1,2,0:0:0:0:
425,184,130437,1,2,3:0:0:0:
240,256,130580,1,2,0:0:0:0:
240,256,130722,2,0,P|232:205|235:163,2,67.5000025749208,0|2|4,1:0|3:0|3:0,0:0:0:0:
361,255,131151,1,2,0:0:0:0:
112,224,131294,5,2,0:0:0:0:
176,144,131437,1,2,0:0:0:0:
240,256,131580,1,2,3:0:0:0:
304,176,131722,1,8,0:0:0:0:
169,335,131865,1,0,1:0:0:0:
169,335,132008,2,0,P|106:315|79:315,2,67.5000025749208,2|2|2,3:0|0:0|0:0,0:0:0:0:
54,122,132437,6,0,P|79:175|84:212,1,67.5000025749208,4|2,3:0|0:0,0:0:0:0:
285,189,132722,2,0,P|251:189|219:200,1,67.5000025749208,2|2,3:0|0:0,0:0:0:0:
277,306,133008,1,0,1:0:0:0:
343,95,133151,1,2,3:0:0:0:
343,95,133294,2,0,P|307:82|255:77,1,67.5000025749208,4|2,3:0|0:0,0:0:0:0:
112,224,133580,5,2,0:0:0:0:
176,128,133722,1,2,0:0:0:0:
240,272,133865,1,2,3:0:0:0:
304,176,134008,1,8,0:0:0:0:
112,224,134151,1,0,0:0:0:0:
62,93,134294,2,0,B|101:116|152:95|152:95|158:125|194:136,1,135.000005149842,4|4,0:0|0:0,0:0:0:0:
314,159,134722,5,4,3:0:0:0:
331,68,134865,1,2,0:0:0:0:
331,68,135008,2,0,P|353:74|378:91,2,45.0000017166138,2|2|2,3:0|0:0|3:0,0:0:0:0:
229,170,135293,2,0,P|210:198|200:230,1,67.5000025749208,0|2,1:0|0:0,0:0:0:0:
70,128,135579,2,0,P|55:97|48:64,1,67.5000025749208,4|2,3:0|0:0,0:0:0:0:
112,224,135865,5,2,0:0:0:0:
176,112,136008,1,2,0:0:0:0:
240,288,136151,1,2,3:0:0:0:
304,176,136293,1,8,0:0:0:0:
481,233,136436,1,0,1:0:0:0:
346,286,136579,1,2,0:0:0:0:
420,358,136722,6,0,P|427:324|425:291,2,67.5000025749208,2|2|4,3:0|0:0|3:0,0:0:0:0:
240,304,137150,1,2,0:0:0:0:
263,221,137292,2,0,P|304:209|342:205,1,67.5000025749208,2|2,3:0|0:0,0:0:0:0:
176,96,137578,2,0,P|154:56|120:22,1,67.5000025749208,0|2,1:0|3:0,0:0:0:0:
279,116,137864,1,4,3:0:0:0:
112,224,138008,1,8,3:0:0:0:
107,236,138079,1,8,3:0:0:0:
102,248,138150,5,2,1:2:0:0:
176,96,138294,1,2,0:0:0:0:
240,304,138437,1,8,0:0:0:0:
304,176,138580,1,2,3:0:0:0:
112,224,138722,1,4,3:0:0:0:
176,96,138865,2,0,P|211:111|249:117,1,67.5000025749208,4|0,0:0|0:0,0:0:0:0:
111,224,139151,6,0,P|86:248|43:266,1,78.7500007510185,4|0,0:0|0:0,0:0:0:0:
325,276,139437,1,2,0:0:0:0:
325,276,139508,1,2,0:0:0:0:
325,276,139580,2,0,B|314:265|310:261|307:258|303:254|300:251|296:247|293:244|289:240|286:237|282:233|279:230|284:193|279:173,2,52.500000500679,2|2|2,3:0|0:0|3:0,0:0:0:0:
325,276,139865,2,0,P|364:264|414:259,1,78.7500007510185,4|0,3:0|1:0,0:0:0:0:
188,240,140150,2,0,P|153:237|97:216,1,78.7500007510185,2|4,0:0|3:0,0:0:0:0:
304,176,140436,5,2,0:0:0:0:
240,304,140579,1,2,0:0:0:0:
176,96,140721,1,8,0:0:0:0:
112,224,140864,1,2,3:0:0:0:
304,176,141007,1,0,0:0:0:0:
84,134,141150,2,0,P|29:132|-17:118,2,78.7500007510185,4|2|2,3:0|0:0|3:0,0:0:0:0:
304,175,141579,6,0,P|297:229|271:274,1,105.000001001358,4|0,3:0|0:0,0:0:0:0:
425,357,141864,2,0,P|403:324|394:286,1,78.7500007510185,2|2,3:0|0:0,0:0:0:0:
494,291,142150,1,0,1:0:0:0:
313,364,142293,1,2,3:0:0:0:
295,91,142436,1,2,0:0:0:0:
223,140,142579,1,4,3:0:0:0:
304,176,142721,5,2,0:0:0:0:
240,288,142864,1,2,0:0:0:0:
176,112,143007,1,8,0:0:0:0:
112,224,143150,1,2,3:0:0:0:
176,112,143293,1,0,1:0:0:0:
341,333,143436,1,2,0:0:0:0:
237,366,143579,2,0,P|234:326|240:288,1,78.7500007510185,4|2,3:0|0:0,0:0:0:0:
416,159,143864,6,0,P|418:202|414:247,2,78.7500007510185,4|2|2,3:0|0:0|3:0,0:0:0:0:
182,107,144293,1,2,0:0:0:0:
228,186,144436,2,0,P|266:189|303:175,1,78.7500007510185,0|2,1:0|3:0,0:0:0:0:
182,107,144721,1,4,3:0:0:0:
356,283,144864,1,2,0:0:0:0:
304,176,145007,5,2,0:0:0:0:
240,272,145150,1,2,0:0:0:0:
176,128,145293,1,2,3:0:0:0:
112,224,145436,1,8,0:0:0:0:
240,272,145579,1,0,1:0:0:0:
82,356,145721,1,2,3:0:0:0:
358,209,145864,1,4,3:0:0:0:
354,337,146007,1,2,0:0:0:0:
443,289,146150,5,4,3:0:0:0:
443,289,146221,1,2,0:0:0:0:
443,289,146293,2,0,P|454:240|481:185,2,78.7500007510185,4|2|2,3:0|0:0|3:0,0:0:0:0:
367,138,146721,2,0,P|360:99|346:62,1,78.7500007510185,0|2,1:0|3:0,0:0:0:0:
465,122,147007,1,4,3:0:0:0:
176,144,147150,1,2,0:0:0:0:
304,176,147293,5,2,0:0:0:0:
240,256,147436,1,2,0:0:0:0:
176,144,147579,1,2,3:0:0:0:
112,224,147722,1,8,0:0:0:0:
304,176,147865,1,0,1:0:0:0:
135,35,148008,1,2,0:0:0:0:
71,112,148150,1,4,3:0:0:0:
135,35,148293,1,2,0:0:0:0:
188,227,148436,6,0,P|130:218|90:235,2,78.7500007510185,4|2|2,3:0|0:0|3:0,0:0:0:0:
222,310,148865,1,2,0:0:0:0:
244,68,149008,1,0,1:0:0:0:
322,93,149150,2,0,P|313:157|292:194,1,78.7500007510185,2|4,3:0|3:0,0:0:0:0:
176,160,149436,1,0,0:0:0:0:
304,176,149579,5,2,0:0:0:0:
240,240,149722,1,2,0:0:0:0:
176,160,149865,1,2,3:0:0:0:
112,224,150008,1,8,0:0:0:0:
240,240,150150,1,0,1:0:0:0:
37,129,150293,2,0,P|19:204|26:262,1,118.125001126528,2|0,0:0|0:0,0:0:0:0:
112,224,150579,6,0,P|73:220|35:230,1,78.7500007510185,2|0,3:0|1:0,0:0:0:0:
250,158,150865,2,0,P|266:131|267:92,2,39.3750003755093,2|2|2,3:0|3:0|0:0,0:0:0:0:
295,274,151150,1,2,0:0:0:0:
256,346,151293,2,0,P|225:321|211:285,2,78.7500007510185,2|2|4,3:0|0:0|3:0,0:0:0:0:
339,344,151722,1,2,0:0:0:0:
304,176,151865,5,2,0:0:0:0:
240,224,152008,1,2,0:0:0:0:
176,176,152150,1,2,3:0:0:0:
112,224,152293,1,8,0:0:0:0:
217,86,152436,2,0,P|275:80|296:67,1,78.7500007510185,0|2,1:0|0:0,0:0:0:0:
399,130,152697,5,2,3:0:0:0:
396,141,152768,1,2,0:0:0:0:
394,151,152839,2,0,P|397:178|405:193,2,39.3750003755093,2|2|0,3:0|3:0|1:0,0:0:0:0:
278,290,153339,1,4,3:0:0:0:
278,290,153411,2,0,P|261:332|264:361,2,39.3750003755093,2|2|2,0:0|3:0|3:0,0:0:0:0:
115,152,153697,1,2,0:0:0:0:
135,72,153839,1,8,3:0:0:0:
214,34,153982,1,4,3:0:0:0:
304,176,154142,5,2,0:0:0:0:
240,208,154284,1,2,0:0:0:0:
176,192,154427,1,2,3:0:0:0:
112,224,154570,1,10,0:0:0:0:
304,176,154713,1,4,1:2:0:0:
304,176,155015,5,2,0:0:0:0:
240,192,155155,1,2,0:0:0:0:
176,208,155293,1,4,0:0:0:0:
112,224,155435,1,8,0:0:0:0:
128,160,155575,1,4,3:0:0:0:
167,287,155715,1,4,3:0:0:0:
167,287,155787,1,8,3:0:0:0:
167,287,155858,1,0,1:0:0:0:
192,144,155996,1,8,0:0:0:0:
112,224,156136,5,4,3:0:0:0:
176,208,156279,1,2,0:0:0:0:
240,192,156416,1,8,0:0:0:0:
304,176,156557,1,2,3:0:0:0:
288,240,156697,1,4,3:0:0:0:
256,128,156837,1,8,3:0:0:0:
352,224,156977,1,2,3:0:0:0:
224,256,157117,1,2,3:0:0:0:
320,112,157257,1,8,3:0:0:0:
336,288,157398,1,4,3:0:0:0:
170,199,157538,5,4,0:0:0:0:
170,199,157835,1,2,0:0:0:0:
169,198,158135,2,0,P|232:219|295:198,1,135.000005149842,4|0,1:2|0:0,0:0:0:0:
352,112,158563,1,2,3:0:0:0:
415,240,158705,2,0,P|425:272|428:305,1,67.5000025749208,2|2,0:0|3:0,0:0:0:0:
199,348,158991,2,0,P|229:333|262:326,1,67.5000025749208,4|0,3:0|0:0,0:0:0:0:
169,198,159277,2,0,P|129:165|108:77,1,135.000005149842,4|0,0:0|0:0,0:0:0:0:
