osu file format v14

[General]
AudioFilename: audio.mp3
AudioLeadIn: 0
PreviewTime: 306314
Countdown: 0
SampleSet: Normal
StackLeniency: 0.9
Mode: 0
LetterboxInBreaks: 0
WidescreenStoryboard: 0

[Editor]
DistanceSpacing: 1.1
BeatDivisor: 4
GridSize: 8
TimelineZoom: 1

[Metadata]
Title:Core of Spark
TitleUnicode:Core of Spark
Artist:Nakamura Meiko
ArtistUnicode:仲村芽衣子
Creator:Splaszor
Version:Hibana
Source:
Tags:brightness future unlock- 塵屑れお gomikuzu reo leo 折倉俊則 orikura toshinori
BeatmapID:1082795
BeatmapSetID:509135

[Difficulty]
HPDrainRate:6
CircleSize:4.2
OverallDifficulty:9.3
ApproachRate:9.7
SliderMultiplier:1.9
SliderTickRate:1

[Events]
//Background and Video events
0,0,"BG.jpg",0,0
//Break Periods
2,40899,44204
2,45822,47588
2,139206,146358
2,203206,206358
2,242745,251896
2,299360,300511
//Storyboard Layer 0 (Background)
//Storyboard Layer 1 (Fail)
//Storyboard Layer 2 (Pass)
//Storyboard Layer 3 (Foreground)
//Storyboard Sound Samples

[TimingPoints]
14853,307.692307692308,4,1,0,100,1,0
16083,-133.333333333333,4,1,0,35,0,0
17314,-166.666666666667,4,1,0,35,0,0
18468,-166.666666666667,4,1,0,5,0,0
18545,-166.666666666667,4,1,0,35,0,0
29314,-166.666666666667,4,1,0,5,0,0
29622,-114.942528735632,4,1,1,50,0,0
37545,-114.942528735632,4,1,1,5,0,0
37622,-114.942528735632,4,1,1,50,0,0
37853,-114.942528735632,4,1,1,5,0,0
37929,-114.942528735632,4,1,1,50,0,0
48083,-66.6666666666667,4,1,0,50,0,0
48545,-76.9230769230769,4,1,0,55,0,0
49006,-100,4,1,0,50,0,0
49468,-125,4,1,0,45,0,0
49929,-166.666666666667,4,2,0,35,0,0
54545,-166.666666666667,4,1,0,35,0,0
55006,-166.666666666667,4,2,0,35,0,0
57006,-166.666666666667,4,2,0,40,0,0
57929,-114.942528735632,4,1,1,50,0,0
59006,-114.942528735632,4,1,1,50,0,0
60237,-66.6666666666667,4,1,1,50,0,0
61468,-114.942528735632,4,1,1,50,0,0
63545,-114.942528735632,4,1,1,5,0,0
63622,-114.942528735632,4,1,1,50,0,0
63853,-114.942528735632,4,1,1,5,0,0
63929,-114.942528735632,4,1,1,50,0,0
66776,-114.942528735632,4,1,1,5,0,0
66853,-114.942528735632,4,1,1,50,0,0
67083,-114.942528735632,4,1,1,5,0,0
67160,-114.942528735632,4,1,1,50,0,0
67391,-114.942528735632,4,1,1,5,0,0
67468,-114.942528735632,4,1,1,50,0,0
72391,-166.666666666667,4,1,1,50,0,0
73314,-114.942528735632,4,1,1,50,0,0
76622,-114.942528735632,4,1,1,5,0,0
76699,-114.942528735632,4,1,1,50,0,0
77237,-114.942528735632,4,1,1,5,0,0
77314,-114.942528735632,4,1,1,50,0,0
77545,-114.942528735632,4,1,1,5,0,0
77622,-114.942528735632,4,1,1,50,0,0
85237,-114.942528735632,4,1,1,5,0,0
85314,-114.942528735632,4,1,1,50,0,0
86468,-114.942528735632,4,1,1,5,0,0
86545,-114.942528735632,4,1,1,50,0,0
92237,-114.942528735632,4,1,1,5,0,0
92391,-166.666666666667,4,2,0,35,0,0
95929,-114.942528735632,4,1,1,50,0,1
99622,-114.942528735632,4,1,1,50,0,1
104929,-114.942528735632,4,1,1,5,0,1
105006,-114.942528735632,4,1,1,50,0,1
105237,-114.942528735632,4,1,1,5,0,1
105314,-114.942528735632,4,1,1,50,0,1
105545,-114.942528735632,4,1,1,5,0,1
105622,-114.942528735632,4,1,1,50,0,1
126160,-114.942528735632,4,1,1,5,0,1
126237,-114.942528735632,4,1,1,50,0,1
126468,-114.942528735632,4,1,1,5,0,1
126545,-114.942528735632,4,1,1,50,0,1
126776,-114.942528735632,4,1,1,5,0,1
126853,-114.942528735632,4,1,1,50,0,1
139006,-114.942528735632,4,1,1,50,0,0
154468,-114.942528735632,4,1,1,5,0,0
154545,-114.942528735632,4,1,1,50,0,0
155083,-114.942528735632,4,1,1,5,0,0
155160,-114.942528735632,4,1,1,50,0,0
187237,-114.942528735632,4,1,1,5,0,0
187314,-114.942528735632,4,1,1,50,0,0
189853,-114.942528735632,4,1,1,5,0,0
189929,-114.942528735632,4,1,1,50,0,0
201776,-142.857142857143,4,1,1,50,0,0
206853,-100,4,3,0,20,0,0
207468,-100,4,3,0,30,0,0
207776,-100,4,3,0,40,0,0
208083,-100,4,3,0,50,0,0
213006,-83.3333333333333,4,3,1,50,0,1
223006,-83.3333333333333,4,1,1,50,0,1
227622,-114.942528735632,4,1,1,50,0,1
237160,-90.9090909090909,4,1,1,50,0,1
237545,-90.9090909090909,4,1,1,5,0,1
237622,-90.9090909090909,4,1,1,50,0,1
242545,-166.666666666667,4,1,1,5,0,0
252391,-166.666666666667,4,1,1,40,0,0
254776,-166.666666666667,4,1,1,5,0,0
254853,-166.666666666667,4,1,1,50,0,0
256237,-114.942528735632,4,2,0,45,0,0
257160,-114.942528735632,4,2,0,40,0,0
259776,-114.942528735632,4,1,1,50,0,0
271699,-114.942528735632,4,1,1,5,0,0
271776,-114.942528735632,4,1,1,50,0,0
272006,-114.942528735632,4,1,1,5,0,0
272083,-114.942528735632,4,1,1,50,0,0
284237,-200,4,2,0,35,0,0
291776,-114.942528735632,4,1,1,50,0,0
301622,-114.942528735632,4,1,1,50,0,1
312929,-114.942528735632,4,1,1,5,0,1
313006,-114.942528735632,4,1,1,50,0,1
337853,-114.942528735632,4,1,1,5,0,1
337929,-114.942528735632,4,1,1,50,0,1
338160,-114.942528735632,4,1,1,5,0,1
338237,-114.942528735632,4,1,1,50,0,1
338468,-114.942528735632,4,1,1,5,0,1
338545,-114.942528735632,4,1,1,50,0,1
341006,-200,4,2,0,35,0,0
344545,-114.942528735632,4,1,1,50,0,0
345929,-200,4,2,0,35,0,0
348391,-200,4,1,1,50,0,0
355776,-200,4,1,1,5,0,0

[Colours]
Combo1 : 255,128,192
Combo2 : 34,183,255
Combo3 : 255,74,74
Combo4 : 165,74,255

[HitObjects]
40,328,16083,6,0,B|88:288|88:288|120:320|208:280|208:280|208:280|232:320|232:320|280:288|344:288|344:288|288:272|264:240,1,427.500016307831
112,128,17314,1,4,0:0:0:0:
440,96,17622,6,0,P|448:148|445:173,1,56.9999982604981
344,288,18083,2,0,P|328:200|304:208,1,142.499995651245
288,216,18545,1,4,0:0:0:0:
432,168,18852,5,0,0:0:0:0:
272,56,19006,1,0,0:0:0:0:
128,288,19314,5,0,0:0:0:0:
396,80,19622,1,4,0:0:0:0:
372,184,20391,5,0,0:0:0:0:
320,296,20699,2,0,L|240:272,1,56.9999982604981
168,256,21006,6,0,B|124:292|124:292|136:256|136:216,1,113.999996520996
156,96,21622,2,0,P|200:96|232:104,2,56.9999982604981,8|8|0,0:0|0:0|0:0,0:0:0:0:
200,284,22237,5,0,0:0:0:0:
464,160,22699,5,0,0:0:0:0:
112,96,23160,5,0,0:0:0:0:
356,320,23468,1,4,0:0:0:0:
344,64,24083,6,8,B|392:84|392:84|352:112|352:152,1,113.999996520996
88,192,24699,5,0,0:0:0:0:
296,128,25006,5,0,0:0:0:0:
188,304,25160,1,0,0:0:0:0:
404,244,25468,5,0,0:0:0:0:
256,192,25929,5,4,0:0:0:0:
256,192,26083,12,0,29314,0:0:0:0:
64,344,29622,6,0,B|52:300|52:300|68:248,1,82.6500006936264,2|0,0:0|0:0,0:0:0:0:
160,248,29929,2,0,B|143:201|143:201|108:176,1,82.6500006936264,2|0,0:0|0:0,0:0:0:0:
8,128,30237,1,2,0:0:0:0:
296,72,30391,1,2,0:0:0:0:
336,336,30699,6,0,L|256:264,1,82.6500006936264
152,160,31006,1,0,0:0:0:0:
328,64,31160,1,8,0:0:0:0:
344,240,31314,1,0,0:0:0:0:
200,80,31468,1,0,0:0:0:0:
400,152,31622,1,0,0:0:0:0:
192,240,31776,1,8,0:0:0:0:
296,40,31929,6,0,B|336:48|336:48|368:80,1,82.6500006936264
368,200,32237,1,0,0:0:0:0:
384,176,32314,1,0,0:0:0:0:
400,152,32391,1,8,0:0:0:0:
136,256,32545,1,0,0:0:0:0:
360,288,32699,1,0,0:0:0:0:
176,144,32853,1,0,0:0:0:0:
232,304,33006,1,8,0:0:0:0:
272,48,33160,6,0,B|312:80|312:80|312:128,1,82.6500006936264
184,152,33468,1,0,0:0:0:0:
188,119,33545,1,0,0:0:0:0:
192,88,33622,1,8,0:0:0:0:
272,240,33776,1,0,0:0:0:0:
64,48,33929,6,0,L|48:112,1,41.3250003468132
152,304,34083,2,0,L|168:232,1,41.3250003468132
192,88,34237,1,8,0:0:0:0:
56,176,34391,6,0,B|96:168|96:168|88:200|88:200|136:176|208:208,1,165.300001387253,4|0,0:0|0:0,0:0:0:0:
344,248,34852,1,8,0:0:0:0:
344,224,34929,1,0,0:0:0:0:
344,200,35006,1,0,0:0:0:0:
240,64,35160,5,0,0:0:0:0:
168,304,35314,1,0,0:0:0:0:
440,184,35468,1,8,0:0:0:0:
56,96,35776,6,0,P|112:72|152:72,1,82.6500006936264
320,72,36083,5,8,0:0:0:0:
128,296,36237,1,0,0:0:0:0:
232,120,36391,1,0,0:0:0:0:
304,304,36545,1,0,0:0:0:0:
152,144,36699,1,8,0:0:0:0:
208,312,36853,1,0,0:0:0:0:
336,80,37006,1,4,0:0:0:0:
408,320,37314,6,0,P|352:328|288:304,1,123.97500104044,10|0,0:0|0:0,0:0:0:0:
304,216,37622,6,0,P|256:216|184:256,1,123.97500104044,2|0,0:0|0:0,0:0:0:0:
112,296,37929,6,0,L|112:184,1,82.6500006936264,10|0,0:0|0:0,0:0:0:0:
72,72,38237,5,0,0:0:0:0:
304,256,38391,1,0,0:0:0:0:
272,64,38545,5,8,0:0:0:0:
184,320,38699,1,0,0:0:0:0:
392,160,38853,1,0,0:0:0:0:
392,136,38929,1,0,0:0:0:0:
392,112,39006,1,0,0:0:0:0:
72,152,39160,5,8,0:0:0:0:
336,288,39314,2,0,B|416:240|416:240|328:216,1,165.300001387253
346,221,39699,1,0,0:0:0:0:
346,221,39776,1,8,0:0:0:0:
200,320,39929,5,0,0:0:0:0:
72,112,40083,1,0,0:0:0:0:
304,152,40237,1,0,0:0:0:0:
353,162,40314,1,0,0:0:0:0:
378,206,40391,1,8,0:0:0:0:
378,255,40468,1,0,0:0:0:0:
351,296,40545,1,0,0:0:0:0:
305,308,40622,1,0,0:0:0:0:
256,294,40699,1,4,0:0:0:0:
160,176,44699,5,8,0:0:0:0:
160,176,44776,1,0,0:0:0:0:
160,176,44853,2,0,L|248:176,1,82.6500006936264
384,176,45160,1,0,0:0:0:0:
224,56,45314,1,8,0:0:0:0:
336,288,45468,1,0,0:0:0:0:
392,48,45622,1,4,0:0:0:0:
56,56,48083,6,0,B|48:144|112:184|112:184|136:80|136:80|136:80|192:80|192:80|192:80|192:80,1,285.000010871888,2|0,0:0|0:0,0:0:0:0:
176,288,48545,6,0,B|224:240|224:240|288:368|400:216,1,246.999988693238,2|0,0:0|0:0,0:0:0:0:
400,48,49006,6,0,B|320:56|320:56|392:96|304:176,1,190,2|0,0:0|0:0,0:0:0:0:
96,320,49468,6,0,B|160:264|160:264|96:280|64:248,1,152,2|0,0:0|0:0,0:0:0:0:
112,152,49929,6,0,P|168:144|240:232,1,170.999994781494,2|0,0:0|0:0,0:0:0:0:
239,221,50468,1,0,0:0:0:0:
239,221,50545,1,0,0:0:0:0:
264,104,50853,5,0,0:0:0:0:
384,184,51160,2,0,L|384:240,2,56.9999982604981
304,136,51622,5,0,0:0:0:0:
256,248,51776,2,0,B|224:256|224:256|192:224|192:224,1,56.9999982604981
200,112,52083,5,0,0:0:0:0:
336,176,52237,2,0,L|367:190,2,28.4999991302491
248,136,52545,1,0,0:0:0:0:
432,112,52699,1,0,0:0:0:0:
432,112,53006,2,0,L|432:176,1,56.9999982604981
384,256,53314,2,0,L|336:200,1,56.9999982604981
232,96,53622,2,0,P|208:144|216:168,1,56.9999982604981
232,232,53929,5,0,0:0:0:0:
346,212,54083,1,0,0:0:0:0:
280,152,54237,1,0,0:0:0:0:
296,264,54391,1,0,0:0:0:0:
416,288,54545,5,0,0:0:0:0:
416,272,54622,1,0,0:0:0:0:
416,256,54699,1,0,0:0:0:0:
416,240,54776,1,0,0:0:0:0:
416,224,54853,1,0,0:0:0:0:
416,208,54929,1,0,0:0:0:0:
416,192,55006,6,0,L|480:192,1,56.9999982604981
64,56,55468,5,0,0:0:0:0:
64,56,55776,2,0,P|80:96|96:112,1,56.9999982604981
160,56,56083,5,0,0:0:0:0:
200,176,56237,1,0,0:0:0:0:
240,96,56391,1,0,0:0:0:0:
88,200,56545,1,0,0:0:0:0:
288,240,56699,1,0,0:0:0:0:
283,256,57006,5,0,0:0:0:0:
312,144,57160,2,0,L|328:96,2,28.4999991302491
264,328,57468,1,0,0:0:0:0:
168,96,57622,1,0,0:0:0:0:
424,72,57929,5,0,0:0:0:0:
424,96,58006,1,0,0:0:0:0:
424,120,58083,1,0,0:0:0:0:
424,144,58160,1,0,0:0:0:0:
424,168,58237,1,0,0:0:0:0:
88,304,58391,5,8,0:0:0:0:
424,272,58699,1,8,0:0:0:0:
256,56,59006,6,0,P|240:96|240:96,1,41.3250003468132
120,80,59160,2,0,L|136:136,1,41.3250003468132
216,192,59314,2,0,L|192:240,1,41.3250003468132
80,224,59468,2,0,B|64:272|64:272|96:304,1,82.6500006936264,8|0,0:0|0:0,0:0:0:0:
86,294,59699,1,0,0:0:0:0:
86,294,59776,1,0,0:0:0:0:
344,240,59929,1,0,0:0:0:0:
80,128,60237,6,0,B|104:48|104:48|152:104,1,142.500005435944
296,264,60545,1,0,0:0:0:0:
152,192,60699,1,8,0:0:0:0:
336,120,60853,1,0,0:0:0:0:
192,288,61006,1,0,0:0:0:0:
232,72,61160,1,0,0:0:0:0:
368,240,61314,1,8,0:0:0:0:
80,64,61468,6,0,P|73:137|80:160,1,82.6500006936264
74,145,61699,1,0,0:0:0:0:
74,145,61776,1,0,0:0:0:0:
144,320,61929,1,8,0:0:0:0:
344,160,62083,1,0,0:0:0:0:
96,224,62237,5,0,0:0:0:0:
312,336,62391,1,0,0:0:0:0:
288,112,62545,1,8,0:0:0:0:
168,200,62699,1,0,0:0:0:0:
392,320,62853,2,0,B|360:288|360:288|376:232,1,82.6500006936264
370,252,63083,1,0,0:0:0:0:
370,252,63160,1,8,0:0:0:0:
240,248,63314,6,0,P|184:192|200:136,1,123.97500104044,2|0,0:0|0:0,0:0:0:0:
264,176,63622,6,0,P|296:128|272:72,1,123.97500104044,2|0,0:0|0:0,0:0:0:0:
200,80,63929,5,0,0:0:0:0:
96,160,64083,1,0,0:0:0:0:
136,48,64237,1,0,0:0:0:0:
136,304,64391,2,0,L|224:328,1,82.6500006936264,8|0,0:0|0:0,0:0:0:0:
296,152,64699,5,0,0:0:0:0:
400,296,64853,1,0,0:0:0:0:
216,240,65006,1,8,0:0:0:0:
448,120,65160,1,0,0:0:0:0:
288,80,65314,2,0,B|248:40|248:40|200:112|160:80,1,165.300001387253,0|8,0:0|0:0,0:0:0:0:
80,176,65929,6,0,B|80:208|80:208|72:240|72:240|128:224|176:312,1,165.300001387253,0|8,0:0|0:0,0:0:0:0:
208,152,66545,6,0,P|280:152|336:192,1,123.97500104044,2|0,0:0|0:0,0:0:0:0:
392,80,66853,6,2,P|424:144|408:208,1,123.97500104044,10|2,0:0|0:0,0:0:0:0:
424,280,67160,6,0,P|352:288|296:232,1,123.97500104044,2|0,0:0|0:0,0:0:0:0:
232,328,67468,6,0,L|232:232,2,82.6500006936264,8|0|0,0:0|0:0|0:0,0:0:0:0:
152,128,67929,5,0,0:0:0:0:
152,144,68083,2,0,L|152:240,1,82.6500006936264,8|0,0:0|0:0,0:0:0:0:
72,312,68391,2,0,L|72:216,1,82.6500006936264
112,80,68699,5,8,0:0:0:0:
280,200,68853,2,0,L|360:256,2,82.6500006936264
168,80,69314,5,8,0:0:0:0:
416,128,69468,1,0,0:0:0:0:
136,200,69622,1,0,0:0:0:0:
296,56,69776,1,0,0:0:0:0:
240,320,69929,1,8,0:0:0:0:
352,248,70545,5,8,0:0:0:0:
112,96,70699,1,0,0:0:0:0:
296,112,70853,2,0,L|215:182,1,82.6500006936264
136,240,71160,1,8,0:0:0:0:
352,320,71314,2,0,L|352:224,1,82.6500006936264
416,64,71622,1,0,0:0:0:0:
176,120,71776,5,8,0:0:0:0:
176,136,71853,1,0,0:0:0:0:
176,152,71929,1,0,0:0:0:0:
408,176,72083,1,0,0:0:0:0:
192,320,72237,1,0,0:0:0:0:
272,88,72391,2,0,P|304:80|344:88,1,56.9999982604981,8|0,0:0|0:0,0:0:0:0:
327,82,72622,1,0,0:0:0:0:
327,82,72699,1,0,0:0:0:0:
96,112,73006,5,8,0:0:0:0:
184,240,73314,6,0,B|208:200|208:200|248:208,2,82.6500006936264,0|0|8,0:0|0:0|0:0,0:0:0:0:
352,72,73776,6,0,B|312:120|312:120|296:56|240:64,1,165.300001387253
72,120,74237,5,8,0:0:0:0:
288,288,74391,1,0,0:0:0:0:
168,88,74545,1,0,0:0:0:0:
112,304,74699,1,0,0:0:0:0:
280,120,74853,1,8,0:0:0:0:
256,136,74929,1,0,0:0:0:0:
232,152,75006,1,0,0:0:0:0:
208,168,75083,1,0,0:0:0:0:
184,184,75160,1,0,0:0:0:0:
504,176,75468,6,0,L|400:216,1,82.6500006936264,8|0,0:0|0:0,0:0:0:0:
248,272,75776,1,0,0:0:0:0:
248,240,75853,1,0,0:0:0:0:
248,208,75929,1,0,0:0:0:0:
352,48,76083,1,8,0:0:0:0:
344,240,76237,2,0,B|384:296|384:296|408:328|408:328|400:240|424:200,1,206.625001734066
424,200,76699,1,8,0:0:0:0:
376,64,77006,6,0,P|296:120|240:112,1,123.97500104044,2|0,0:0|0:0,0:0:0:0:
208,56,77314,6,0,P|120:104|112:128,1,123.97500104044,10|0,0:0|0:0,0:0:0:0:
192,184,77622,6,0,L|192:272,1,82.6500006936264,2|0,0:0|0:0,0:0:0:0:
48,256,77929,5,8,0:0:0:0:
368,184,78083,1,0,0:0:0:0:
112,64,78391,5,0,0:0:0:0:
384,256,78699,5,0,0:0:0:0:
384,256,78776,1,0,0:0:0:0:
384,256,78853,2,0,L|384:168,1,82.6500006936264
384,173,79083,1,0,0:0:0:0:
384,173,79160,1,8,0:0:0:0:
262,307,79314,5,0,0:0:0:0:
221,303,79391,1,0,0:0:0:0:
184,288,79468,1,0,0:0:0:0:
150,264,79545,1,0,0:0:0:0:
127,230,79622,1,0,0:0:0:0:
119,190,79699,1,0,0:0:0:0:
129,149,79776,2,0,P|200:144|224:168,1,82.6500006936264,8|0,0:0|0:0,0:0:0:0:
408,72,80083,6,0,B|416:120|416:120|397:176,1,82.6500006936264,4|0,0:0|0:0,0:0:0:0:
344,296,80391,1,8,0:0:0:0:
256,96,80545,1,0,0:0:0:0:
248,296,80699,1,0,0:0:0:0:
336,104,80853,1,0,0:0:0:0:
168,232,81006,1,8,0:0:0:0:
168,232,81083,1,0,0:0:0:0:
168,232,81160,6,0,P|120:176|152:96,1,165.300001387253
352,96,81622,5,8,0:0:0:0:
424,328,81776,1,0,0:0:0:0:
240,96,81929,1,0,0:0:0:0:
160,328,82083,1,0,0:0:0:0:
320,168,82237,1,8,0:0:0:0:
72,256,82391,1,0,0:0:0:0:
304,88,82545,2,4,B|280:48|280:48|256:128|176:64,1,165.300001387253,4|8,0:0|0:0,0:0:0:0:
64,96,83006,5,0,0:0:0:0:
248,320,83160,1,0,0:0:0:0:
16,224,83314,1,0,0:0:0:0:
256,144,83468,1,8,0:0:0:0:
256,144,83545,1,0,0:0:0:0:
256,144,83622,2,0,P|312:144|387:228,1,165.300001387253
312,328,84083,5,8,0:0:0:0:
456,280,84237,1,0,0:0:0:0:
312,232,84391,1,0,0:0:0:0:
448,184,84545,1,0,0:0:0:0:
312,136,84699,1,8,0:0:0:0:
448,88,84853,1,0,0:0:0:0:
448,88,85006,6,0,P|408:48|344:96,1,123.97500104044
280,72,85314,2,0,P|232:64|208:72,1,41.3250003468132,8|0,0:0|0:0,0:0:0:0:
136,56,85468,6,0,P|104:112|160:80,1,165.300001387253
96,272,85929,5,8,0:0:0:0:
312,336,86083,1,0,0:0:0:0:
360,152,86237,2,0,P|344:112|272:88,1,123.97500104044
240,96,86545,1,8,0:0:0:0:
64,216,86699,5,0,0:0:0:0:
272,336,87006,1,0,0:0:0:0:
400,104,87314,6,0,P|416:160|400:176,1,82.6500006936264
320,272,87622,1,0,0:0:0:0:
320,72,87776,1,8,0:0:0:0:
80,184,87929,1,0,0:0:0:0:
224,40,88083,1,0,0:0:0:0:
208,248,88237,1,0,0:0:0:0:
104,56,88391,1,8,0:0:0:0:
352,176,88545,1,0,0:0:0:0:
208,320,88699,5,0,0:0:0:0:
167,322,88776,1,0,0:0:0:0:
132,301,88853,1,0,0:0:0:0:
115,264,88929,1,0,0:0:0:0:
123,224,89006,1,0,0:0:0:0:
151,195,89083,1,0,0:0:0:0:
216,176,89160,2,0,L|240:240,1,41.3250003468132
264,288,89314,5,0,0:0:0:0:
303,278,89391,1,0,0:0:0:0:
337,255,89468,1,0,0:0:0:0:
361,221,89545,1,0,0:0:0:0:
384,158,89622,2,0,L|300:111,1,82.6500006936264,8|0,0:0|0:0,0:0:0:0:
144,32,89929,5,0,0:0:0:0:
296,328,90083,1,0,0:0:0:0:
344,48,90237,1,8,0:0:0:0:
104,304,90391,1,0,0:0:0:0:
256,40,90699,5,0,0:0:0:0:
488,312,91006,1,4,0:0:0:0:
256,192,91160,12,0,92237,0:0:0:0:
56,88,92391,6,0,P|112:80|160:112,1,113.999996520996
256,80,92853,2,0,L|256:208,1,113.999996520996
96,240,93468,6,0,B|136:208|136:208|144:248,1,85.4999973907472
216,232,93776,2,0,L|248:288,2,56.9999982604981
168,136,94237,2,0,L|248:136,1,56.9999982604981
352,136,94545,6,0,P|376:168|384:208,1,56.9999982604981
384,264,94853,2,0,P|352:288|312:296,1,56.9999982604981
256,288,95160,1,0,0:0:0:0:
208,112,95314,2,0,L|336:112,1,113.999996520996
48,72,95929,6,0,L|120:144,1,82.6500006936264
352,320,96237,5,0,0:0:0:0:
296,72,96391,1,8,0:0:0:0:
104,304,96545,1,0,0:0:0:0:
104,304,96622,1,0,0:0:0:0:
104,304,96699,1,0,0:0:0:0:
128,88,96853,5,0,0:0:0:0:
256,328,97006,1,8,0:0:0:0:
384,88,97160,1,0,0:0:0:0:
152,168,97314,5,0,0:0:0:0:
128,336,97468,1,0,0:0:0:0:
368,144,97622,1,8,0:0:0:0:
392,320,97776,1,0,0:0:0:0:
120,104,97929,1,0,0:0:0:0:
88,320,98083,1,0,0:0:0:0:
368,64,98237,1,8,0:0:0:0:
408,320,98391,1,0,0:0:0:0:
208,224,98545,6,0,L|200:192,1,41.3250003468132
280,104,98699,2,0,L|296:160,1,41.3250003468132
336,288,98853,1,8,0:0:0:0:
80,80,99622,6,0,B|144:72|192:32|192:32|184:80,1,165.300001387253
176,264,100083,1,8,0:0:0:0:
328,112,100237,1,0,0:0:0:0:
88,208,100391,2,0,L|88:312,1,82.6500006936264
88,290,100622,1,0,0:0:0:0:
88,290,100699,1,8,0:0:0:0:
352,296,100853,1,0,0:0:0:0:
160,128,101006,5,0,0:0:0:0:
256,328,101160,1,0,0:0:0:0:
376,120,101314,2,0,P|336:80|288:72,1,82.6500006936264,8|0,0:0|0:0,0:0:0:0:
152,56,101622,1,0,0:0:0:0:
216,208,101776,1,0,0:0:0:0:
216,184,101853,1,0,0:0:0:0:
216,160,101929,1,8,0:0:0:0:
448,152,102083,1,0,0:0:0:0:
248,312,102237,5,0,0:0:0:0:
480,280,102391,1,0,0:0:0:0:
328,64,102545,1,8,0:0:0:0:
328,88,102622,1,0,0:0:0:0:
328,112,102699,1,0,0:0:0:0:
184,56,102853,5,0,0:0:0:0:
128,320,103006,1,0,0:0:0:0:
48,72,103160,1,8,0:0:0:0:
232,168,103314,2,0,L|147:223,1,82.6500006936264
472,144,103622,1,0,0:0:0:0:
216,64,103776,1,8,0:0:0:0:
424,312,103929,1,0,0:0:0:0:
240,256,104083,1,0,0:0:0:0:
400,80,104237,1,0,0:0:0:0:
123,233,104391,5,8,0:0:0:0:
144,240,104468,1,0,0:0:0:0:
160,256,104545,1,0,0:0:0:0:
171,271,104622,1,0,0:0:0:0:
179,288,104699,6,0,P|235:336|307:328,1,123.97500104044,2|0,0:0|0:0,0:0:0:0:
400,240,105006,2,8,B|344:256|344:256|280:240,1,123.97500104044,10|8,0:0|0:0,0:0:0:0:
168,152,105314,2,0,B|232:168|232:168|288:152,1,123.97500104044,2|0,0:0|0:0,0:0:0:0:
360,80,105622,6,8,B|400:88|400:88|432:120,1,82.6500006936264,8|0,0:0|0:0,0:0:0:0:
429,117,105853,1,0,0:0:0:0:
429,117,105929,1,0,0:0:0:0:
216,320,106237,5,8,0:0:0:0:
256,80,106391,1,0,0:0:0:0:
504,288,106699,5,0,0:0:0:0:
144,184,107160,5,0,0:0:0:0:
288,336,107314,1,0,0:0:0:0:
272,96,107468,1,8,0:0:0:0:
104,272,107622,6,0,L|160:256,1,41.3250003468132
408,272,107929,6,0,L|352:256,1,41.3250003468132
256,224,108237,1,0,0:0:0:0:
392,64,108545,5,0,0:0:0:0:
392,64,108699,6,0,L|392:168,1,82.6500006936264,8|0,0:0|0:0,0:0:0:0:
392,146,108929,1,0,0:0:0:0:
392,146,109006,1,0,0:0:0:0:
400,304,109160,1,0,0:0:0:0:
280,128,109468,6,0,L|176:128,1,82.6500006936264
112,128,109776,1,0,0:0:0:0:
184,336,109929,1,8,0:0:0:0:
0,256,110083,1,0,0:0:0:0:
264,200,110237,5,0,0:0:0:0:
88,296,110391,1,0,0:0:0:0:
88,48,110545,1,8,0:0:0:0:
264,304,110699,2,0,P|320:280|328:232,1,82.6500006936264
344,152,111006,5,0,0:0:0:0:
344,128,111083,1,0,0:0:0:0:
344,104,111160,1,8,0:0:0:0:
96,272,111314,1,0,0:0:0:0:
240,56,111468,1,0,0:0:0:0:
240,304,111622,1,0,0:0:0:0:
48,144,111776,1,8,0:0:0:0:
312,112,111929,1,0,0:0:0:0:
112,304,112083,1,4,0:0:0:0:
360,280,112391,5,8,0:0:0:0:
208,88,112545,1,0,0:0:0:0:
56,256,112853,5,0,0:0:0:0:
360,56,113160,1,0,0:0:0:0:
320,280,113468,5,0,0:0:0:0:
320,280,113622,2,0,B|280:304|280:304|248:272,1,82.6500006936264,8|0,0:0|0:0,0:0:0:0:
152,160,113929,1,0,0:0:0:0:
280,64,114083,1,0,0:0:0:0:
176,272,114237,1,8,0:0:0:0:
176,64,114391,1,0,0:0:0:0:
368,192,114545,6,0,B|296:216|248:192|248:192|280:256,1,165.300001387253
32,296,115006,1,0,0:0:0:0:
32,272,115083,1,0,0:0:0:0:
32,248,115160,1,0,0:0:0:0:
208,96,115314,5,0,0:0:0:0:
456,200,115622,2,0,P|488:136|424:72,1,165.300001387253
432,73,116006,1,0,0:0:0:0:
432,73,116083,1,8,0:0:0:0:
200,112,116237,5,0,0:0:0:0:
456,296,116391,1,0,0:0:0:0:
288,80,116545,1,0,0:0:0:0:
320,336,116699,1,8,0:0:0:0:
400,144,116853,1,0,0:0:0:0:
152,176,117006,6,0,L|232:224,1,82.6500006936264
128,320,117314,1,8,0:0:0:0:
80,48,117468,1,0,0:0:0:0:
440,120,117776,5,0,0:0:0:0:
320,304,118083,6,0,L|256:240,1,82.6500006936264
136,128,118391,1,0,0:0:0:0:
112,128,118468,1,0,0:0:0:0:
88,128,118545,1,8,0:0:0:0:
208,312,118699,1,0,0:0:0:0:
360,144,118853,2,0,L|360:88,1,41.3250003468132
216,104,119006,6,0,L|216:184,1,41.3250003468132
288,320,119314,5,0,0:0:0:0:
288,320,119468,2,0,L|288:224,1,82.6500006936264
288,88,119776,1,8,0:0:0:0:
40,128,119929,1,0,0:0:0:0:
160,288,120083,2,0,L|160:224,1,41.3250003468132
232,208,120237,2,0,L|232:272,1,41.3250003468132
304,288,120391,2,0,L|304:224,1,41.3250003468132,8|0,0:0|0:0,0:0:0:0:
304,128,120545,5,4,0:0:0:0:
88,296,120699,1,0,0:0:0:0:
80,72,120853,1,0,0:0:0:0:
240,336,121006,1,8,0:0:0:0:
264,64,121160,1,0,0:0:0:0:
400,256,121314,2,0,L|456:256,1,41.3250003468132
400,112,121468,2,0,L|448:112,1,41.3250003468132
480,184,121622,2,0,L|424:184,1,41.3250003468132,8|0,0:0|0:0,0:0:0:0:
312,184,121776,5,4,0:0:0:0:
112,64,121929,1,0,0:0:0:0:
272,336,122083,1,0,0:0:0:0:
48,208,122237,1,8,0:0:0:0:
312,72,122391,1,0,0:0:0:0:
192,320,122545,2,0,L|192:256,1,41.3250003468132
120,240,122699,2,0,L|120:296,1,41.3250003468132
48,320,122853,2,0,L|48:264,1,41.3250003468132,8|0,0:0|0:0,0:0:0:0:
48,112,123006,5,4,0:0:0:0:
328,192,123160,5,0,0:0:0:0:
128,32,123314,1,0,0:0:0:0:
192,224,123468,1,8,0:0:0:0:
424,48,123622,1,0,0:0:0:0:
328,304,123776,1,0,0:0:0:0:
328,304,123929,2,0,B|312:240|312:240|376:264|376:264|312:192|392:136,1,247.950002080879
432,72,124545,5,0,0:0:0:0:
152,168,124699,1,8,0:0:0:0:
304,32,124853,1,0,0:0:0:0:
208,312,125006,2,0,L|144:248,1,82.6500006936264
64,168,125314,1,8,0:0:0:0:
248,56,125468,1,0,0:0:0:0:
56,80,125622,5,0,0:0:0:0:
368,128,125776,1,0,0:0:0:0:
368,128,125853,1,0,0:0:0:0:
368,128,125929,6,0,P|400:192|408:256,1,123.97500104044,10|0,0:0|0:0,0:0:0:0:
360,328,126237,2,0,P|312:264|304:216,1,123.97500104044,2|0,0:0|0:0,0:0:0:0:
200,144,126545,2,0,P|232:208|224:272,1,123.97500104044,10|0,0:0|0:0,0:0:0:0:
224,288,126853,5,8,0:0:0:0:
56,256,127006,1,0,0:0:0:0:
264,352,127160,1,8,0:0:0:0:
368,64,127314,1,0,0:0:0:0:
112,320,127468,1,8,0:0:0:0:
448,216,127622,1,0,0:0:0:0:
120,80,127776,1,8,0:0:0:0:
368,304,127929,2,0,B|408:264|360:232|360:232|328:216|400:160,1,165.300001387253
392,160,128314,5,0,0:0:0:0:
384,152,128391,1,8,0:0:0:0:
376,144,128468,1,0,0:0:0:0:
368,136,128545,1,0,0:0:0:0:
216,88,128699,5,8,0:0:0:0:
296,328,128853,1,0,0:0:0:0:
88,200,129006,1,8,0:0:0:0:
296,128,129160,1,0,0:0:0:0:
160,328,129314,6,0,L|160:240,1,82.6500006936264,8|0,0:0|0:0,0:0:0:0:
160,104,129622,1,8,0:0:0:0:
256,272,129776,1,0,0:0:0:0:
248,80,129929,1,8,0:0:0:0:
104,192,130083,1,0,0:0:0:0:
344,160,130237,1,8,0:0:0:0:
128,80,130391,1,0,0:0:0:0:
296,312,130545,6,0,L|296:216,1,82.6500006936264,8|0,0:0|0:0,0:0:0:0:
296,80,130853,1,8,0:0:0:0:
80,160,131006,1,0,0:0:0:0:
208,280,131160,1,8,0:0:0:0:
184,72,131314,1,0,0:0:0:0:
112,272,131468,1,8,0:0:0:0:
336,152,131622,1,0,0:0:0:0:
64,120,131776,6,0,L|64:216,1,82.6500006936264,8|0,0:0|0:0,0:0:0:0:
120,272,132083,1,8,0:0:0:0:
256,136,132237,1,0,0:0:0:0:
232,328,132391,1,8,0:0:0:0:
144,160,132545,1,0,0:0:0:0:
344,248,132699,1,8,0:0:0:0:
128,336,132853,1,0,0:0:0:0:
240,72,133006,6,0,L|304:144,1,82.6500006936264,8|0,0:0|0:0,0:0:0:0:
416,264,133314,1,8,0:0:0:0:
192,216,133468,1,0,0:0:0:0:
400,152,133622,1,8,0:0:0:0:
320,328,133776,1,0,0:0:0:0:
256,120,133929,1,8,0:0:0:0:
416,264,134083,1,0,0:0:0:0:
184,272,134237,6,0,L|184:176,1,82.6500006936264,8|0,0:0|0:0,0:0:0:0:
184,72,134545,1,8,0:0:0:0:
384,208,134699,1,0,0:0:0:0:
248,32,134853,1,8,0:0:0:0:
272,216,135006,1,0,0:0:0:0:
352,72,135160,1,8,0:0:0:0:
104,120,135314,1,0,0:0:0:0:
328,288,135468,6,0,L|216:288,1,82.6500006936264,8|0,0:0|0:0,0:0:0:0:
104,288,135776,1,8,0:0:0:0:
144,104,135929,1,0,0:0:0:0:
104,288,136083,1,8,0:0:0:0:
328,176,136237,1,0,0:0:0:0:
40,160,136391,1,8,0:0:0:0:
200,304,136545,1,0,0:0:0:0:
200,72,136699,6,0,L|288:72,1,82.6500006936264,8|0,0:0|0:0,0:0:0:0:
424,104,137006,1,8,0:0:0:0:
368,328,137160,1,0,0:0:0:0:
256,152,137314,1,8,0:0:0:0:
448,240,137468,1,0,0:0:0:0:
216,288,137622,1,8,0:0:0:0:
376,80,137776,1,0,0:0:0:0:
328,328,137929,6,0,L|296:248,1,82.6500006936264,8|0,0:0|0:0,0:0:0:0:
328,56,138237,5,8,0:0:0:0:
63,316,138391,1,0,0:0:0:0:
136,40,138545,1,8,0:0:0:0:
240,336,138699,1,0,0:0:0:0:
424,112,138853,1,8,0:0:0:0:
48,232,139006,1,4,0:0:0:0:
80,96,146853,6,0,P|152:72|192:80,1,82.6500006936264
157,72,147083,1,0,0:0:0:0:
157,72,147160,1,0,0:0:0:0:
336,128,147314,1,0,0:0:0:0:
152,280,147622,5,0,0:0:0:0:
264,112,147776,2,0,L|264:224,1,82.6500006936264
288,272,148083,2,0,L|352:216,1,82.6500006936264,8|0,0:0|0:0,0:0:0:0:
350,217,148314,1,0,0:0:0:0:
350,217,148391,1,0,0:0:0:0:
488,104,148545,1,0,0:0:0:0:
80,64,149006,6,0,P|128:64|176:88,1,82.6500006936264
296,136,149314,1,8,0:0:0:0:
24,224,149468,1,0,0:0:0:0:
264,328,149622,1,0,0:0:0:0:
160,144,149776,1,0,0:0:0:0:
128,320,149929,1,8,0:0:0:0:
128,320,150083,2,0,B|168:336|168:336|128:256|208:208,1,165.300001387253
328,56,150545,5,8,0:0:0:0:
288,280,150699,1,0,0:0:0:0:
200,96,150853,1,0,0:0:0:0:
432,232,151006,1,0,0:0:0:0:
144,288,151160,1,8,0:0:0:0:
103,279,151237,1,0,0:0:0:0:
67,259,151314,1,0,0:0:0:0:
40,228,151391,1,0,0:0:0:0:
23,191,151468,2,0,L|111:191,1,82.6500006936264
392,192,151776,5,8,0:0:0:0:
176,80,151929,1,0,0:0:0:0:
224,312,152237,5,0,0:0:0:0:
456,184,152545,6,0,L|360:184,1,82.6500006936264
288,264,152853,1,0,0:0:0:0:
200,56,153006,1,8,0:0:0:0:
120,296,153160,1,0,0:0:0:0:
48,112,153314,1,0,0:0:0:0:
200,280,153468,1,0,0:0:0:0:
48,80,153622,1,8,0:0:0:0:
48,264,153776,1,0,0:0:0:0:
280,128,153929,2,0,P|376:128|312:216,1,247.950002080879
416,304,154545,6,0,B|328:320|272:304|272:304|296:344|296:344|184:320|192:280,1,289.275002427692
176,288,155160,5,0,0:0:0:0:
336,96,155468,5,8,0:0:0:0:
80,80,155776,5,0,0:0:0:0:
80,96,155853,1,0,0:0:0:0:
80,112,155929,1,0,0:0:0:0:
80,128,156006,1,0,0:0:0:0:
80,144,156083,2,0,L|80:240,1,82.6500006936264,8|0,0:0|0:0,0:0:0:0:
400,88,156545,5,0,0:0:0:0:
232,296,156699,2,0,P|208:256|216:216,1,82.6500006936264,8|0,0:0|0:0,0:0:0:0:
320,240,157006,2,0,P|320:192|288:159,1,82.6500006936264
144,40,157314,1,8,0:0:0:0:
448,152,157468,1,0,0:0:0:0:
80,208,157776,6,0,L|80:296,2,82.6500006936264,0|8|0,0:0|0:0|0:0,0:0:0:0:
392,112,158237,1,0,0:0:0:0:
112,32,158391,1,0,0:0:0:0:
344,296,158545,1,8,0:0:0:0:
104,96,159160,5,8,0:0:0:0:
152,304,159314,1,0,0:0:0:0:
200,64,159468,1,0,0:0:0:0:
40,272,159622,1,0,0:0:0:0:
272,176,159776,1,8,0:0:0:0:
32,144,159929,1,0,0:0:0:0:
48,160,160006,1,0,0:0:0:0:
64,176,160083,1,0,0:0:0:0:
128,56,160237,2,0,L|128:112,1,41.3250003468132
208,272,160391,5,8,0:0:0:0:
416,144,160545,1,0,0:0:0:0:
208,80,160699,1,0,0:0:0:0:
304,288,160853,1,0,0:0:0:0:
368,72,161006,1,8,0:0:0:0:
192,224,161314,5,0,0:0:0:0:
88,72,161622,5,8,0:0:0:0:
88,72,161699,1,0,0:0:0:0:
88,72,161776,2,0,L|200:72,1,82.6500006936264
328,72,162083,1,0,0:0:0:0:
128,224,162237,1,8,0:0:0:0:
376,224,162391,6,0,L|376:328,1,82.6500006936264
304,336,162699,1,0,0:0:0:0:
72,176,162853,1,8,0:0:0:0:
192,344,163006,1,0,0:0:0:0:
160,104,163160,1,0,0:0:0:0:
96,336,163314,1,0,0:0:0:0:
280,168,163468,5,8,0:0:0:0:
321,168,163545,1,0,0:0:0:0:
362,168,163622,1,0,0:0:0:0:
403,168,163699,1,0,0:0:0:0:
445,168,163776,1,0,0:0:0:0:
48,232,164083,6,0,L|112:176,1,82.6500006936264,8|0,0:0|0:0,0:0:0:0:
110,177,164314,1,0,0:0:0:0:
110,177,164391,1,0,0:0:0:0:
192,56,164545,1,0,0:0:0:0:
192,288,164699,1,8,0:0:0:0:
312,128,164853,2,0,L|416:128,1,82.6500006936264
384,288,165314,6,0,L|336:248,1,41.3250003468132,8|0,0:0|0:0,0:0:0:0:
224,144,165622,5,0,0:0:0:0:
192,117,165699,1,0,0:0:0:0:
161,90,165776,1,0,0:0:0:0:
130,62,165853,1,0,0:0:0:0:
100,34,165929,2,0,B|64:56|64:56|64:56|80:112,2,82.6500006936264,8|0|0,0:0|0:0|0:0,0:0:0:0:
296,80,166545,5,8,0:0:0:0:
384,288,166699,1,0,0:0:0:0:
120,192,167006,5,8,0:0:0:0:
400,168,167314,1,8,0:0:0:0:
240,312,167622,6,0,P|200:280|192:240,1,82.6500006936264,0|8,0:0|0:0,0:0:0:0:
192,208,167853,1,0,0:0:0:0:
209,166,167929,1,0,0:0:0:0:
250,151,168006,1,0,0:0:0:0:
287,174,168083,1,0,0:0:0:0:
295,218,168160,1,0,0:0:0:0:
273,257,168237,1,0,0:0:0:0:
235,282,168314,1,0,0:0:0:0:
191,292,168391,5,8,0:0:0:0:
202,242,168468,1,0,0:0:0:0:
187,193,168545,1,0,0:0:0:0:
152,156,168622,1,0,0:0:0:0:
118,119,168699,2,0,L|214:119,1,82.6500006936264
384,112,169006,5,8,0:0:0:0:
224,272,169160,1,0,0:0:0:0:
456,240,169314,1,0,0:0:0:0:
208,280,169468,1,0,0:0:0:0:
432,72,169622,1,8,0:0:0:0:
376,336,169776,2,0,L|336:256,1,82.6500006936264
339,262,170006,1,0,0:0:0:0:
339,262,170083,1,0,0:0:0:0:
336,96,170237,5,8,0:0:0:0:
152,216,170391,1,0,0:0:0:0:
384,184,170545,1,0,0:0:0:0:
144,112,170699,1,0,0:0:0:0:
288,272,170853,1,8,0:0:0:0:
256,48,171006,1,0,0:0:0:0:
192,312,171160,2,0,B|144:328|96:304|96:304|24:320,1,165.300001387253,0|8,0:0|0:0,0:0:0:0:
24,240,171622,5,0,0:0:0:0:
208,72,171776,1,0,0:0:0:0:
288,320,171929,1,0,0:0:0:0:
112,216,172083,1,8,0:0:0:0:
336,160,172237,2,0,L|432:128,1,82.6500006936264
414,133,172468,5,0,0:0:0:0:
414,133,172545,1,0,0:0:0:0:
240,80,172699,1,8,0:0:0:0:
304,312,172853,1,0,0:0:0:0:
104,136,173006,1,0,0:0:0:0:
384,88,173160,1,0,0:0:0:0:
184,320,173314,1,8,0:0:0:0:
208,72,173468,1,0,0:0:0:0:
376,256,173622,6,0,L|288:256,1,82.6500006936264
112,256,173929,1,8,0:0:0:0:
336,96,174083,1,0,0:0:0:0:
104,96,174237,5,0,0:0:0:0:
184,320,174391,1,0,0:0:0:0:
64,192,174545,5,8,0:0:0:0:
272,280,174699,1,0,0:0:0:0:
232,88,174853,1,0,0:0:0:0:
408,128,175160,5,8,0:0:0:0:
408,128,175314,2,0,L|408:232,1,82.6500006936264
408,296,175622,1,0,0:0:0:0:
128,168,175929,6,0,P|168:128|208:112,1,82.6500006936264
336,64,176237,1,0,0:0:0:0:
248,288,176391,1,8,0:0:0:0:
400,128,176545,1,0,0:0:0:0:
160,208,176699,1,0,0:0:0:0:
384,288,176853,1,0,0:0:0:0:
240,80,177006,1,8,0:0:0:0:
184,320,177160,1,0,0:0:0:0:
400,208,177314,2,0,L|400:112,1,82.6500006936264
120,264,177622,5,8,0:0:0:0:
80,64,177776,1,0,0:0:0:0:
200,320,177929,5,0,0:0:0:0:
368,104,178083,1,0,0:0:0:0:
400,336,178237,5,8,0:0:0:0:
128,96,178391,1,0,0:0:0:0:
384,240,178545,6,0,L|384:152,1,82.6500006936264
56,128,178853,5,8,0:0:0:0:
176,240,179006,1,0,0:0:0:0:
184,80,179160,1,0,0:0:0:0:
72,288,179314,1,0,0:0:0:0:
288,160,179468,1,8,0:0:0:0:
48,120,179622,1,0,0:0:0:0:
216,312,179776,5,0,0:0:0:0:
224,96,179929,1,0,0:0:0:0:
72,256,180083,1,8,0:0:0:0:
336,264,180237,1,0,0:0:0:0:
152,80,180391,1,0,0:0:0:0:
208,336,180545,1,0,0:0:0:0:
320,120,180699,1,8,0:0:0:0:
88,176,180853,1,0,0:0:0:0:
296,320,181006,5,0,0:0:0:0:
192,112,181160,1,0,0:0:0:0:
96,304,181314,1,8,0:0:0:0:
360,168,181468,1,0,0:0:0:0:
56,88,181622,1,0,0:0:0:0:
328,335,181776,1,0,0:0:0:0:
328,36,181929,2,0,L|296:64,1,41.3250003468132,8|0,0:0|0:0,0:0:0:0:
208,136,182083,5,0,0:0:0:0:
245,160,182160,1,0,0:0:0:0:
280,188,182237,1,0,0:0:0:0:
302,226,182314,1,0,0:0:0:0:
314,269,182391,1,0,0:0:0:0:
306,313,182468,1,0,0:0:0:0:
286,351,182545,6,0,L|220:312,1,41.3250003468132,8|0,0:0|0:0,0:0:0:0:
197,232,182699,2,0,L|261:272,1,41.3250003468132
382,344,182853,1,0,0:0:0:0:
224,64,183006,1,0,0:0:0:0:
432,112,183314,6,0,L|336:96,1,82.6500006936264
350,98,183545,1,0,0:0:0:0:
350,98,183622,1,0,0:0:0:0:
128,64,183776,1,8,0:0:0:0:
256,304,183929,1,0,0:0:0:0:
280,64,184083,1,0,0:0:0:0:
56,296,184237,1,0,0:0:0:0:
152,176,184391,1,8,0:0:0:0:
128,168,184468,1,0,0:0:0:0:
104,160,184545,2,0,L|104:64,1,82.6500006936264
256,96,184853,5,0,0:0:0:0:
256,72,184929,1,0,0:0:0:0:
256,48,185006,1,8,0:0:0:0:
176,240,185160,1,0,0:0:0:0:
456,128,185314,1,0,0:0:0:0:
176,88,185468,1,0,0:0:0:0:
296,280,185622,1,8,0:0:0:0:
352,80,185776,2,0,B|408:104|408:104|352:136|376:224,1,165.300001387253
376,328,186237,5,8,0:0:0:0:
216,56,186391,1,0,0:0:0:0:
208,320,186545,1,0,0:0:0:0:
352,128,186699,1,0,0:0:0:0:
120,200,186853,1,8,0:0:0:0:
328,320,187006,2,0,L|328:192,1,123.97500104044
272,128,187314,6,0,P|216:160|208:176,1,82.6500006936264,0|8,0:0|0:0,0:0:0:0:
144,288,187622,1,0,0:0:0:0:
88,128,187776,1,0,0:0:0:0:
48,256,187929,1,0,0:0:0:0:
272,216,188083,1,8,0:0:0:0:
120,56,188237,1,0,0:0:0:0:
216,312,188391,2,0,L|328:272,1,82.6500006936264
400,240,188699,5,8,0:0:0:0:
264,72,188853,1,0,0:0:0:0:
208,224,189006,2,0,P|264:216|288:200,1,82.6500006936264
368,128,189314,5,8,0:0:0:0:
88,144,189468,1,0,0:0:0:0:
216,320,189622,2,0,P|248:288|336:320,1,123.97500104044
336,208,189929,6,0,L|288:160,1,41.3250003468132,8|0,0:0|0:0,0:0:0:0:
248,112,190083,6,0,L|208:160,1,41.3250003468132
88,104,190391,6,0,L|88:200,1,82.6500006936264,0|8,0:0|0:0,0:0:0:0:
184,184,190853,6,0,L|184:88,1,82.6500006936264
408,72,191160,1,8,0:0:0:0:
272,232,191314,2,0,L|272:304,1,41.3250003468132
440,256,191468,1,0,0:0:0:0:
256,160,191622,2,0,L|256:104,1,41.3250003468132
208,328,191776,1,8,0:0:0:0:
424,152,191929,1,0,0:0:0:0:
360,320,192237,5,0,0:0:0:0:
264,64,192391,1,8,0:0:0:0:
168,256,192545,1,0,0:0:0:0:
416,104,192699,1,0,0:0:0:0:
64,152,192853,1,0,0:0:0:0:
392,328,193160,6,0,L|392:224,1,82.6500006936264
392,112,193468,1,0,0:0:0:0:
176,248,193622,1,8,0:0:0:0:
304,80,193776,1,0,0:0:0:0:
320,304,193929,1,0,0:0:0:0:
208,104,194083,1,0,0:0:0:0:
384,240,194237,1,8,0:0:0:0:
88,208,194391,2,0,B|24:176|24:176|104:176|128:160,1,165.300001387253
432,96,194853,5,8,0:0:0:0:
232,232,195006,1,0,0:0:0:0:
272,48,195160,1,0,0:0:0:0:
344,272,195314,2,0,B|376:352|376:352|376:296|416:248,1,165.300001387253
80,80,195776,6,0,L|80:144,1,41.3250003468132,8|0,0:0|0:0,0:0:0:0:
248,120,196083,6,0,L|224:160,1,41.3250003468132,8|0,0:0|0:0,0:0:0:0:
176,256,196237,2,0,L|248:232,1,41.3250003468132
480,112,196545,6,0,L|480:192,1,41.3250003468132,8|0,0:0|0:0,0:0:0:0:
64,232,196853,6,0,P|72:192|88:152,1,82.6500006936264
312,72,197160,6,0,L|312:176,2,82.6500006936264,0|8|0,0:0|0:0|0:0,0:0:0:0:
312,304,197622,5,0,0:0:0:0:
112,88,197776,1,0,0:0:0:0:
456,216,197929,1,8,0:0:0:0:
96,256,198237,5,0,0:0:0:0:
408,208,198545,5,8,0:0:0:0:
152,96,198699,1,0,0:0:0:0:
288,304,199006,5,8,0:0:0:0:
328,80,199314,5,8,0:0:0:0:
160,104,199622,6,0,B|128:144|128:144|136:200,1,82.6500006936264,0|8,0:0|0:0,0:0:0:0:
132,175,199853,1,0,0:0:0:0:
132,175,199929,1,0,0:0:0:0:
152,328,200083,1,0,0:0:0:0:
368,192,200237,1,0,0:0:0:0:
216,64,200391,1,8,0:0:0:0:
320,344,200545,1,0,0:0:0:0:
328,64,200699,5,0,0:0:0:0:
112,312,200853,1,0,0:0:0:0:
128,40,201006,5,8,0:0:0:0:
368,336,201160,1,0,0:0:0:0:
408,80,201468,5,8,0:0:0:0:
168,168,201776,6,0,B|128:152|128:152|144:224|144:224|104:192|64:192,1,199.499993911743,0|8,0:0|0:0,0:0:0:0:
72,240,202314,1,0,0:0:0:0:
82,286,202391,1,0,0:0:0:0:
118,317,202468,1,0,0:0:0:0:
164,331,202545,1,0,0:0:0:0:
213,332,202622,1,0,0:0:0:0:
264,304,202699,5,0,0:0:0:0:
264,248,202776,1,0,0:0:0:0:
264,192,202853,1,8,0:0:0:0:
264,136,202929,1,0,0:0:0:0:
264,80,203006,1,4,0:0:0:0:
88,88,206853,6,0,P|144:80|208:104,1,95
104,296,207160,6,0,P|168:296|208:280,1,95
400,104,207468,6,0,P|416:168|408:216,1,95
64,224,207776,6,0,P|64:152|80:120,1,95
328,328,208083,6,0,P|256:328|224:304,1,95
176,240,208391,1,0,0:0:0:0:
224,96,208699,5,0,0:0:0:0:
320,240,208853,1,0,0:0:0:0:
432,64,209160,5,0,0:0:0:0:
64,160,209468,6,0,L|168:128,1,95
296,288,209929,5,0,0:0:0:0:
256,112,210083,1,0,0:0:0:0:
416,288,210391,6,0,P|400:240|360:192,1,95
328,96,210853,5,0,0:0:0:0:
208,272,211006,1,0,0:0:0:0:
64,88,211314,5,0,0:0:0:0:
392,136,211622,6,0,L|392:248,1,95
376,272,211853,1,0,0:0:0:0:
342,304,211929,1,0,0:0:0:0:
296,312,212006,1,0,0:0:0:0:
260,284,212083,1,0,0:0:0:0:
251,238,212160,1,0,0:0:0:0:
247,190,212237,1,0,0:0:0:0:
230,147,212314,1,0,0:0:0:0:
193,117,212391,5,0,0:0:0:0:
148,101,212468,1,0,0:0:0:0:
104,112,212545,1,0,0:0:0:0:
65,139,212622,1,0,0:0:0:0:
56,184,212699,1,0,0:0:0:0:
71,229,212776,1,0,0:0:0:0:
66,275,212853,1,0,0:0:0:0:
41,316,212929,1,0,0:0:0:0:
80,344,213006,6,0,L|208:344,1,113.999996520996,8|0,0:0|0:0,0:0:0:0:
152,176,213314,1,0,0:0:0:0:
416,336,213468,2,0,B|432:280|432:280|400:216,1,113.999996520996,8|0,0:0|0:0,0:0:0:0:
208,120,213776,1,0,0:0:0:0:
384,48,213929,1,0,0:0:0:0:
248,320,214083,2,0,P|208:288|224:216,1,113.999996520996,8|0,0:0|0:0,0:0:0:0:
416,192,214391,5,2,0:0:0:0:
383,159,214468,1,2,0:0:0:0:
343,139,214545,1,2,0:0:0:0:
298,144,214622,1,2,0:0:0:0:
253,152,214699,1,2,0:0:0:0:
208,150,214776,1,2,0:0:0:0:
166,133,214853,5,2,0:0:0:0:
134,101,214929,1,2,0:0:0:0:
94,89,215006,1,2,0:0:0:0:
51,104,215083,1,2,0:0:0:0:
29,143,215160,1,2,0:0:0:0:
27,188,215237,1,2,0:0:0:0:
40,231,215314,6,0,P|104:256|192:224,1,113.999996520996,8|0,0:0|0:0,0:0:0:0:
232,220,215622,5,2,0:0:0:0:
277,225,215699,1,2,0:0:0:0:
319,242,215776,1,2,0:0:0:0:
363,247,215853,1,2,0:0:0:0:
400,221,215929,1,2,0:0:0:0:
417,179,216006,1,2,0:0:0:0:
408,135,216083,5,2,0:0:0:0:
377,103,216160,1,2,0:0:0:0:
335,86,216237,1,2,0:0:0:0:
289,80,216314,1,2,0:0:0:0:
244,82,216391,1,2,0:0:0:0:
200,96,216468,1,2,0:0:0:0:
164,120,216545,6,0,P|168:216|200:240,1,113.999996520996,8|0,0:0|0:0,0:0:0:0:
368,344,216853,1,0,0:0:0:0:
304,120,217006,1,8,0:0:0:0:
200,344,217160,1,0,0:0:0:0:
312,216,217314,6,0,L|240:192,1,56.9999982604981,8|0,0:0|0:0,0:0:0:0:
168,280,217468,6,0,L|192:208,1,56.9999982604981,8|0,0:0|0:0,0:0:0:0:
104,136,217622,6,0,L|176:160,1,56.9999982604981,8|0,0:0|0:0,0:0:0:0:
248,72,217776,6,0,L|224:144,1,56.9999982604981,8|0,0:0|0:0,0:0:0:0:
168,280,217929,5,8,0:0:0:0:
376,160,218083,1,0,0:0:0:0:
56,208,218237,1,8,0:0:0:0:
320,336,218391,1,0,0:0:0:0:
328,48,218545,1,8,0:0:0:0:
32,200,218699,1,0,0:0:0:0:
400,304,218853,1,8,0:0:0:0:
144,96,219006,5,2,0:0:0:0:
144,130,219083,1,2,0:0:0:0:
144,164,219160,1,2,0:0:0:0:
144,198,219237,1,2,0:0:0:0:
144,232,219314,1,2,0:0:0:0:
144,267,219391,1,2,0:0:0:0:
144,304,219468,5,2,0:0:0:0:
186,294,219545,1,2,0:0:0:0:
225,270,219622,1,2,0:0:0:0:
269,260,219699,1,2,0:0:0:0:
315,263,219776,1,2,0:0:0:0:
360,272,219853,1,2,0:0:0:0:
396,266,219929,5,2,0:0:0:0:
372,227,220006,1,2,0:0:0:0:
352,187,220083,1,2,0:0:0:0:
350,142,220160,1,2,0:0:0:0:
373,103,220237,6,0,P|285:55|264:56,1,113.999996520996,8|0,0:0|0:0,0:0:0:0:
48,88,220545,1,0,0:0:0:0:
184,320,220699,2,0,B|264:344|264:344|200:288|200:176,1,227.999993041992,8|0,0:0|0:0,0:0:0:0:
256,144,221160,5,8,0:0:0:0:
64,280,221314,1,8,0:0:0:0:
296,48,221468,1,12,0:0:0:0:
368,328,221776,6,0,B|408:280|408:280|376:240,1,113.999996520996,8|0,0:0|0:0,0:0:0:0:
64,56,222083,5,2,0:0:0:0:
64,88,222160,1,2,0:0:0:0:
64,120,222237,1,8,0:0:0:0:
200,304,222391,1,0,0:0:0:0:
232,128,222545,1,0,0:0:0:0:
400,136,223006,5,0,0:0:0:0:
400,168,223083,1,0,0:0:0:0:
400,200,223160,2,0,P|320:232|272:208,1,113.999996520996,8|0,0:0|0:0,0:0:0:0:
176,120,223468,5,0,0:0:0:0:
256,312,223622,1,0,0:0:0:0:
176,320,223929,5,0,0:0:0:0:
304,112,224083,1,0,0:0:0:0:
80,192,224237,1,0,0:0:0:0:
376,184,224391,5,8,0:0:0:0:
136,96,224545,1,0,0:0:0:0:
296,336,224699,5,0,0:0:0:0:
208,64,224853,1,0,0:0:0:0:
136,312,225006,5,8,0:0:0:0:
288,72,225160,1,0,0:0:0:0:
288,72,225314,6,0,P|344:104|352:168,1,113.999996520996
355,148,225545,1,0,0:0:0:0:
355,148,225622,1,8,0:0:0:0:
72,160,225776,1,0,0:0:0:0:
176,312,225929,1,0,0:0:0:0:
240,112,226083,1,0,0:0:0:0:
64,296,226237,1,8,0:0:0:0:
384,200,226391,1,0,0:0:0:0:
448,296,226699,6,0,L|448:232,1,56.9999982604981
448,160,226853,2,0,P|432:144|384:128,1,56.9999982604981,8|0,0:0|0:0,0:0:0:0:
88,240,227160,6,0,L|216:168,1,113.999996520996
104,88,227468,1,8,0:0:0:0:
216,288,227622,2,0,P|280:264|296:240,1,82.6500006936264
104,88,227929,5,0,0:0:0:0:
144,272,228083,1,8,0:0:0:0:
328,48,228237,5,0,0:0:0:0:
216,216,228391,1,0,0:0:0:0:
224,40,228545,1,0,0:0:0:0:
336,208,228699,1,8,0:0:0:0:
104,88,228853,1,0,0:0:0:0:
216,216,229006,5,0,0:0:0:0:
432,80,229160,1,0,0:0:0:0:
392,296,229314,1,8,0:0:0:0:
448,64,229468,5,0,0:0:0:0:
144,304,229622,2,0,P|120:248|128:192,1,82.6500006936264
119,227,229853,1,0,0:0:0:0:
119,227,229929,1,8,0:0:0:0:
160,128,230083,6,0,B|208:144|208:144|232:192,1,82.6500006936264
360,104,230391,1,0,0:0:0:0:
272,272,230545,1,8,0:0:0:0:
288,64,230699,1,0,0:0:0:0:
336,320,230853,1,0,0:0:0:0:
352,32,231006,1,0,0:0:0:0:
192,272,231160,1,8,0:0:0:0:
232,72,231314,5,0,0:0:0:0:
288,320,231468,1,4,0:0:0:0:
288,288,231545,1,0,0:0:0:0:
288,256,231622,1,0,0:0:0:0:
64,128,231776,5,8,0:0:0:0:
200,336,231929,1,0,0:0:0:0:
200,80,232237,5,8,0:0:0:0:
416,160,232545,6,0,P|360:200|312:200,1,82.6500006936264
347,202,232776,1,0,0:0:0:0:
347,202,232853,1,0,0:0:0:0:
64,104,233006,1,8,0:0:0:0:
128,336,233160,1,0,0:0:0:0:
256,64,233314,1,0,0:0:0:0:
48,240,233468,1,0,0:0:0:0:
336,256,233622,1,8,0:0:0:0:
128,64,233776,1,0,0:0:0:0:
288,80,233929,5,0,0:0:0:0:
232,328,234083,1,0,0:0:0:0:
112,48,234237,1,8,0:0:0:0:
312,272,234391,1,0,0:0:0:0:
40,192,234545,1,0,0:0:0:0:
368,192,234699,1,0,0:0:0:0:
408,192,234776,1,0,0:0:0:0:
439,165,234853,1,8,0:0:0:0:
444,125,234929,1,0,0:0:0:0:
422,91,235006,6,0,L|422:203,1,82.6500006936264,4|0,0:0|0:0,0:0:0:0:
224,104,235314,1,0,0:0:0:0:
384,264,235468,1,8,0:0:0:0:
320,88,235622,1,0,0:0:0:0:
168,256,235776,1,0,0:0:0:0:
384,168,235929,1,0,0:0:0:0:
88,104,236083,1,8,0:0:0:0:
328,344,236237,1,0,0:0:0:0:
448,40,236391,1,4,0:0:0:0:
88,144,236853,5,8,0:0:0:0:
368,216,237160,6,0,B|336:176|336:176|296:248|248:248|216:176|216:176|184:216,1,261.250007972718
168,224,237622,5,0,0:0:0:0:
72,96,237776,1,0,0:0:0:0:
88,304,237929,1,8,0:0:0:0:
240,96,238083,1,0,0:0:0:0:
40,200,238237,1,0,0:0:0:0:
336,256,238391,1,0,0:0:0:0:
128,64,238545,1,8,0:0:0:0:
184,320,238699,1,0,0:0:0:0:
309,76,238853,5,0,0:0:0:0:
341,77,238930,1,0,0:0:0:0:
366,95,239006,1,0,0:0:0:0:
384,120,239083,1,0,0:0:0:0:
383,150,239160,1,0,0:0:0:0:
366,177,239237,1,0,0:0:0:0:
348,202,239314,1,0,0:0:0:0:
336,231,239391,1,0,0:0:0:0:
338,260,239468,5,0,0:0:0:0:
293,277,239545,1,0,0:0:0:0:
246,260,239622,1,0,0:0:0:0:
224,215,239699,1,0,0:0:0:0:
253,176,239776,1,0,0:0:0:0:
290,207,239852,1,0,0:0:0:0:
335,194,239929,1,0,0:0:0:0:
364,153,240006,1,0,0:0:0:0:
381,107,240083,1,4,0:0:0:0:
256,192,240237,12,0,242545,0:0:0:0:
80,88,252391,6,0,B|160:56|160:56|120:144|120:144|192:112|216:136|136:168|176:232,1,341.999989562989,4|0,0:0|0:0,0:0:0:0:
264,312,253622,6,0,B|352:352|352:352|304:264|304:264|360:280|448:232|400:128|352:120,1,427.499986953736,4|0,0:0|0:0,0:0:0:0:
320,112,254853,1,0,0:0:0:0:
104,80,255160,5,8,0:0:0:0:
168,224,255314,1,0,0:0:0:0:
272,104,255622,5,8,0:0:0:0:
80,272,255929,5,8,0:0:0:0:
464,184,256237,6,0,B|464:136|464:136|432:112,2,82.6500006936264
192,104,256699,6,0,L|192:200,2,82.6500006936264
248,328,257160,6,0,P|312:312|344:272,1,82.6500006936264
464,192,257622,5,0,0:0:0:0:
328,96,257929,6,0,P|272:104|248:128,1,82.6500006936264
152,96,258237,6,0,L|152:192,1,82.6500006936264
240,200,258545,6,0,P|288:232|328:216,2,82.6500006936264
384,136,259006,5,0,0:0:0:0:
264,296,259468,5,0,0:0:0:0:
120,224,259776,5,0,0:0:0:0:
91,208,259853,1,0,0:0:0:0:
74,180,259929,1,0,0:0:0:0:
74,148,260006,1,0,0:0:0:0:
90,120,260083,1,0,0:0:0:0:
119,104,260160,1,0,0:0:0:0:
160,104,260237,1,0,0:0:0:0:
199,114,260314,1,0,0:0:0:0:
224,146,260391,5,0,0:0:0:0:
226,186,260468,1,0,0:0:0:0:
217,227,260545,1,0,0:0:0:0:
210,268,260622,1,0,0:0:0:0:
217,308,260699,1,0,0:0:0:0:
247,335,260776,1,0,0:0:0:0:
287,343,260853,1,0,0:0:0:0:
328,337,260929,1,0,0:0:0:0:
360,312,261006,6,0,L|360:216,1,82.6500006936264
360,80,261314,5,8,0:0:0:0:
144,248,261468,1,0,0:0:0:0:
112,56,261776,5,8,0:0:0:0:
336,232,262237,2,0,P|288:272|232:272,1,82.6500006936264
96,296,262545,1,8,0:0:0:0:
112,104,262699,1,0,0:0:0:0:
256,192,262853,1,0,0:0:0:0:
40,232,263006,1,0,0:0:0:0:
232,96,263160,1,8,0:0:0:0:
176,296,263314,1,0,0:0:0:0:
344,160,263468,6,0,P|384:176|416:200,1,82.6500006936264
304,344,263776,1,8,0:0:0:0:
144,184,263929,1,0,0:0:0:0:
304,48,264237,5,8,0:0:0:0:
400,184,264545,6,0,P|352:208|320:208,1,82.6500006936264,4|0,0:0|0:0,0:0:0:0:
323,208,264853,1,0,0:0:0:0:
104,152,265006,1,8,0:0:0:0:
224,296,265160,1,0,0:0:0:0:
200,80,265314,1,0,0:0:0:0:
128,256,265468,1,0,0:0:0:0:
288,120,265622,1,8,0:0:0:0:
64,136,265776,2,0,L|64:232,1,82.6500006936264
128,296,266083,5,0,0:0:0:0:
360,176,266237,1,8,0:0:0:0:
128,112,266391,5,0,0:0:0:0:
376,304,266545,1,0,0:0:0:0:
72,336,266699,5,0,0:0:0:0:
368,112,266853,1,8,0:0:0:0:
32,136,267006,5,0,0:0:0:0:
400,320,267160,1,0,0:0:0:0:
400,320,267314,1,0,0:0:0:0:
400,320,267468,2,0,L|288:272,1,82.6500006936264,8|0,0:0|0:0,0:0:0:0:
224,144,267929,5,8,0:0:0:0:
104,280,268237,5,8,0:0:0:0:
104,64,268545,5,0,0:0:0:0:
88,96,268622,1,0,0:0:0:0:
84,129,268699,1,0,0:0:0:0:
106,158,268776,1,0,0:0:0:0:
142,166,268853,1,0,0:0:0:0:
179,162,268929,1,0,0:0:0:0:
216,156,269006,5,0,0:0:0:0:
252,162,269083,1,0,0:0:0:0:
280,186,269160,1,0,0:0:0:0:
300,217,269237,1,0,0:0:0:0:
319,249,269314,1,0,0:0:0:0:
341,280,269391,1,0,0:0:0:0:
368,305,269468,1,0,0:0:0:0:
403,315,269545,1,0,0:0:0:0:
440,304,269622,6,0,L|440:192,1,82.6500006936264
168,328,269929,1,8,0:0:0:0:
400,96,270083,2,0,L|304:96,1,82.6500006936264
224,264,270391,2,0,L|260:356,1,82.6500006936264,0|8,0:0|0:0,0:0:0:0:
448,248,270699,5,0,0:0:0:0:
477,219,270775,1,0,0:0:0:0:
494,182,270852,1,0,0:0:0:0:
496,141,270929,1,0,0:0:0:0:
482,102,271006,1,0,0:0:0:0:
455,71,271083,1,0,0:0:0:0:
424,48,271160,2,0,L|376:128,1,82.6500006936264,8|0,0:0|0:0,0:0:0:0:
312,96,271468,6,0,L|312:224,1,123.97500104044,2|0,0:0|0:0,0:0:0:0:
256,312,271776,6,0,P|208:256|208:208,1,123.97500104044,10|0,0:0|0:0,0:0:0:0:
192,80,272083,6,0,B|144:104|144:104|128:160,1,82.6500006936264
136,131,272314,1,0,0:0:0:0:
136,131,272391,1,8,0:0:0:0:
80,328,272545,5,0,0:0:0:0:
432,272,272853,5,8,0:0:0:0:
424,72,273160,6,0,P|384:96|320:80,1,82.6500006936264
160,72,273468,1,0,0:0:0:0:
304,272,273622,1,8,0:0:0:0:
272,48,273776,1,0,0:0:0:0:
80,216,273929,1,0,0:0:0:0:
344,192,274083,1,0,0:0:0:0:
344,192,274160,1,0,0:0:0:0:
344,192,274237,2,0,L|344:96,1,82.6500006936264,8|0,0:0|0:0,0:0:0:0:
72,88,274545,5,0,0:0:0:0:
80,272,274699,1,0,0:0:0:0:
256,88,274853,1,8,0:0:0:0:
16,184,275006,1,0,0:0:0:0:
232,328,275160,1,0,0:0:0:0:
152,80,275314,1,0,0:0:0:0:
104,328,275468,1,8,0:0:0:0:
296,128,275622,1,0,0:0:0:0:
64,184,275776,5,0,0:0:0:0:
80,200,275853,1,0,0:0:0:0:
96,216,275929,1,0,0:0:0:0:
112,232,276006,1,0,0:0:0:0:
128,248,276083,2,0,L|112:160,1,82.6500006936264,8|0,0:0|0:0,0:0:0:0:
208,304,276391,5,0,0:0:0:0:
408,184,276545,1,0,0:0:0:0:
136,96,276699,1,8,0:0:0:0:
304,352,276853,1,0,0:0:0:0:
360,72,277006,1,0,0:0:0:0:
160,176,277160,5,0,0:0:0:0:
392,320,277314,1,8,0:0:0:0:
288,64,277468,1,0,0:0:0:0:
128,280,277622,1,0,0:0:0:0:
408,232,277776,1,0,0:0:0:0:
176,80,277929,2,0,B|112:96|112:96|160:128|144:192,1,165.300001387253,8|0,0:0|0:0,0:0:0:0:
146,182,278314,1,0,0:0:0:0:
146,182,278391,1,0,0:0:0:0:
208,304,278545,5,8,0:0:0:0:
224,304,278622,1,0,0:0:0:0:
240,304,278699,1,0,0:0:0:0:
256,304,278776,1,0,0:0:0:0:
272,304,278853,1,0,0:0:0:0:
376,184,279006,5,0,0:0:0:0:
128,48,279160,1,8,0:0:0:0:
208,240,279314,1,0,0:0:0:0:
400,56,279468,2,0,B|392:112|392:112|352:64|352:64|336:104|296:104,1,165.300001387253,0|8,0:0|0:0,0:0:0:0:
176,96,279929,5,0,0:0:0:0:
248,256,280083,1,0,0:0:0:0:
256,40,280237,1,0,0:0:0:0:
136,304,280391,1,8,0:0:0:0:
408,192,280545,1,0,0:0:0:0:
96,144,280699,1,0,0:0:0:0:
96,144,280776,1,0,0:0:0:0:
96,144,280853,1,0,0:0:0:0:
248,328,281006,5,8,0:0:0:0:
304,104,281160,1,0,0:0:0:0:
136,216,281314,1,0,0:0:0:0:
368,288,281468,1,0,0:0:0:0:
240,48,281622,1,8,0:0:0:0:
208,256,281776,1,0,0:0:0:0:
392,136,281929,1,0,0:0:0:0:
392,120,282006,1,0,0:0:0:0:
392,104,282083,1,0,0:0:0:0:
280,216,282237,5,8,0:0:0:0:
280,232,282314,1,0,0:0:0:0:
280,248,282391,1,0,0:0:0:0:
104,136,282545,5,0,0:0:0:0:
96,172,282622,1,0,0:0:0:0:
103,208,282699,1,0,0:0:0:0:
124,238,282776,1,0,0:0:0:0:
155,258,282853,1,0,0:0:0:0:
192,264,282929,1,0,0:0:0:0:
223,254,283006,1,0,0:0:0:0:
256,253,283083,1,0,0:0:0:0:
288,261,283160,6,8,L|288:160,1,82.6500006936264
288,88,283468,1,8,0:0:0:0:
80,88,283776,5,0,0:0:0:0:
176,280,283929,1,0,0:0:0:0:
320,304,284237,6,0,B|296:280|296:280|352:256|352:256|312:224|312:224|376:232|336:152,1,237.5
328,88,285160,1,0,0:0:0:0:
184,56,285468,6,0,P|112:80|208:120,1,237.5
256,80,286391,1,0,0:0:0:0:
216,248,286699,6,0,B|280:216|296:224|296:224|272:264|272:264|336:256|384:280,1,237.5
448,312,287622,1,0,0:0:0:0:
496,128,287929,5,0,0:0:0:0:
272,48,288237,5,0,0:0:0:0:
192,168,288391,1,0,0:0:0:0:
64,200,289314,5,0,0:0:0:0:
216,248,289929,6,0,B|232:344|232:344|248:288|280:264,1,190
256,144,290853,5,0,0:0:0:0:
352,224,291006,1,0,0:0:0:0:
400,88,291314,5,0,0:0:0:0:
80,144,291776,5,0,0:0:0:0:
160,296,291929,1,0,0:0:0:0:
280,112,292083,1,8,0:0:0:0:
80,240,292237,1,0,0:0:0:0:
360,288,292545,5,8,0:0:0:0:
424,64,292853,5,8,0:0:0:0:
224,104,293160,5,0,0:0:0:0:
201,126,293237,1,0,0:0:0:0:
193,158,293314,1,0,0:0:0:0:
199,191,293391,1,0,0:0:0:0:
222,214,293468,1,0,0:0:0:0:
254,218,293545,1,0,0:0:0:0:
285,212,293622,6,0,L|253:292,1,82.6500006936264
64,144,294083,6,0,P|96:88|144:80,1,82.6500006936264
176,48,294391,1,0,0:0:0:0:
152,296,294545,1,8,0:0:0:0:
312,96,294699,1,0,0:0:0:0:
136,152,294853,1,0,0:0:0:0:
320,296,295006,1,0,0:0:0:0:
248,64,295160,1,8,0:0:0:0:
160,296,295314,1,0,0:0:0:0:
376,160,295468,1,0,0:0:0:0:
376,160,295776,6,0,P|408:208|392:264,1,82.6500006936264,8|0,0:0|0:0,0:0:0:0:
272,320,296083,1,0,0:0:0:0:
224,176,296237,2,0,B|192:80|192:80|192:160|144:224,1,247.950002080879
392,48,297006,5,8,0:0:0:0:
344,256,297160,1,0,0:0:0:0:
112,128,297468,5,8,0:0:0:0:
304,328,297776,5,8,0:0:0:0:
336,96,298083,6,0,P|272:80|240:104,1,82.6500006936264,0|8,0:0|0:0,0:0:0:0:
192,112,298391,2,0,L|216:176,1,41.3250003468132
272,304,298545,1,0,0:0:0:0:
272,304,298622,1,0,0:0:0:0:
272,304,298699,1,0,0:0:0:0:
72,224,298853,1,8,0:0:0:0:
416,184,299160,5,0,0:0:0:0:
112,96,301006,5,0,0:0:0:0:
112,96,301160,2,0,L|232:96,1,82.6500006936264,0|8,0:0|0:0,0:0:0:0:
194,96,301391,1,0,0:0:0:0:
194,96,301468,1,0,0:0:0:0:
336,80,301622,6,0,L|288:120,1,41.3250003468132
104,240,301776,1,0,0:0:0:0:
384,240,301929,1,8,0:0:0:0:
96,144,302083,1,0,0:0:0:0:
232,328,302237,1,0,0:0:0:0:
272,80,302391,1,0,0:0:0:0:
64,272,302545,1,8,0:0:0:0:
384,256,302699,6,0,B|336:304|336:304|344:264|328:208,1,165.300001387253
296,120,303160,1,8,0:0:0:0:
152,288,303314,1,0,0:0:0:0:
312,120,303468,1,0,0:0:0:0:
80,80,303622,1,0,0:0:0:0:
248,288,303776,1,8,0:0:0:0:
232,72,303929,2,0,L|176:144,1,82.6500006936264
181,137,304160,1,0,0:0:0:0:
181,137,304237,1,0,0:0:0:0:
112,288,304391,5,8,0:0:0:0:
384,160,304545,1,0,0:0:0:0:
112,64,304699,5,0,0:0:0:0:
384,336,304853,1,0,0:0:0:0:
408,64,305006,5,8,0:0:0:0:
128,312,305160,2,0,B|88:272|88:272|136:296|208:280,1,165.300001387253
272,160,305622,5,8,0:0:0:0:
272,180,305699,1,0,0:0:0:0:
272,201,305776,1,0,0:0:0:0:
272,221,305853,1,0,0:0:0:0:
272,248,305929,6,0,L|216:248,1,41.3250003468132
152,88,306083,6,0,L|152:160,1,41.3250003468132,8|0,0:0|0:0,0:0:0:0:
368,64,306391,6,0,B|400:112|400:112|368:160|368:160|400:176|448:208|400:280,1,247.950002080879
176,128,307160,5,8,0:0:0:0:
288,312,307314,1,0,0:0:0:0:
320,96,307622,5,8,0:0:0:0:
192,48,307929,5,0,0:0:0:0:
162,62,308006,1,0,0:0:0:0:
138,84,308083,1,0,0:0:0:0:
122,113,308160,1,0,0:0:0:0:
116,146,308237,1,0,0:0:0:0:
120,178,308314,1,0,0:0:0:0:
134,208,308391,2,0,L|232:208,1,82.6500006936264
384,104,308853,6,0,B|344:160|344:160|392:144|440:152,1,165.300001387253
336,304,309314,5,8,0:0:0:0:
280,104,309468,1,0,0:0:0:0:
176,256,309622,2,0,P|128:232|112:200,1,82.6500006936264
352,80,309929,5,8,0:0:0:0:
392,288,310083,2,0,L|312:240,1,82.6500006936264
96,112,310391,1,0,0:0:0:0:
296,88,310545,1,8,0:0:0:0:
136,304,310699,1,0,0:0:0:0:
192,96,310853,1,0,0:0:0:0:
352,232,311006,1,0,0:0:0:0:
144,216,311160,5,8,0:0:0:0:
152,232,311237,1,0,0:0:0:0:
160,248,311314,1,0,0:0:0:0:
168,264,311391,1,0,0:0:0:0:
176,280,311468,2,0,L|264:296,1,82.6500006936264
344,216,311776,5,8,0:0:0:0:
192,96,311929,1,0,0:0:0:0:
352,56,312083,2,0,L|288:128,1,82.6500006936264
176,192,312391,5,8,0:0:0:0:
297,117,312545,1,0,0:0:0:0:
376,256,312699,2,0,B|352:240|352:240|352:272|352:272|328:248|296:240,1,123.97500104044
256,224,313006,1,8,0:0:0:0:
424,40,313160,1,0,0:0:0:0:
88,168,313468,6,0,L|88:256,1,82.6500006936264,0|8,0:0|0:0,0:0:0:0:
400,336,313929,5,0,0:0:0:0:
208,72,314083,1,0,0:0:0:0:
416,224,314237,1,8,0:0:0:0:
128,104,314391,1,0,0:0:0:0:
304,336,314699,5,8,0:0:0:0:
392,72,315006,1,8,0:0:0:0:
64,296,315314,5,0,0:0:0:0:
288,112,315468,1,8,0:0:0:0:
232,320,315622,1,0,0:0:0:0:
136,128,315776,1,0,0:0:0:0:
424,216,315929,1,0,0:0:0:0:
336,64,316237,6,0,P|400:72|440:88,1,82.6500006936264
416,77,316468,1,0,0:0:0:0:
416,77,316545,1,0,0:0:0:0:
328,232,316699,1,8,0:0:0:0:
104,128,316853,1,0,0:0:0:0:
248,72,317006,5,0,0:0:0:0:
80,312,317160,1,0,0:0:0:0:
336,152,317314,1,8,0:0:0:0:
48,168,317468,2,0,B|72:216|72:216|112:240,1,82.6500006936264
304,304,317776,1,0,0:0:0:0:
176,80,317929,1,8,0:0:0:0:
168,304,318083,1,0,0:0:0:0:
376,80,318237,6,0,L|288:80,1,82.6500006936264
176,80,318545,1,8,0:0:0:0:
352,240,318699,1,0,0:0:0:0:
64,168,318853,1,0,0:0:0:0:
120,320,319160,5,8,0:0:0:0:
336,88,319314,1,0,0:0:0:0:
72,80,319622,5,8,0:0:0:0:
272,296,319929,1,8,0:0:0:0:
496,248,320237,6,0,P|496:184|480:160,1,82.6500006936264,0|8,0:0|0:0,0:0:0:0:
408,72,320545,1,0,0:0:0:0:
272,296,320699,1,0,0:0:0:0:
168,120,320853,1,0,0:0:0:0:
400,216,321006,1,8,0:0:0:0:
136,264,321160,1,0,0:0:0:0:
264,104,321314,2,0,L|368:104,1,82.6500006936264
346,104,321545,1,0,0:0:0:0:
346,104,321622,1,8,0:0:0:0:
168,120,321776,5,0,0:0:0:0:
208,328,322083,1,8,0:0:0:0:
400,168,322391,6,0,P|416:120|320:80,1,165.300001387253
128,168,322853,5,8,0:0:0:0:
176,248,323006,1,0,0:0:0:0:
88,248,323160,2,0,B|104:296|104:296|160:320,1,82.6500006936264
232,312,323468,6,0,L|172:243,1,82.6500006936264,8|0,0:0|0:0,0:0:0:0:
88,160,323776,5,0,0:0:0:0:
416,144,323929,1,0,0:0:0:0:
360,320,324083,5,8,0:0:0:0:
176,64,324237,1,0,0:0:0:0:
368,336,324545,5,8,0:0:0:0:
88,160,324853,6,0,P|128:96|144:152,1,165.300001387253
144,184,325237,5,0,0:0:0:0:
136,224,325314,1,0,0:0:0:0:
138,265,325391,1,0,0:0:0:0:
154,303,325468,1,0,0:0:0:0:
188,325,325545,1,0,0:0:0:0:
229,323,325622,6,0,L|232:256,1,41.3250003468132
240,152,325776,2,0,L|200:192,1,41.3250003468132
344,288,325929,2,0,L|328:232,1,41.3250003468132
400,96,326083,2,0,L|400:152,1,41.3250003468132
304,72,326237,2,0,B|256:40|256:40|256:80,1,82.6500006936264
152,224,326545,5,8,0:0:0:0:
352,128,326699,1,0,0:0:0:0:
112,232,326853,1,0,0:0:0:0:
384,320,327006,1,0,0:0:0:0:
72,240,327160,1,8,0:0:0:0:
368,120,327314,6,0,B|344:168|344:168|304:176,1,82.6500006936264
56,136,327622,1,0,0:0:0:0:
312,336,327776,1,8,0:0:0:0:
224,48,327929,1,0,0:0:0:0:
144,328,328083,6,0,P|200:312|224:280,1,82.6500006936264
312,200,328391,1,8,0:0:0:0:
72,256,328545,1,0,0:0:0:0:
288,72,328699,1,0,0:0:0:0:
144,328,328853,1,0,0:0:0:0:
96,64,329006,1,8,0:0:0:0:
384,264,329160,1,0,0:0:0:0:
344,304,329468,5,8,0:0:0:0:
112,320,329776,6,0,P|64:264|144:224,1,165.300001387253
168,216,330160,1,0,0:0:0:0:
209,213,330237,1,0,0:0:0:0:
247,198,330314,1,0,0:0:0:0:
273,167,330391,1,0,0:0:0:0:
276,126,330468,1,0,0:0:0:0:
260,89,330545,6,0,L|224:112,1,41.3250003468132
72,192,330699,2,0,L|132:160,1,41.3250003468132,8|0,0:0|0:0,0:0:0:0:
176,312,331006,6,0,L|264:280,1,82.6500006936264
336,256,331314,1,0,0:0:0:0:
200,56,331468,1,8,0:0:0:0:
96,264,331622,1,0,0:0:0:0:
88,72,331776,2,0,L|128:96,1,41.3250003468132
248,160,331929,2,0,L|192:128,1,41.3250003468132
88,72,332083,2,0,L|128:96,1,41.3250003468132,8|0,0:0|0:0,0:0:0:0:
160,208,332237,5,4,0:0:0:0:
336,336,332391,1,0,0:0:0:0:
248,64,332545,1,0,0:0:0:0:
136,328,332699,1,8,0:0:0:0:
368,136,332853,1,0,0:0:0:0:
392,312,333006,2,0,L|392:256,1,41.3250003468132
320,248,333160,2,0,L|320:312,1,41.3250003468132
248,312,333314,2,0,L|248:264,1,41.3250003468132,8|0,0:0|0:0,0:0:0:0:
248,120,333468,5,4,0:0:0:0:
8,216,333622,1,0,0:0:0:0:
264,112,333776,1,0,0:0:0:0:
144,312,333929,1,8,0:0:0:0:
128,96,334083,1,0,0:0:0:0:
408,160,334237,2,0,L|360:160,1,41.3250003468132
344,88,334391,2,0,L|392:88,1,41.3250003468132
344,232,334545,2,0,L|400:232,1,41.3250003468132,8|0,0:0|0:0,0:0:0:0:
488,232,334699,5,4,0:0:0:0:
312,344,334853,1,0,0:0:0:0:
232,120,335006,1,0,0:0:0:0:
416,312,335160,1,8,0:0:0:0:
80,200,335314,1,0,0:0:0:0:
336,160,335468,1,0,0:0:0:0:
128,336,335622,2,0,B|88:312|88:312|72:256,1,82.6500006936264,0|8,0:0|0:0,0:0:0:0:
400,112,335929,5,0,0:0:0:0:
400,112,336006,1,0,0:0:0:0:
400,112,336083,2,0,P|416:184|400:224,1,82.6500006936264
368,312,336391,1,8,0:0:0:0:
168,144,336545,1,0,0:0:0:0:
240,320,336699,1,0,0:0:0:0:
240,320,336853,1,0,0:0:0:0:
344,104,337006,1,8,0:0:0:0:
448,272,337160,5,0,0:0:0:0:
208,96,337314,1,0,0:0:0:0:
440,168,337468,1,0,0:0:0:0:
128,224,337622,2,0,P|72:200|64:136,1,123.97500104044,10|0,0:0|0:0,0:0:0:0:
208,144,337929,2,0,P|256:136|328:160,1,123.97500104044,2|0,0:0|0:0,0:0:0:0:
256,240,338237,2,0,P|320:256|392:224,1,123.97500104044,10|0,0:0|0:0,0:0:0:0:
408,216,338545,5,8,0:0:0:0:
136,152,338699,1,8,0:0:0:0:
384,72,338853,1,8,0:0:0:0:
312,336,339006,1,8,0:0:0:0:
400,56,339160,1,8,0:0:0:0:
112,160,339314,1,8,0:0:0:0:
416,40,339468,1,8,0:0:0:0:
312,336,339622,2,0,B|240:312|240:312|312:304|344:272,1,165.300001387253
432,232,340083,6,0,L|384:224,1,41.3250003468132,8|0,0:0|0:0,0:0:0:0:
304,40,340237,2,0,L|256:80,1,41.3250003468132
256,240,340391,2,0,L|224:208,1,41.3250003468132
40,112,340545,2,0,L|56:176,1,41.3250003468132
96,328,340699,5,8,0:0:0:0:
157,323,340776,1,0,0:0:0:0:
214,300,340853,1,0,0:0:0:0:
261,259,340929,1,0,0:0:0:0:
293,206,341006,2,0,L|187:207,1,95
96,112,341468,5,0,0:0:0:0:
320,96,341776,1,0,0:0:0:0:
400,192,342083,6,0,P|408:248|336:304,1,142.5
80,176,343006,5,0,0:0:0:0:
80,176,343160,2,0,P|128:136|176:128,1,95
328,104,343776,5,0,0:0:0:0:
376,208,343929,2,0,L|264:208,1,95
72,280,344545,6,0,P|120:320|208:264,1,165.300001387253
184,128,345006,5,8,0:0:0:0:
384,240,345160,1,0,0:0:0:0:
384,240,345237,1,0,0:0:0:0:
384,240,345314,1,0,0:0:0:0:
80,232,345468,1,0,0:0:0:0:
304,80,345622,1,8,0:0:0:0:
224,328,345776,1,0,0:0:0:0:
104,152,345929,2,0,L|216:128,1,95
288,112,346391,5,0,0:0:0:0:
128,312,346699,5,0,0:0:0:0:
464,232,347006,2,0,L|464:120,1,95
416,72,347468,2,0,P|376:56|352:64,1,47.5
192,88,347776,5,0,0:0:0:0:
304,288,347929,1,0,0:0:0:0:
128,224,348391,5,8,0:0:0:0:
256,96,348545,1,0,0:0:0:0:
304,280,348699,1,0,0:0:0:0:
96,112,348853,5,8,0:0:0:0:
400,160,349006,1,0,0:0:0:0:
176,336,349160,1,0,0:0:0:0:
176,56,349314,5,8,0:0:0:0:
360,320,349468,1,0,0:0:0:0:
32,184,349622,1,0,0:0:0:0:
384,72,349776,2,0,B|424:136|424:136|360:112,1,142.5,8|4,0:0|0:0,0:0:0:0:
256,192,350853,12,0,355776,0:0:0:0:
