osu file format v14

[General]
AudioFilename: audio.mp3
AudioLeadIn: 0
PreviewTime: 98672
Countdown: 1
SampleSet: Soft
StackLeniency: 0.7
Mode: 0
LetterboxInBreaks: 0
WidescreenStoryboard: 0

[Editor]
DistanceSpacing: 1.9
BeatDivisor: 4
GridSize: 4
TimelineZoom: 1

[Metadata]
Title:Core of Spark
TitleUnicode:Core of Spark
Artist:Nakamura Meiko
ArtistUnicode:仲村芽衣子
Creator:Lortus
Version:Dash the Heart
Source:
Tags:Brightness Future
BeatmapID:1676639
BeatmapSetID:798420

[Difficulty]
HPDrainRate:6
CircleSize:4
OverallDifficulty:8
ApproachRate:9.7
SliderMultiplier:1.88
SliderTickRate:1

[Events]
//Background and Video events
0,0,"bg.jpg",0,0
//Break Periods
2,1486,3253
2,139332,146022
2,242717,249407
2,284409,288791
//Storyboard Layer 0 (Background)
//Storyboard Layer 1 (Fail)
//Storyboard Layer 2 (Pass)
//Storyboard Layer 3 (Foreground)
//Storyboard Sound Samples

[TimingPoints]
56,307.692307692308,4,2,1,40,1,0
1286,-500,4,2,0,20,0,0
3748,-500,4,2,10,40,0,0
4363,-500,4,2,10,20,0,0
6209,-500,4,2,10,40,0,0
6825,-500,4,2,10,10,0,0
7440,-270.27027027027,4,2,0,20,0,0
8056,-270.27027027027,4,2,0,10,0,0
8671,-500,4,2,11,40,0,0
8748,-500,4,2,11,10,0,0
11132,-270.27027027027,4,2,12,40,0,0
15132,-270.27027027027,4,2,0,10,0,0
15440,-133.333333333333,4,2,0,50,0,0
18517,-100,4,2,1,50,0,0
19594,-133.333333333333,4,2,0,50,0,0
21440,-133.333333333333,4,2,1,50,0,0
21902,-133.333333333333,4,2,0,50,0,0
25902,-500,4,2,0,50,0,0
29594,-100,4,2,1,70,0,0
45902,-142.857142857143,4,2,1,70,0,0
50825,-133.333333333333,4,2,2,60,0,0
55671,-133.333333333333,4,2,2,10,0,0
55748,-133.333333333333,4,2,2,60,0,0
57902,-83.3333333333333,4,2,1,70,0,0
58979,-100,4,2,1,70,0,0
59902,-200,4,2,1,70,0,0
60363,-100,4,2,1,70,0,0
70517,-66.6666666666667,4,2,1,70,0,0
70825,-100,4,2,1,70,0,0
72979,-66.6666666666667,4,2,1,70,0,0
73286,-100,4,2,1,70,0,0
75440,-66.6666666666667,4,2,1,70,0,0
75748,-100,4,2,1,70,0,0
85209,-100,4,2,1,10,0,0
85286,-100,4,2,1,70,0,0
90979,-166.666666666667,4,2,1,70,0,0
91748,-166.666666666667,4,2,0,43,0,0
95902,-100,4,2,1,70,0,0
98825,-133.333333333333,4,2,1,70,0,0
99594,-76.9230769230769,4,1,1,71,0,1
100056,-90.9090909090909,4,1,1,71,0,1
108209,-76.9230769230769,4,1,1,71,0,1
108671,-90.9090909090909,4,1,1,71,0,0
109440,-83.3333333333333,4,1,1,71,0,1
109902,-90.9090909090909,4,1,1,71,0,1
118056,-76.9230769230769,4,1,1,71,0,1
118517,-90.9090909090909,4,1,1,71,0,1
119748,-100,4,1,1,70,0,0
126440,-100,4,1,1,10,0,0
126517,-100,4,1,1,70,0,0
127902,-90.9090909090909,4,1,1,70,0,0
128363,-100,4,1,1,70,0,0
130517,-95.2380952380952,4,1,1,70,0,0
131748,-90.9090909090909,4,1,1,70,0,0
132979,-86.9565217391304,4,1,1,70,0,0
134209,-83.3333333333333,4,1,1,70,0,0
135440,-79.9999999999999,4,1,1,70,0,0
136671,-76.9230769230769,4,1,1,70,0,0
137902,-74.0740740740741,4,1,1,70,0,0
138517,-71.4285714285714,4,1,1,70,0,0
146517,-200,4,2,0,50,0,0
146825,-83.3333333333333,4,2,1,70,0,0
147594,-100,4,2,1,70,0,0
155363,-100,4,2,1,10,0,0
155440,-100,4,2,1,70,0,0
159132,-66.6666666666667,4,2,1,70,0,0
159440,-100,4,2,1,70,0,0
161594,-66.6666666666667,4,2,1,70,0,0
161902,-100,4,2,1,70,0,0
164056,-66.6666666666667,4,2,1,70,0,0
164363,-100,4,2,1,70,0,0
173825,-100,4,2,1,10,0,0
173902,-100,4,2,1,70,0,0
182056,-66.6666666666667,4,2,1,70,0,0
183286,-76.9230769230769,4,1,1,71,0,1
183748,-90.9090909090909,4,1,1,71,0,1
191902,-76.9230769230769,4,1,1,71,0,1
192363,-90.9090909090909,4,1,1,71,0,0
193132,-76.9230769230769,4,1,1,71,0,1
193594,-90.9090909090909,4,1,1,71,0,1
201748,-76.9230769230769,4,1,1,71,0,1
202209,-90.9090909090909,4,1,1,71,0,1
202979,-200,4,1,1,50,0,0
205440,-333.333333333333,4,1,1,30,0,0
206671,-200,4,2,0,45,0,0
208056,-100,4,2,1,70,0,0
212979,-100,4,1,1,70,0,0
220594,-100,4,1,1,10,0,0
220671,-100,4,1,1,70,0,0
223132,-66.6666666666667,4,1,3,70,0,0
223440,-100,4,1,1,70,0,0
227594,-83.3333333333333,4,1,1,70,0,1
232209,-83.3333333333333,4,1,1,70,0,0
232517,-76.9230769230769,4,1,1,70,0,1
237132,-83.3333333333333,4,1,1,70,0,1
237594,-90.9090909090909,4,1,1,70,0,0
240056,-133.333333333333,4,1,1,40,0,0
241902,-133.333333333333,4,2,0,40,0,0
242517,-133.333333333333,4,2,3,50,0,0
249902,-333.333333333333,4,2,3,50,0,0
251132,-250,4,2,0,50,0,0
251748,-200,4,2,0,50,0,0
252363,-133.333333333333,4,2,0,60,0,0
254825,-111.111111111111,4,2,0,70,0,0
256363,-111.111111111111,4,2,1,70,0,0
257286,-125,4,2,1,70,0,0
260979,-100,4,2,1,70,0,0
261748,-142.857142857143,4,2,1,70,0,0
262209,-100,4,2,1,70,0,0
275748,-83.3333333333333,4,2,1,70,0,0
279748,-66.6666666666667,4,2,1,70,0,0
280056,-83.3333333333333,4,2,1,70,0,0
284209,-100,4,2,4,50,0,0
289286,-333.333333333333,4,2,0,40,0,0
291748,-90.9090909090909,4,2,1,70,0,0
294056,-133.333333333333,4,2,2,50,0,0
296671,-83.3333333333333,4,2,1,70,0,0
297748,-100,4,2,1,70,0,0
299132,-200,4,2,3,50,0,0
299286,-200,4,2,0,40,0,0
300979,-100,4,2,1,70,0,0
301594,-83.3333333333333,4,2,1,70,0,0
303902,-76.9230769230769,4,2,1,70,0,0
306056,-76.9230769230769,4,2,0,70,0,0
306209,-76.9230769230769,4,2,1,70,0,0
306363,-333.333333333333,4,2,5,80,0,0
306825,-76.9230769230769,4,2,1,70,0,1
306902,-76.9230769230769,4,2,1,70,0,0
307594,-66.6666666666667,4,2,1,70,0,1
307671,-66.6666666666667,4,2,1,70,0,0
308056,-76.9230769230769,4,2,1,70,0,0
308517,-200,4,2,1,70,0,0
308825,-74.0740740740741,4,1,1,71,0,1
309286,-86.9565217391304,4,1,1,71,0,1
314979,-71.4285714285714,4,1,1,71,0,1
315440,-86.9565217391304,4,1,1,71,0,0
316209,-74.0740740740741,4,1,1,71,0,1
316671,-86.9565217391304,4,1,1,71,0,1
321286,-95.2380952380952,4,1,1,71,0,1
323748,-90.9090909090909,4,1,1,71,0,1
325594,-90.9090909090909,4,1,1,71,0,0
326209,-83.3333333333333,4,1,1,71,0,1
329748,-76.9230769230769,4,1,1,71,0,1
330979,-90.9090909090909,4,1,1,71,0,1
332209,-74.0740740740741,4,1,1,71,0,1
332671,-83.3333333333333,4,1,1,71,0,1
335132,-90.9090909090909,4,1,1,71,0,1
340979,-90.9090909090909,4,1,1,71,0,0
341286,-133.333333333333,4,2,1,60,0,0
344979,-100,4,2,1,60,0,0
346209,-133.333333333333,4,2,1,60,0,0
347902,-111.111111111111,4,2,1,60,0,0
350209,-199.999999999999,4,2,1,60,0,0
350825,-333.333333333331,4,2,1,30,0,0
355748,-333.333333333331,4,2,1,10,0,0

[Colours]
Combo1 : 104,80,243
Combo2 : 0,0,198
Combo3 : 204,204,204
Combo4 : 84,226,208

[HitObjects]
255,192,1286,5,4,0:1:0:0:
255,192,3748,5,4,0:0:0:0:
129,75,4363,1,0,0:0:0:0:
253,293,4979,1,0,0:0:0:0:
460,144,5594,1,2,0:0:0:0:
455,164,6209,2,0,L|375:174,1,75.2,4|0,0:0|0:0,0:0:0:0:
103,345,7440,6,0,L|118:197,1,139.120003396484,2|0,0:0|0:0,0:0:0:0:
19,52,8671,2,0,P|127:53|173:148,1,225.6,4|0,0:0|0:0,0:0:0:0:
491,138,11132,6,0,B|447:199|354:166|354:166|312:205|312:205|303:96|235:53|158:70|118:133|127:186|178:224|214:189,1,556.480013585938,4|4,0:0|0:0,0:0:0:0:
256,192,13671,12,0,15132,0:0:0:0:
484,293,15440,6,0,L|405:285,1,70.5000026893617,2|0,0:1|0:0,0:0:0:0:
286,220,15748,1,2,0:0:0:0:
122,359,15902,1,2,0:0:0:0:
77,256,16056,6,2,B|241:236|177:354|342:328,1,282.000010757447,4|0,0:0|0:0,0:1:0:0:
409,38,16979,2,0,P|404:75|401:118,1,70.5000026893617,2|0,0:0|0:0,0:0:0:0:
456,184,17286,6,2,L|309:197,1,141.000005378723,4|0,0:0|0:0,0:1:0:0:
237,149,17748,2,2,L|226:69,1,70.5000026893617,2|0,0:0|0:0,0:1:0:0:
159,31,18056,2,2,P|90:40|10:46,1,141.000005378723,2|0,0:0|0:0,0:1:0:0:
25,309,18517,6,0,L|146:296,1,94,4|0,0:0|0:0,0:0:0:0:
228,284,18825,1,4,0:0:0:0:
300,50,18979,1,4,0:0:0:0:
465,228,19286,1,4,0:0:0:0:
506,149,19594,6,0,P|373:161|312:299,1,282.000010757447,4|0,0:0|0:0,0:0:0:0:
243,351,20363,1,2,0:0:0:0:
214,207,20671,1,2,0:0:0:0:
256,117,20825,1,2,0:0:0:0:
197,37,20979,6,0,P|147:46|25:48,1,141.000005378723,4|0,0:0|0:0,0:0:0:0:
23,168,21440,2,0,L|100:173,1,70.5000026893617,2|8,0:0|0:0,0:0:0:0:
176,268,21748,1,4,0:0:0:0:
176,268,21902,2,0,L|99:273,1,70.5000026893617,2|0,0:0|0:0,0:0:0:0:
195,144,22209,6,0,L|343:155,1,141.000005378723,4|0,1:2|0:0,0:0:0:0:
491,219,22671,2,0,P|417:224|372:279,1,141.000005378723,4|0,1:2|0:0,0:0:0:0:
285,345,23132,2,0,P|282:306|275:266,1,70.5000026893617,4|0,1:2|0:0,0:0:0:0:
117,300,23440,5,4,1:0:0:0:
65,82,24056,2,0,L|147:92,1,70.5000026893617,4|0,1:2|0:0,0:0:0:0:
346,45,24363,2,0,L|264:55,1,70.5000026893617,4|0,1:2|0:0,0:0:0:0:
47,213,24671,5,6,1:2:0:0:
161,211,24979,1,2,1:2:0:0:
299,338,25132,1,2,1:2:0:0:
413,340,25440,1,2,1:2:0:0:
374,77,25902,6,2,B|444:68|481:100|488:158|466:210|419:228|367:213|340:177|340:177|303:215|303:215|264:200|223:207,1,432.4,2|0,0:1|3:0,1:0:0:0:
242,119,29594,6,0,L|135:113,1,94,4|0,0:0|0:0,0:0:0:0:
138,230,29902,2,0,L|31:236,1,94,4|0,0:0|0:0,0:0:0:0:
41,104,30209,1,12,0:0:0:0:
235,331,30363,1,12,0:0:0:0:
475,130,30671,6,0,B|397:124|397:124|345:154|345:154|280:150,1,188,4|2,0:0|0:0,0:0:0:0:
138,57,31132,2,0,L|239:48,1,94,8|0,0:0|0:0,0:0:0:0:
231,48,31363,1,8,0:0:0:0:
231,48,31440,1,10,0:0:0:0:
154,186,31594,2,0,L|60:177,1,94,2|8,0:0|0:0,0:0:0:0:
289,195,31902,6,0,P|356:252|340:356,1,188,4|2,0:0|0:0,0:0:0:0:
151,358,32363,2,0,L|158:258,1,94,8|0,0:0|0:0,0:0:0:0:
157,264,32594,1,8,0:0:0:0:
157,264,32671,1,10,0:0:0:0:
86,42,32825,1,2,0:0:0:0:
134,179,32979,1,8,0:0:0:0:
252,46,33132,6,0,P|347:55|446:58,1,188,4|2,0:0|0:0,0:0:0:0:
468,243,33594,1,8,0:0:0:0:
311,237,33748,1,8,0:0:0:0:
311,237,33825,1,8,0:0:0:0:
311,237,33902,1,10,0:0:0:0:
358,143,34056,1,2,0:0:0:0:
386,315,34209,1,8,0:0:0:0:
209,227,34363,6,0,B|127:233|127:233|87:262|87:262|11:271,1,188,4|2,0:0|0:0,0:0:0:0:
45,59,34825,1,8,0:0:0:0:
155,114,34979,1,8,0:0:0:0:
62,175,35132,1,2,0:0:0:0:
41,33,35286,1,8,0:0:0:0:
249,48,35440,1,8,0:0:0:0:
247,71,35517,1,8,0:0:0:0:
245,94,35594,1,8,0:0:0:0:
243,117,35671,1,8,0:0:0:0:
241,140,35748,6,0,L|232:251,1,94,4|0,0:0|0:0,0:0:0:0:
141,344,36056,2,0,L|133:250,1,94,8|0,0:0|0:0,0:0:0:0:
36,179,36363,2,0,B|62:37|62:37|81:91,1,188,2|8,0:0|0:0,0:0:0:0:
250,115,36825,6,0,P|211:139|156:139,1,94,2|0,0:0|0:0,0:0:0:0:
179,28,37132,1,2,0:0:0:0:
342,47,37286,2,0,L|354:146,1,94,8|0,0:0|0:0,0:0:0:0:
226,218,37594,1,2,0:0:0:0:
414,202,37748,1,0,0:0:0:0:
333,372,37902,1,8,0:0:0:0:
327,263,38056,1,0,0:0:0:0:
199,312,38209,5,12,0:0:0:0:
312,159,38363,1,2,0:0:0:0:
134,237,38517,1,8,0:0:0:0:
258,82,38671,5,12,0:0:0:0:
297,299,38825,1,8,0:0:0:0:
125,140,38979,1,8,0:0:0:0:
348,71,39132,1,8,0:0:0:0:
63,268,39286,6,0,B|208:239|208:239|170:286,1,188,12|2,0:0|0:0,0:0:0:0:
357,349,39748,2,0,P|343:300|333:242,1,94,12|0,0:0|0:0,0:0:0:0:
192,26,40056,2,0,L|183:87,1,47,12|0,0:0|0:0,0:0:0:0:
152,154,40209,1,12,0:0:0:0:
197,164,40286,1,8,0:0:0:0:
243,159,40363,1,8,0:0:0:0:
285,139,40440,1,8,0:0:0:0:
327,118,40517,1,8,0:0:0:0:
373,115,40594,1,8,0:0:0:0:
418,126,40671,5,4,1:0:0:0:
461,240,40979,1,2,0:0:0:0:
444,244,41594,1,2,0:0:0:0:
422,251,42209,1,2,0:0:0:0:
405,255,42824,1,2,0:0:0:0:
68,155,43440,5,2,0:0:0:0:
85,159,44055,1,2,0:0:0:0:
209,46,44209,6,0,L|108:58,1,94,8|0,0:0|0:0,0:0:0:0:
68,264,44517,1,2,0:0:0:0:
154,331,44671,2,0,P|172:288|169:232,1,94,8|2,0:0|1:2,0:0:0:0:
171,241,44902,1,0,1:0:0:0:
171,241,44979,1,0,1:0:0:0:
68,264,45132,1,8,1:2:0:0:
272,323,45286,1,4,1:2:0:0:
228,118,45440,1,8,1:2:0:0:
154,331,45594,5,4,1:0:0:0:
346,46,45902,1,2,0:0:0:0:
346,46,46056,2,0,L|359:123,1,65.7999979919434
451,137,46363,2,0,L|438:214,1,65.7999979919434,0|2,0:0|0:0,0:0:0:0:
468,293,46671,6,0,L|321:280,1,131.599995983887
239,277,47132,2,0,L|252:356,1,65.7999979919434,2|0,0:0|0:0,0:0:0:0:
66,226,47440,1,0,0:0:0:0:
66,226,47594,2,0,P|113:194|200:213,1,131.599995983887
140,291,48056,5,12,0:0:0:0:
143,94,48209,1,2,0:0:0:0:
315,192,48363,1,2,0:0:0:0:
218,37,48517,5,12,0:0:0:0:
254,266,48671,1,2,0:0:0:0:
436,133,48825,1,2,0:0:0:0:
330,326,48979,5,12,0:0:0:0:
312,101,49132,1,2,0:0:0:0:
120,222,49286,1,2,0:0:0:0:
304,194,49440,5,12,0:0:0:0:
196,134,49594,1,2,0:0:0:0:
206,255,49748,1,2,0:0:0:0:
226,44,49902,6,2,B|158:18|104:73|104:73|76:51|38:55,1,197.39999397583,4|0,0:0|1:0,0:2:0:0:
54,136,50440,1,0,1:2:0:0:
59,150,50517,1,4,1:2:0:0:
39,286,50825,2,0,P|99:295|161:311,1,105.750004034043,8|0,0:0|0:0,0:0:0:0:
176,292,51132,1,2,0:0:0:0:
290,268,51286,2,0,P|281:311|279:355,1,70.5000026893617,2|8,0:0|0:0,0:0:0:0:
277,178,51594,6,0,P|352:195|444:211,1,141.000005378723,2|2,0:0|0:0,0:0:0:0:
491,139,52056,1,8,0:0:0:0:
393,29,52209,1,8,0:0:0:0:
391,43,52286,1,2,0:0:0:0:
389,57,52363,1,10,0:0:0:0:
279,36,52517,1,2,0:0:0:0:
255,131,52671,2,0,P|221:143|162:142,1,70.5000026893617,8|0,0:0|0:0,0:0:0:0:
142,60,52979,6,0,P|100:98|101:193,1,141.000005378723,2|8,0:0|0:0,0:0:0:0:
80,274,53440,2,0,P|117:268|164:266,1,70.5000026893617,0|2,0:0|0:0,0:0:0:0:
238,221,53748,1,2,0:0:0:0:
238,221,53902,2,0,P|250:260|243:300,1,70.5000026893617,8|0,0:0|0:0,0:0:0:0:
176,357,54209,5,6,0:0:0:0:
459,330,54517,1,8,0:0:0:0:
376,270,54671,1,8,0:0:0:0:
378,256,54748,1,2,0:0:0:0:
376,241,54825,1,10,0:0:0:0:
380,227,54902,1,8,0:0:0:0:
378,212,54979,1,10,0:0:0:0:
463,143,55132,2,0,L|455:67,1,70.5000026893617,8|0,0:0|0:0,0:0:0:0:
379,20,55440,6,0,P|310:35|257:64,1,105.750004034043,2|0,0:0|3:0,0:0:0:0:
205,31,55748,2,0,P|197:68|199:115,1,70.5000026893617,8|0,0:0|0:0,0:0:0:0:
91,108,56056,1,2,0:0:0:0:
91,108,56209,2,0,P|101:146|102:189,1,70.5000026893617,2|8,0:0|0:0,0:0:0:0:
148,357,56517,1,2,0:0:0:0:
38,318,56671,6,0,P|41:278|52:230,1,70.5000026893617,4|2,0:0|0:0,0:0:0:0:
246,207,56979,1,8,0:0:0:0:
290,305,57132,1,8,0:0:0:0:
287,318,57209,1,2,0:0:0:0:
284,331,57286,1,10,0:0:0:0:
178,342,57440,1,2,0:0:0:0:
157,171,57594,2,0,L|147:88,1,70.5000026893617,12|0,0:0|0:0,0:0:0:0:
450,136,57902,6,0,B|326:118|352:223|237:205,1,225.599993115235,6|2,1:0|1:0,1:0:0:0:
148,100,58363,2,0,B|239:82|239:82|215:116,1,112.799996557617,2|0,1:0|0:0,0:0:0:0:
53,269,58671,2,0,B|144:287|144:287|120:253,1,112.799996557617,2|0,1:0|0:0,0:0:0:0:
418,318,58979,6,0,B|403:248|403:248|363:200|363:200|347:122,1,188,6|2,1:0|0:0,0:0:0:0:
204,114,59440,1,8,0:0:0:0:
191,213,59594,1,2,0:0:0:0:
191,213,59671,1,2,0:0:0:0:
191,213,59748,1,10,0:0:0:0:
284,362,59902,6,0,L|300:257,1,94,8|0,1:2|0:0,0:0:0:0:
321,21,60363,6,0,L|307:114,1,94,4|0,0:0|0:0,0:0:0:0:
125,246,60671,2,0,L|218:235,1,94,8|0,0:0|0:0,0:0:0:0:
225,115,60979,1,0,0:0:0:0:
114,135,61132,1,2,0:0:0:0:
225,115,61286,1,0,0:0:0:0:
13,115,61440,6,0,P|70:46|173:57,1,188,4|0,0:0|0:0,0:0:0:0:
114,135,61902,1,8,0:0:0:0:
56,222,62056,1,2,0:0:0:0:
168,332,62209,1,0,0:0:0:0:
208,235,62363,1,2,0:0:0:0:
56,222,62517,2,0,L|74:328,1,94,8|0,0:0|0:0,0:0:0:0:
181,150,62825,6,0,B|286:135|258:219|365:202,1,188,2|8,0:0|0:0,0:0:0:0:
227,326,63286,2,0,P|221:279|196:209,1,94,2|0,0:0|0:0,0:0:0:0:
437,290,63594,2,0,P|441:239|450:186,1,94,2|0,0:0|0:0,0:0:0:0:
339,358,63902,6,0,L|321:158,1,188,4|0,0:0|0:0,0:0:0:0:
341,42,64363,2,0,P|295:33|238:32,1,94,8|0,0:0|0:0,0:0:0:0:
113,208,64671,1,0,0:0:0:0:
192,115,64825,1,2,0:0:0:0:
38,43,64979,2,0,L|50:141,1,94,8|0,0:0|0:0,0:0:0:0:
33,317,65286,6,0,B|113:207|113:207|124:280,1,188,4|8,0:0|0:0,0:0:0:0:
218,366,65748,1,2,0:0:0:0:
218,366,65902,2,0,L|198:260,1,94,0|2,0:0|0:0,0:0:0:0:
257,168,66209,2,0,P|348:190|417:200,1,141,8|0,0:0|3:0,0:0:0:0:
477,227,66517,6,0,L|486:326,1,94,4|0,0:0|0:0,0:0:0:0:
307,356,66825,2,0,L|315:262,1,94,8|0,0:0|0:0,0:0:0:0:
336,60,67132,1,2,0:0:0:0:
428,146,67286,1,2,0:0:0:0:
233,221,67440,1,8,0:0:0:0:
164,39,67594,6,0,L|267:51,1,94,4|0,0:0|0:0,0:0:0:0:
141,227,67902,1,2,0:0:0:0:
243,133,68056,1,8,0:0:0:0:
266,266,68209,1,8,0:0:0:0:
266,266,68286,1,8,0:0:0:0:
266,266,68363,1,2,0:0:0:0:
150,129,68517,1,2,0:0:0:0:
51,337,68671,1,8,0:0:0:0:
24,139,68825,6,0,L|139:152,1,94,4|0,0:0|0:0,0:0:0:0:
325,201,69132,2,0,L|203:214,1,94,6|8,0:0|0:0,0:0:0:0:
429,52,69440,1,10,0:0:0:0:
221,111,69594,1,0,0:0:0:0:
399,283,69748,1,10,0:0:0:0:
161,329,69902,1,8,0:0:0:0:
157,310,69979,1,8,0:0:0:0:
153,291,70056,1,8,0:0:0:0:
148,272,70132,1,8,0:0:0:0:
144,253,70209,1,8,0:0:0:0:
105,327,70517,6,0,B|110:270|110:270|125:251|125:251|132:186,1,141.000005378723,4|0,1:0|0:0,0:0:0:0:
59,38,70825,1,2,0:0:0:0:
185,31,70979,2,0,P|197:77|202:132,1,94,0|8,0:0|0:0,0:0:0:0:
317,219,71286,6,0,L|304:27,1,188,2|2,0:0|0:0,0:0:0:0:
490,78,71748,1,8,0:0:0:0:
413,232,71902,1,0,0:0:0:0:
399,124,72056,1,2,0:0:0:0:
493,290,72209,1,0,0:0:0:0:
287,351,72363,2,0,L|301:236,1,94,8|0,0:0|0:0,0:0:0:0:
168,30,72671,1,8,0:0:0:0:
150,20,72979,6,0,L|163:173,1,141.000005378723,4|0,1:0|0:0,0:0:0:0:
30,268,73286,1,2,0:0:0:0:
202,327,73440,2,0,P|158:349|106:346,1,94,0|8,0:0|0:0,0:0:0:0:
290,173,73748,6,0,P|356:229|335:337,1,188,4|2,0:0|0:0,0:0:0:0:
179,220,74209,1,8,0:0:0:0:
284,82,74363,1,0,0:0:0:0:
141,142,74517,1,2,0:0:0:0:
265,269,74671,1,0,0:0:0:0:
379,135,74825,1,8,0:0:0:0:
373,97,74902,1,8,0:0:0:0:
378,78,74979,1,8,0:0:0:0:
371,61,75056,1,8,0:0:0:0:
376,45,75132,1,8,0:0:0:0:
407,37,75440,6,0,L|252:54,1,141.000005378723,4|0,1:0|0:0,0:0:0:0:
74,39,75748,1,2,0:0:0:0:
30,170,75902,2,0,P|77:165|126:151,1,94,0|8,0:0|0:0,0:0:0:0:
250,313,76209,6,0,B|216:182|216:182|193:253,1,188,2|2,0:0|0:0,0:0:0:0:
47,317,76671,2,0,L|145:337,1,94,8|0,0:0|0:0,0:0:0:0:
291,172,76979,1,2,0:0:0:0:
250,313,77132,1,0,0:0:0:0:
127,170,77286,2,0,P|166:143|222:141,1,94,8|0,0:0|0:0,0:0:0:0:
433,258,77594,6,0,L|274:270,1,141,6|0,0:0|0:0,0:0:0:0:
250,313,77902,1,8,0:0:0:0:
297,68,78056,2,0,P|303:120|312:171,1,94,4|0,0:0|0:0,0:0:0:0:
215,316,78363,2,0,P|209:264|200:213,1,94,4|0,0:0|0:0,0:0:0:0:
35,180,78671,6,0,P|97:118|203:137,1,188,4|2,0:0|0:0,0:0:0:0:
121,345,79132,1,8,0:0:0:0:
41,288,79286,1,8,0:0:0:0:
41,288,79363,1,8,0:0:0:0:
41,288,79440,1,2,0:0:0:0:
255,221,79594,1,0,0:0:0:0:
239,324,79748,1,8,0:0:0:0:
225,129,79902,1,2,0:0:0:0:
235,34,80056,5,12,0:0:0:0:
225,24,80363,2,0,P|275:42|336:46,1,94,8|0,0:0|0:0,0:0:0:0:
471,144,80671,1,2,0:0:0:0:
413,34,80825,1,0,0:0:0:0:
329,191,80979,1,8,0:0:0:0:
477,245,81132,6,0,B|368:229|417:304|285:287,1,188,2|2,0:0|0:0,0:0:0:0:
188,123,81594,1,8,0:0:0:0:
198,283,81748,1,0,0:0:0:0:
329,191,81902,1,2,0:0:0:0:
116,239,82056,2,0,P|103:284|103:349,1,94,0|8,0:0|0:0,0:0:0:0:
47,148,82363,1,8,0:0:0:0:
47,148,82440,1,8,0:0:0:0:
47,148,82517,6,0,L|147:140,1,94,4|0,0:0|0:0,0:0:0:0:
284,41,82825,2,0,L|184:33,1,94,8|0,0:0|0:0,0:0:0:0:
179,226,83132,1,2,0:0:0:0:
327,211,83286,1,0,0:0:0:0:
235,142,83440,1,8,0:0:0:0:
281,309,83594,6,0,B|352:303|352:303|411:328|411:328|478:320,1,188,2|2,0:0|0:0,0:0:0:0:
495,184,84056,2,0,L|390:173,1,94,8|0,0:0|0:0,0:0:0:0:
257,159,84363,1,2,0:0:0:0:
322,246,84517,1,0,0:0:0:0:
399,86,84671,1,8,0:0:0:0:
254,32,84825,1,0,0:0:0:0:
254,32,84902,1,0,0:0:0:0:
254,32,84979,6,0,P|178:43|96:47,1,141,4|0,0:0|3:0,0:0:0:0:
33,35,85286,1,8,0:0:0:0:
124,217,85440,2,0,L|136:111,1,94,2|0,0:0|0:0,0:0:0:0:
6,159,85748,1,2,0:0:0:0:
30,313,85902,2,0,L|191:289,1,141,8|0,0:0|0:0,0:0:0:0:
256,270,86209,6,0,L|245:366,1,94,4|0,0:0|0:0,0:0:0:0:
331,190,86517,1,8,0:0:0:0:
404,33,86671,2,0,L|395:81,1,47,4|0,0:0|3:0,0:0:0:0:
364,349,86979,2,0,L|355:302,1,47,4|0,0:0|3:0,0:0:0:0:
500,107,87286,6,0,B|439:97|387:112|387:112|281:105,1,188,4|2,0:0|0:0,0:0:0:0:
155,237,87748,2,0,L|251:228,1,94,8|2,0:0|0:0,0:0:0:0:
246,33,88056,1,8,0:0:0:0:
106,46,88209,1,2,0:0:0:0:
155,237,88363,1,8,0:0:0:0:
186,110,88517,1,2,0:0:0:0:
57,213,88671,5,12,0:0:0:0:
270,153,88825,1,2,0:0:0:0:
105,131,88979,1,8,0:0:0:0:
223,310,89132,1,8,0:0:0:0:
188,64,89286,5,12,0:0:0:0:
319,302,89440,1,8,0:0:0:0:
319,302,89517,1,8,0:0:0:0:
319,302,89594,1,8,0:0:0:0:
77,222,89748,1,2,0:0:0:0:
365,174,89902,5,8,0:0:0:0:
99,85,90056,1,8,0:0:0:0:
99,85,90132,1,8,0:0:0:0:
99,85,90209,1,8,0:0:0:0:
312,28,90363,2,0,L|300:134,1,94,8|0,0:0|0:0,0:0:0:0:
169,354,90671,2,0,L|158:260,1,94,8|0,0:0|0:0,0:0:0:0:
465,186,90979,6,2,L|236:206,1,225.599993115235,4|0,1:0|0:0,1:0:0:0:
172,256,91748,1,2,0:0:0:0:
215,328,91902,1,2,0:0:0:0:
298,340,92056,1,2,0:0:0:0:
373,303,92209,1,2,0:0:0:0:
399,222,92363,5,2,0:0:0:0:
87,61,92825,1,2,0:0:0:0:
357,137,93132,1,2,0:0:0:0:
393,41,93440,6,2,B|244:44|326:109|185:115,1,225.599993115235,2|0,0:0|0:0,0:0:0:0:
91,106,94209,1,2,0:0:0:0:
114,344,94517,1,2,0:0:0:0:
48,274,94825,6,0,P|101:260|164:239,1,112.799996557617,2|2,0:0|0:0,0:0:0:0:
221,168,95286,1,2,0:0:0:0:
461,337,95594,2,0,L|474:259,1,56.3999982788086,2|0,0:0|0:0,0:0:0:0:
487,53,95902,6,0,L|289:76,1,188,4|0,1:0|1:0,0:0:0:0:
161,260,96363,1,8,1:2:0:0:
372,168,96517,1,8,1:2:0:0:
254,324,96671,1,8,1:2:0:0:
169,91,96825,1,8,1:2:0:0:
134,299,96979,1,8,1:2:0:0:
300,74,97132,1,8,1:2:0:0:
354,288,97286,5,12,0:0:0:0:
169,91,97440,1,10,0:0:0:0:
354,288,97594,1,10,0:0:0:0:
88,195,97748,5,12,0:0:0:0:
447,148,97902,1,10,0:0:0:0:
88,195,98056,1,10,0:0:0:0:
431,240,98209,5,12,0:0:0:0:
123,107,98363,1,10,0:0:0:0:
394,60,98517,5,4,1:0:0:0:
118,324,98671,1,4,1:0:0:0:
233,357,98825,6,0,L|219:281,1,70.5000026893617,2|0,1:0|3:0,0:0:0:0:
172,29,99132,1,2,1:0:0:0:
376,335,99286,1,2,1:0:0:0:
401,347,99594,6,2,B|407:273|407:273|460:210|460:210|468:121,1,244.399988812256,4|0,0:3|0:0,0:0:0:0:
194,34,100056,2,0,L|210:146,1,103.400003155518,10|0,0:0|2:0,0:0:0:0:
359,194,100363,1,2,0:0:0:0:
278,39,100517,1,2,0:0:0:0:
235,267,100671,1,8,0:0:0:0:
499,78,100825,6,2,B|359:39|359:39|392:101,1,206.800006311035,6|0,0:0|0:0,0:0:0:0:
457,224,101286,1,10,0:0:0:0:
299,126,101440,1,0,0:0:0:0:
293,153,101517,1,0,0:0:0:0:
288,180,101594,1,2,0:0:0:0:
160,17,101748,2,0,L|176:120,1,103.400003155518,2|8,0:0|0:0,0:0:0:0:
23,332,102056,6,2,P|99:255|212:275,1,206.800006311035,6|0,0:0|0:0,0:0:0:0:
49,168,102517,1,10,0:0:0:0:
266,107,102671,1,0,0:0:0:0:
264,361,102825,1,2,0:0:0:0:
458,128,102979,2,0,L|334:115,1,103.400003155518,2|8,0:0|0:0,0:0:0:0:
110,337,103286,6,0,L|235:322,1,103.400003155518,2|0,0:0|2:0,0:0:0:0:
383,312,103594,1,2,0:0:0:0:
194,44,103748,2,0,P|170:84|177:151,1,103.400003155518,10|0,0:0|2:0,0:0:0:0:
310,275,104056,1,10,0:0:0:0:
360,282,104132,1,0,0:0:0:0:
404,254,104209,1,0,0:0:0:0:
418,204,104286,1,0,0:0:0:0:
389,160,104363,1,10,0:0:0:0:
337,151,104440,1,0,0:0:0:0:
290,173,104517,1,0,0:0:0:0:
238,174,104594,1,0,0:0:0:0:
188,157,104671,6,0,L|169:-1,1,155.100004733277,6|0,0:0|3:0,0:0:0:0:
91,8,104979,2,0,B|75:58|75:58|104:127,1,103.400003155518,10|0,0:0|2:0,0:0:0:0:
235,360,105286,2,0,L|255:198,1,155.100004733277,2|0,0:0|3:0,0:0:0:0:
336,236,105594,2,0,L|449:222,1,103.400003155518,10|0,0:0|2:0,0:0:0:0:
452,112,105902,5,6,0:0:0:0:
364,33,106056,1,8,0:0:0:0:
364,33,106132,1,8,0:0:0:0:
364,33,106209,1,8,0:0:0:0:
141,366,106363,2,0,L|150:261,1,103.400003155518,12|0,0:0|2:0,0:0:0:0:
58,235,106671,2,0,B|118:229|118:229|188:278|188:278|258:269,1,206.800006311035,12|0,0:0|2:0,0:0:0:0:
472,208,107132,6,0,L|362:188,1,103.400003155518,12|0,0:0|0:0,0:0:0:0:
172,68,107440,2,0,L|276:51,1,103.400003155518,8|0,0:0|0:0,0:0:0:0:
366,289,107748,1,8,0:0:0:0:
338,103,107902,1,0,0:0:0:0:
216,354,108056,1,8,0:0:0:0:
470,191,108209,6,2,B|497:156|497:156|423:165|423:165|386:196|386:196|288:209,1,244.399988812256,6|0,0:0|0:0,0:0:0:0:
95,221,108671,1,8,0:0:0:0:
205,28,108825,1,8,0:0:0:0:
205,28,108902,1,8,0:0:0:0:
205,28,108979,1,8,0:0:0:0:
317,302,109132,1,8,0:0:0:0:
41,111,109440,6,2,B|128:101|128:101|188:126|188:126|277:115,1,225.599993115235,4|0,0:3|0:0,0:0:0:0:
115,331,109902,2,0,P|86:286|86:235,1,103.400003155518,8|0,0:0|2:0,0:0:0:0:
337,208,110209,1,0,0:0:0:0:
238,336,110363,1,0,0:0:0:0:
179,187,110517,1,8,0:0:0:0:
466,119,110671,6,0,B|314:101|314:101|257:137,1,206.800006311035,4|0,0:0|0:0,0:0:0:0:
376,348,111132,2,0,L|393:242,1,103.400003155518,8|0,0:0|0:0,0:0:0:0:
188,173,111440,1,0,0:0:0:0:
264,313,111594,1,0,0:0:0:0:
369,172,111748,1,8,0:0:0:0:
61,334,111902,1,0,0:0:0:0:
61,334,111979,1,0,0:0:0:0:
61,334,112056,6,2,B|93:189|93:189|121:258,1,206.800006311035,6|8,0:0|0:0,0:0:0:0:
321,341,112517,2,0,L|306:226,1,103.400003155518,8|0,0:0|2:0,0:0:0:0:
212,41,112825,2,0,L|196:154,1,103.400003155518,8|0,0:0|2:0,0:0:0:0:
510,281,113132,6,2,B|384:269|451:343|309:341,1,206.800006311035,6|0,0:0|0:0,0:0:0:0:
325,116,113594,2,0,P|375:125|426:132,1,103.400003155518,8|0,0:0|0:0,0:0:0:0:
283,218,113901,1,0,0:0:0:0:
229,55,114055,1,0,0:0:0:0:
160,152,114209,1,8,0:0:0:0:
156,198,114286,1,8,0:0:0:0:
152,244,114363,1,8,0:0:0:0:
148,290,114440,1,8,0:0:0:0:
145,336,114517,6,0,B|94:348|94:348|36:308,1,103.400003155518,6|0,0:0|2:0,0:0:0:0:
25,150,114825,1,8,0:0:0:0:
92,46,114979,2,0,L|226:68,1,103.400003155518,8|0,0:0|2:0,0:0:0:0:
481,197,115286,2,0,L|347:219,1,103.400003155518,8|0,0:0|2:0,0:0:0:0:
19,161,115594,6,2,P|82:142|174:248,1,206.800006311035,6|0,0:0|0:0,0:0:0:0:
119,328,116056,1,8,0:0:0:0:
48,268,116209,1,0,0:0:0:0:
48,268,116286,1,0,0:0:0:0:
48,268,116363,1,8,0:0:0:0:
227,107,116517,1,0,0:0:0:0:
202,359,116671,2,0,L|213:234,1,103.400003155518,8|0,0:0|0:0,0:0:0:0:
478,55,116979,6,0,B|409:66|409:66|371:139|371:139|296:151,1,206.800006311035,14|8,0:0|0:0,0:0:0:0:
70,68,117440,2,0,P|125:66|179:112,1,103.400003155518,8|0,0:0|2:0,0:0:0:0:
379,256,117748,2,0,P|324:254|270:300,1,103.400003155518,8|0,0:0|2:0,0:0:0:0:
16,220,118056,6,2,B|145:173|145:173|185:198|256:208,1,244.399988812256,6|0,0:0|0:0,0:0:0:0:
425,26,118517,2,0,L|411:140,1,103.400003155518,8|0,0:0|0:0,0:0:0:0:
448,248,118825,1,10,0:0:0:0:
170,104,118979,1,10,0:0:0:0:
154,87,119286,6,0,L|166:205,1,103.400003155518,10|0,0:0|2:0,0:0:0:0:
322,61,119594,1,10,0:0:0:0:
255,274,119748,5,4,0:3:0:0:
256,192,119902,12,4,121748,0:0:0:0:
302,221,122056,5,0,0:0:0:0:
302,221,122209,2,0,L|311:322,1,94,8|0,0:0|0:0,0:0:0:0:
197,191,122517,2,0,L|205:97,2,94,0|0|8,0:0|0:0|0:0,0:0:0:0:
27,314,122979,6,0,B|149:274|149:274|210:310,1,188,4|0,0:0|0:0,0:0:0:0:
281,207,123440,1,8,0:0:0:0:
272,343,123594,1,0,0:0:0:0:
437,309,123748,1,8,0:0:0:0:
346,277,123902,1,0,0:0:0:0:
425,211,124056,1,8,0:0:0:0:
443,173,124132,1,8,0:0:0:0:
447,130,124209,1,8,0:0:0:0:
436,89,124286,1,8,0:0:0:0:
409,55,124363,6,0,L|296:49,1,94,4|0,0:0|0:0,0:0:0:0:
193,199,124671,2,0,L|306:193,1,94,8|0,0:0|0:0,0:0:0:0:
173,28,124979,2,0,P|111:59|99:175,1,188,0|8,0:0|0:0,0:0:0:0:
45,262,125440,1,0,0:0:0:0:
208,291,125594,6,0,P|201:238|191:192,1,94
258,80,125902,2,0,P|264:132|275:179,1,94,8|0,0:0|0:0,0:0:0:0:
293,308,126209,2,0,P|356:313|440:328,1,141,0|0,0:0|3:0,0:0:0:0:
477,254,126517,2,0,L|485:157,1,94,8|0,0:0|0:0,0:0:0:0:
266,46,126825,5,12,0:0:0:0:
309,231,126979,1,0,0:0:0:0:
372,75,127132,1,8,0:0:0:0:
197,216,127286,5,8,0:0:0:0:
148,26,127440,1,0,0:0:0:0:
388,161,127594,5,8,0:0:0:0:
169,310,127748,1,8,0:0:0:0:
4,77,127902,6,0,B|75:84|75:84|133:138|133:138|195:144,1,206.800006311035,4|0,0:0|0:0,0:0:0:0:
258,316,128363,2,0,B|210:327|210:327|168:309,1,94,8|0,0:0|0:0,0:0:0:0:
43,197,128671,1,0,0:0:0:0:
257,68,128825,2,0,L|275:174,1,94,8|0,0:0|0:0,0:0:0:0:
473,228,129132,1,8,0:0:0:0:
473,228,129209,1,8,0:0:0:0:
473,228,129286,6,0,L|370:244,1,94,6|0,0:0|0:0,0:0:0:0:
243,184,129594,2,0,L|346:168,1,94,8|0,0:0|0:0,0:0:0:0:
254,304,129902,1,0,0:0:0:0:
154,170,130056,1,0,0:0:0:0:
165,324,130209,1,8,0:0:0:0:
238,129,130363,1,0,0:0:0:0:
112,247,130517,6,0,L|3:262,1,98.6999969879151,6|0,0:0|0:0,0:0:0:0:
256,313,130825,2,0,L|365:298,1,98.6999969879151,8|0,0:0|0:0,0:0:0:0:
146,133,131132,1,0,0:0:0:0:
345,217,131286,1,0,0:0:0:0:
135,238,131440,1,8,0:0:0:0:
347,110,131594,1,0,0:0:0:0:
146,133,131748,6,0,L|123:14,1,103.400003155518,6|0,0:0|0:0,0:0:0:0:
247,232,132056,2,0,L|266:333,1,103.400003155518,8|0,0:0|0:0,0:0:0:0:
108,217,132363,1,0,0:0:0:0:
300,115,132517,1,0,0:0:0:0:
161,293,132671,1,10,0:0:0:0:
222,68,132825,1,0,0:0:0:0:
247,351,132979,6,0,L|258:238,1,108.100002061844,6|0,0:0|0:0,0:0:0:0:
387,128,133286,2,0,L|375:240,1,108.100002061844,8|0,0:0|0:0,0:0:0:0:
165,198,133594,1,0,0:0:0:0:
340,76,133748,1,0,0:0:0:0:
155,49,133902,1,10,0:0:0:0:
294,259,134056,1,0,0:0:0:0:
21,111,134209,6,0,L|145:126,1,112.799996557617,6|0,0:0|0:0,0:0:0:0:
434,204,134517,2,0,L|314:192,1,112.799996557617,8|0,0:0|0:0,0:0:0:0:
204,99,134825,1,0,0:0:0:0:
308,285,134979,1,0,0:0:0:0:
294,75,135132,1,10,0:0:0:0:
218,309,135286,1,0,0:0:0:0:
391,34,135440,6,0,L|373:178,1,117.5,6|0,0:0|0:0,0:0:0:0:
121,350,135748,2,0,L|139:206,1,117.5,8|0,0:0|0:0,0:0:0:0:
389,233,136056,1,0,0:0:0:0:
123,151,136209,1,0,0:0:0:0:
328,301,136363,1,10,0:0:0:0:
184,83,136517,1,0,0:0:0:0:
449,289,136671,6,0,L|327:301,1,122.199994406128,6|0,0:0|0:0,0:0:0:0:
62,94,136979,2,0,L|183:83,1,122.199994406128,8|0,0:0|0:0,0:0:0:0:
181,314,137286,1,0,0:0:0:0:
331,70,137440,1,0,0:0:0:0:
91,240,137594,1,10,0:0:0:0:
421,144,137748,1,0,0:0:0:0:
181,314,137902,6,0,L|172:171,1,126.900000484085,6|0,0:0|3:0,0:0:0:0:
425,41,138209,2,0,L|420:122,1,63.4500002420425,8|0,0:0|3:0,0:0:0:0:
313,347,138363,2,0,L|309:283,1,63.4500002420425,8|0,0:0|3:0,0:0:0:0:
59,58,138517,6,0,L|195:68,1,131.599995983887,6|0,0:0|3:0,0:0:0:0:
475,201,138825,2,0,L|374:209,1,65.7999979919434,8|8,0:0|0:0,0:0:0:0:
34,174,138979,2,0,L|135:182,1,65.7999979919434,8|8,0:0|0:0,0:0:0:0:
310,185,139132,5,4,0:0:0:0:
52,143,146517,6,2,L|134:153,1,70.5,2|0,0:0|0:0,0:1:0:0:
183,212,146825,5,6,1:0:0:0:
217,44,146979,2,0,B|274:30|274:30|325:65,1,112.799996557617,2|0,1:0|0:0,0:0:0:0:
429,172,147286,2,0,B|372:186|372:186|321:151,1,112.799996557617,2|0,1:0|0:0,0:0:0:0:
437,287,147594,6,0,B|367:294|367:294|328:332|328:332|234:344,1,188,4|0,0:0|0:0,0:0:0:0:
235,114,148056,1,8,0:0:0:0:
279,228,148209,1,8,0:0:0:0:
279,228,148286,1,8,0:0:0:0:
279,228,148363,1,8,0:0:0:0:
115,333,148517,1,4,1:0:0:0:
39,182,148979,6,0,L|155:193,1,94,4|0,0:0|0:0,0:0:0:0:
268,81,149286,2,0,L|152:92,1,94,8|2,0:0|0:0,0:0:0:0:
235,270,149594,1,0,0:0:0:0:
326,213,149748,1,2,0:0:0:0:
236,169,149902,1,0,0:0:0:0:
309,323,150056,6,0,P|386:331|462:249,1,188,4|0,0:0|0:0,0:0:0:0:
467,101,150517,1,8,0:0:0:0:
382,103,150671,1,2,0:0:0:0:
318,220,150825,1,0,0:0:0:0:
233,217,150979,1,2,0:0:0:0:
201,69,151132,1,8,0:0:0:0:
168,67,151209,1,8,0:0:0:0:
135,65,151286,1,8,0:0:0:0:
102,62,151363,1,8,0:0:0:0:
69,59,151440,6,0,L|80:160,1,94,4|0,0:0|0:0,0:0:0:0:
37,275,151748,1,8,0:0:0:0:
37,275,151902,2,0,P|88:264|148:260,1,94,2|0,0:0|0:0,0:0:0:0:
285,326,152209,2,0,P|234:337|174:341,1,94,2|0,0:0|0:0,0:0:0:0:
263,180,152517,6,0,B|390:182|310:244|463:244,1,188,4|0,0:0|0:0,0:0:0:0:
490,115,152979,1,8,0:0:0:0:
354,37,153132,1,8,0:0:0:0:
354,37,153209,1,8,0:0:0:0:
354,37,153286,1,8,0:0:0:0:
345,149,153440,1,0,0:0:0:0:
216,215,153594,2,0,L|227:321,1,94,12|0,0:0|0:0,0:0:0:0:
68,201,153902,6,0,B|17:178|17:178|186:147,1,188,4|8,0:0|0:0,0:0:0:0:
213,30,154363,1,2,0:0:0:0:
213,30,154517,2,0,P|242:75|248:122,1,94,0|2,0:0|0:0,0:0:0:0:
339,201,154825,2,0,L|352:85,1,94,8|0,0:0|0:0,0:0:0:0:
494,278,155132,6,0,P|416:284|327:306,1,141,4|0,0:0|3:0,0:0:0:0:
263,269,155440,2,0,L|278:368,1,94,8|0,0:0|0:0,0:0:0:0:
249,162,155748,1,2,0:0:0:0:
91,136,155902,1,2,0:0:0:0:
130,291,156056,1,8,0:0:0:0:
342,167,156209,6,0,L|244:161,1,94,4|0,0:0|0:0,0:0:0:0:
130,291,156517,1,2,0:0:0:0:
250,262,156671,1,8,0:0:0:0:
138,179,156825,1,8,0:0:0:0:
138,179,156902,1,8,0:0:0:0:
138,179,156979,1,8,0:0:0:0:
215,67,157132,1,2,0:0:0:0:
15,34,157286,1,8,0:0:0:0:
40,187,157440,6,0,L|56:280,1,94,4|0,0:0|0:0,0:0:0:0:
292,189,157748,2,0,L|301:95,1,94,4|8,0:0|0:0,0:0:0:0:
141,177,158056,1,2,0:0:0:0:
317,298,158209,1,8,0:0:0:0:
402,135,158363,1,2,0:0:0:0:
230,343,158517,1,8,0:0:0:0:
220,311,158594,1,8,0:0:0:0:
219,278,158671,1,8,0:0:0:0:
228,246,158748,1,8,0:0:0:0:
250,222,158825,1,8,0:0:0:0:
229,198,159132,6,0,L|397:208,1,141.000005378723,4|0,1:0|0:0,0:0:0:0:
477,98,159440,1,2,0:0:0:0:
383,18,159594,2,0,P|362:61|359:115,1,94,0|8,0:0|0:0,0:0:0:0:
126,192,159902,6,0,B|106:51|106:51|152:95,1,188,4|0,0:0|0:0,0:0:0:0:
281,215,160363,1,8,0:0:0:0:
237,109,160517,1,2,0:0:0:0:
207,282,160671,1,0,0:0:0:0:
343,139,160825,1,2,0:0:0:0:
157,195,160979,1,8,0:0:0:0:
256,348,161132,1,8,0:0:0:0:
284,340,161209,1,8,0:0:0:0:
312,332,161286,1,8,0:0:0:0:
352,370,161594,6,0,B|346:318|346:318|355:286|355:286|350:224,1,141.000005378723,4|0,1:0|0:0,0:0:0:0:
324,41,161902,1,2,0:0:0:0:
283,197,162056,1,0,0:0:0:0:
410,117,162209,1,8,0:0:0:0:
219,44,162363,6,0,P|144:57|30:56,1,188,4|0,0:0|0:0,0:0:0:0:
16,240,162825,1,8,0:0:0:0:
207,203,162979,1,2,0:0:0:0:
63,153,163132,1,8,0:0:0:0:
86,338,163286,1,2,0:0:0:0:
245,91,163440,1,8,0:0:0:0:
276,101,163517,1,8,0:0:0:0:
308,104,163594,1,8,0:0:0:0:
340,100,163671,1,8,0:0:0:0:
370,87,163748,1,8,0:0:0:0:
386,55,164056,6,0,L|403:201,1,141.000005378723,4|0,1:0|0:0,0:0:0:0:
275,244,164363,1,2,0:0:0:0:
474,273,164517,1,2,0:0:0:0:
315,335,164671,1,8,0:0:0:0:
492,166,164825,6,0,P|437:114|322:147,1,188,4|0,0:0|0:0,0:0:0:0:
225,324,165286,2,0,P|219:263|210:217,1,94,12|0,0:0|0:0,0:0:0:0:
213,230,165517,1,8,0:0:0:0:
213,230,165594,1,8,0:0:0:0:
269,45,165748,1,2,0:0:0:0:
146,38,165902,2,0,L|140:134,1,94,8|0,0:0|0:0,0:0:0:0:
22,211,166209,6,0,B|133:193|91:271|217:254,1,188,4|8,0:0|0:0,0:0:0:0:
251,60,166671,2,0,P|242:107|230:160,1,94,4|0,0:0|0:0,0:0:0:0:
261,324,166979,2,0,P|269:276|282:224,1,94,4|0,0:0|0:0,0:0:0:0:
487,112,167286,6,0,B|341:129|341:129|405:161,1,188,4|0,0:0|0:0,0:0:0:0:
345,338,167748,1,8,0:0:0:0:
469,253,167902,1,2,0:0:0:0:
432,241,167979,1,8,0:0:0:0:
402,233,168056,1,8,0:0:0:0:
382,245,168132,1,8,0:0:0:0:
367,255,168209,1,8,0:0:0:0:
257,147,168363,1,8,0:0:0:0:
225,302,168517,1,2,0:0:0:0:
101,318,168671,5,12,0:0:0:0:
87,326,168979,2,0,L|99:226,1,94,8|0,0:0|0:0,0:0:0:0:
78,92,169286,1,2,0:0:0:0:
185,180,169440,1,0,0:0:0:0:
23,197,169594,1,8,0:0:0:0:
46,64,169748,6,0,P|139:63|239:48,1,188,2|0,0:0|0:0,0:0:0:0:
270,206,170209,1,8,0:0:0:0:
98,167,170363,1,0,0:0:0:0:
270,206,170517,1,2,0:0:0:0:
125,352,170671,2,0,L|111:249,1,94,0|8,0:0|0:0,0:0:0:0:
340,316,170979,1,8,0:0:0:0:
340,316,171056,1,8,0:0:0:0:
340,316,171132,6,0,L|237:303,1,94,4|0,0:0|0:0,0:0:0:0:
219,158,171440,1,8,0:0:0:0:
345,178,171594,1,0,0:0:0:0:
343,40,171748,1,2,0:0:0:0:
215,58,171902,1,2,0:0:0:0:
228,197,172056,1,8,0:0:0:0:
441,162,172209,6,0,P|381:97|269:124,1,188,2|0,0:0|0:0,0:0:0:0:
370,306,172671,1,8,0:0:0:0:
345,178,172825,1,2,0:0:0:0:
214,331,172979,1,0,0:0:0:0:
243,228,173132,1,2,0:0:0:0:
95,220,173286,1,8,0:0:0:0:
91,193,173363,1,8,0:0:0:0:
87,166,173440,1,8,0:0:0:0:
82,139,173517,1,8,0:0:0:0:
78,112,173594,6,0,B|172:129|172:129|221:119,1,141,4|0,0:0|3:0,0:0:0:0:
279,78,173902,1,8,0:0:0:0:
363,174,174056,2,0,P|324:200|246:191,1,94,2|0,0:0|0:0,0:0:0:0:
197,32,174363,1,2,0:0:0:0:
386,80,174517,1,8,0:0:0:0:
197,32,174671,1,0,0:0:0:0:
363,174,174825,6,0,P|413:165|480:159,1,94,4|0,0:0|0:0,0:0:0:0:
454,338,175132,1,8,0:0:0:0:
338,322,175286,2,0,L|325:249,1,47,4|0,0:0|3:0,0:0:0:0:
259,38,175594,2,0,L|250:84,1,47,4|0,0:0|3:0,0:0:0:0:
13,246,175902,6,0,P|108:224|202:212,1,188,4|2,0:0|0:0,0:0:0:0:
343,152,176363,1,8,0:0:0:0:
266,298,176517,1,2,0:0:0:0:
253,96,176671,1,8,0:0:0:0:
374,298,176825,1,2,0:0:0:0:
446,106,176979,2,0,L|334:100,1,94,8|0,0:0|0:0,0:0:0:0:
177,253,177286,5,12,0:0:0:0:
177,253,177363,1,8,0:0:0:0:
177,253,177440,1,8,0:0:0:0:
368,188,177594,1,8,0:0:0:0:
263,69,177748,1,8,0:0:0:0:
263,69,177825,1,8,0:0:0:0:
263,69,177902,1,8,0:0:0:0:
228,327,178056,1,8,0:0:0:0:
76,135,178209,1,8,0:0:0:0:
104,140,178286,1,8,0:0:0:0:
132,144,178363,1,8,0:0:0:0:
160,148,178440,1,8,0:0:0:0:
188,152,178517,6,0,L|304:171,1,94,4|0,0:0|0:0,0:0:0:0:
429,339,178825,2,0,L|336:323,1,94,8|0,0:0|0:0,0:0:0:0:
199,293,179132,1,2,0:0:0:0:
405,176,179286,1,0,0:0:0:0:
256,35,179440,1,8,0:0:0:0:
115,212,179594,1,8,0:0:0:0:
115,212,179671,1,8,0:0:0:0:
115,212,179748,6,0,L|231:195,1,94,4|0,0:0|0:0,0:0:0:0:
446,61,180056,2,0,L|330:44,1,94,8|0,0:0|0:0,0:0:0:0:
205,292,180363,1,2,0:0:0:0:
249,85,180517,1,0,0:0:0:0:
430,205,180671,1,12,0:0:0:0:
297,326,180825,1,8,0:0:0:0:
297,326,180902,1,8,0:0:0:0:
297,326,180979,5,12,0:0:0:0:
345,84,181132,1,0,0:0:0:0:
110,198,181286,1,8,0:0:0:0:
388,286,181440,1,0,0:0:0:0:
170,72,181594,1,8,0:0:0:0:
429,151,181748,1,0,0:0:0:0:
184,297,181902,1,8,0:0:0:0:
196,246,181979,1,8,0:0:0:0:
208,195,182056,6,0,L|357:204,1,141.000005378723,6|0,1:0|0:0,0:0:0:0:
99,76,182363,2,0,L|195:70,1,70.5000026893617,10|0,1:0|0:0,0:0:0:0:
294,38,182517,2,0,L|289:108,1,70.5000026893617,0|0,1:0|1:0,0:0:0:0:
200,316,182671,2,0,L|195:245,1,70.5000026893617,2|0,1:0|1:0,0:0:0:0:
419,207,182825,2,0,L|323:201,1,70.5000026893617,12|0,1:2|0:0,0:0:0:0:
53,189,182979,1,12,1:2:0:0:
22,175,183286,6,2,B|102:165|102:165|172:117|172:117|264:109,1,244.399988812256,4|0,0:3|0:0,0:0:0:0:
338,341,183748,2,0,L|219:334,1,103.400003155518,10|0,0:0|0:0,0:0:0:0:
321,139,184056,1,2,0:0:0:0:
259,260,184209,1,2,0:0:0:0:
436,343,184363,1,8,0:0:0:0:
471,110,184517,6,2,B|401:118|401:118|361:167|361:167|278:180,1,206.800006311035,6|0,0:0|0:0,0:0:0:0:
192,51,184979,1,10,0:0:0:0:
155,275,185132,1,0,0:0:0:0:
211,140,185286,1,2,0:0:0:0:
223,338,185440,1,2,0:0:0:0:
62,231,185594,1,8,0:0:0:0:
304,157,185748,6,2,P|372:206|355:340,1,206.800006311035,6|0,0:0|0:0,0:0:0:0:
134,306,186209,1,8,0:0:0:0:
217,102,186363,1,0,0:0:0:0:
268,259,186517,1,2,0:0:0:0:
63,71,186671,1,2,0:0:0:0:
63,71,186748,1,0,0:0:0:0:
63,71,186825,1,8,0:0:0:0:
35,260,186979,6,0,L|138:253,1,103.400003155518,6|0,0:0|0:0,0:0:0:0:
261,112,187286,1,2,0:0:0:0:
261,112,187440,2,0,L|156:102,1,103.400003155518,10|0,0:0|0:0,0:0:0:0:
293,240,187748,1,10,0:0:0:0:
245,259,187825,1,0,0:0:0:0:
238,310,187902,1,0,0:0:0:0:
277,342,187979,1,0,0:0:0:0:
325,324,188056,1,10,0:0:0:0:
336,274,188132,1,0,0:0:0:0:
311,228,188209,1,0,0:0:0:0:
324,178,188286,1,0,0:0:0:0:
368,151,188363,6,0,P|406:91|379:11,1,155.100004733277,6|0,0:0|3:0,0:0:0:0:
301,37,188671,2,0,L|177:27,1,103.400003155518,8|0,0:0|2:0,0:0:0:0:
50,327,188979,2,0,B|68:224|68:224|55:195|59:168,1,155.100004733277,2|0,0:0|3:0,0:0:0:0:
140,180,189286,2,0,P|179:208|240:207,1,103.400003155518,10|0,0:0|2:0,0:0:0:0:
377,117,189594,5,6,0:0:0:0:
168,332,189748,1,10,0:0:0:0:
168,332,189825,1,8,0:0:0:0:
168,332,189902,1,8,0:0:0:0:
195,19,190056,2,0,L|209:128,1,103.400003155518,12|0,0:0|2:0,0:0:0:0:
394,351,190363,2,0,B|401:277|401:277|439:237|439:237|445:156,1,206.800006311035,12|0,0:0|2:0,0:0:0:0:
248,293,190825,5,14,0:0:0:0:
377,78,190979,1,0,0:0:0:0:
154,217,191132,1,8,0:0:0:0:
443,179,191286,1,0,0:0:0:0:
268,37,191440,1,8,0:0:0:0:
229,312,191594,1,8,0:0:0:0:
229,312,191671,1,8,0:0:0:0:
229,312,191748,1,8,0:0:0:0:
49,161,191902,6,2,B|21:30|21:30|72:55|72:55|57:115,1,244.399988812256,6|0,0:0|0:0,0:0:0:0:
31,313,192363,1,8,0:0:0:0:
163,40,192517,1,8,0:0:0:0:
368,198,192671,1,8,0:0:0:0:
148,336,192825,1,8,0:0:0:0:
447,42,193132,6,2,B|356:52|356:52|310:116|310:116|219:126,1,244.399988812256,4|0,0:3|0:0,0:0:0:0:
407,278,193594,2,0,P|427:234|407:164,1,103.400003155518,10|0,0:0|2:0,0:0:0:0:
173,188,193902,1,2,0:0:0:0:
223,334,194056,1,0,0:0:0:0:
327,222,194209,1,10,0:0:0:0:
77,172,194363,6,2,P|141:95|242:117,1,206.800006311035,6|0,0:0|0:0,0:0:0:0:
173,349,194825,2,0,L|157:246,1,103.400003155518,10|0,0:0|0:0,0:0:0:0:
410,327,195132,1,2,0:0:0:0:
273,182,195286,1,2,0:0:0:0:
446,75,195440,1,8,0:0:0:0:
446,237,195594,1,0,0:0:0:0:
446,237,195671,1,0,0:0:0:0:
446,237,195748,6,2,B|330:220|363:292|247:281,1,206.800006311035,6|8,0:0|0:0,0:0:0:0:
54,64,196209,2,0,L|169:81,1,103.400003155518,8|0,0:0|2:0,0:0:0:0:
374,146,196517,2,0,L|259:163,1,103.400003155518,8|0,0:0|2:0,0:0:0:0:
103,355,196825,6,2,B|90:262|90:262|47:222|47:222|34:137,1,206.800006311035,6|0,0:0|0:0,0:0:0:0:
245,73,197286,1,8,0:0:0:0:
203,266,197440,1,0,0:0:0:0:
203,266,197517,1,0,0:0:0:0:
203,266,197594,1,0,0:0:0:0:
152,148,197748,1,0,0:0:0:0:
348,120,197902,1,8,0:0:0:0:
356,164,197979,1,8,0:0:0:0:
364,208,198056,1,8,0:0:0:0:
372,252,198132,1,8,0:0:0:0:
380,296,198209,6,0,L|392:188,1,103.400003155518,6|0,0:0|2:0,0:0:0:0:
408,32,198517,1,8,0:0:0:0:
168,64,198671,2,0,L|179:166,1,103.400003155518,8|0,0:0|2:0,0:0:0:0:
296,340,198979,2,0,P|252:312|188:316,1,103.400003155518,8|0,0:0|2:0,0:0:0:0:
44,152,199286,6,2,L|276:176,1,206.800006311035,6|0,0:0|0:0,0:0:0:0:
452,192,199748,1,8,0:0:0:0:
392,32,199902,1,0,0:0:0:0:
316,256,200056,1,8,0:0:0:0:
288,60,200209,1,0,0:0:0:0:
441,294,200363,2,0,L|453:178,1,103.400003155518,8|0,0:0|2:0,0:0:0:0:
40,88,200671,6,2,B|116:100|116:100|160:156|160:156|236:168,1,206.800006311035,14|8,0:0|0:0,0:0:0:0:
356,356,201132,2,0,L|344:240,1,103.400003155518,8|0,0:0|2:0,0:0:0:0:
148,20,201440,2,0,L|137:122,1,103.400003155518,8|0,0:0|2:0,0:0:0:0:
480,144,201748,6,2,L|234:175,1,244.399988812256,6|0,0:0|0:0,0:0:0:0:
52,340,202209,2,0,P|108:336|160:296,1,103.400003155518,10|0,0:0|0:0,0:0:0:0:
236,52,202517,1,10,0:0:0:0:
276,332,202671,1,10,0:0:0:0:
431,340,202979,6,2,B|473:210|473:210|320:243|320:243|364:303|364:303|411:155|411:155|374:123|374:123|404:34|404:34|423:99,1,728.5,6|0,2:1|3:0,0:0:0:0:
434,102,205440,6,2,B|288:97|288:97|269:50,1,197.39999397583,2|0,2:1|3:0,0:0:0:0:
185,34,206671,2,0,L|153:42,2,23.5,2|2|2,0:0|0:0|0:0,0:0:0:0:
17,102,207132,2,0,L|25:150,1,47,2|2,0:0|0:0,0:0:0:0:
156,160,207440,2,0,L|148:208,1,47,2|2,0:0|0:0,0:0:0:0:
64,232,207748,2,0,L|72:280,1,47,2|2,0:0|0:0,0:0:0:0:
140,336,208056,6,0,L|248:328,1,94,6|0,0:0|0:0,0:0:0:0:
388,264,208363,2,0,L|280:256,1,94,8|0,0:0|0:0,0:0:0:0:
254,56,208671,1,2,0:0:0:0:
254,56,208825,2,0,P|231:98|239:151,1,94,8|0,0:0|0:0,0:0:0:0:
393,177,209132,6,0,B|352:56|352:56|328:121,1,188,8|2,0:0|0:0,0:0:0:0:
305,257,209594,2,0,L|406:276,1,94,8|0,0:0|0:0,0:0:0:0:
211,338,209902,1,2,0:0:0:0:
211,338,210056,2,0,L|220:239,1,94,8|0,0:0|0:0,0:0:0:0:
69,79,210363,1,2,0:0:0:0:
41,165,210517,6,0,P|91:169|135:139,1,94,6|0,0:0|0:0,0:0:0:0:
224,41,210825,1,8,0:0:0:0:
224,41,210979,2,0,L|215:134,1,94,2|0,0:0|0:0,0:0:0:0:
307,249,211286,2,0,P|269:219|214:213,1,94,8|0,0:0|0:0,0:0:0:0:
65,314,211594,5,4,0:0:0:0:
234,309,211748,1,2,0:0:0:0:
131,212,211902,1,8,0:0:0:0:
234,309,212056,1,8,0:0:0:0:
199,129,212209,1,2,0:0:0:0:
285,211,212363,1,8,0:0:0:0:
285,211,212440,1,8,0:0:0:0:
285,211,212517,1,8,0:0:0:0:
234,36,212671,1,8,0:0:0:0:
275,42,212748,1,8,0:0:0:0:
316,48,212825,1,8,0:0:0:0:
358,48,212902,1,8,0:0:0:0:
399,42,212979,6,0,L|411:137,1,94,6|0,0:0|0:0,0:0:0:0:
279,268,213286,1,10,0:0:0:0:
279,268,213440,2,0,L|290:174,1,94,2|0,0:0|0:0,0:0:0:0:
305,81,213748,1,2,0:0:0:0:
385,222,213902,1,8,0:0:0:0:
395,35,214056,6,0,P|303:44|188:44,1,188,6|0,0:0|0:0,0:0:0:0:
55,84,214517,1,10,0:0:0:0:
154,213,214671,1,2,0:0:0:0:
154,213,214748,1,8,0:0:0:0:
154,213,214825,1,0,0:0:0:0:
149,109,214979,1,2,0:0:0:0:
256,158,215132,1,8,0:0:0:0:
100,302,215286,6,0,P|150:302|199:308,1,94,6|0,0:0|0:0,0:0:0:0:
291,242,215594,2,0,P|341:242|390:236,1,94,2|10,0:0|0:0,0:0:0:0:
450,317,215902,1,2,0:0:0:0:
475,147,216056,1,0,0:0:0:0:
450,317,216209,1,2,0:0:0:0:
388,79,216363,1,8,0:0:0:0:
312,227,216517,6,0,B|316:162|316:162|278:105|278:105|283:29,1,188,6|0,0:0|0:0,0:0:0:0:
212,190,216979,1,10,0:0:0:0:
81,97,217132,2,0,P|121:79|187:87,1,94,2|0,0:0|0:0,0:0:0:0:
140,276,217440,1,8,0:0:0:0:
136,256,217517,1,0,0:0:0:0:
132,236,217594,1,8,0:0:0:0:
128,216,217671,1,8,0:0:0:0:
124,196,217748,6,0,P|52:248|64:352,1,188,6|0,0:0|0:0,0:0:0:0:
236,248,218209,2,0,L|248:184,2,62.6666666666667,10|0|0,0:0|0:0|0:0,0:0:0:0:
256,300,218517,1,2,0:0:0:0:
312,312,218620,1,0,0:0:0:0:
364,288,218722,1,0,0:0:0:0:
392,240,218825,1,10,0:0:0:0:
388,184,218927,1,0,0:0:0:0:
348,144,219030,1,0,0:0:0:0:
292,140,219132,6,0,L|208:148,1,62.6666666666667,2|0,0:0|0:0,0:0:0:0:
80,76,219338,1,0,0:0:0:0:
80,76,219440,2,0,L|88:160,1,62.6666666666667,10|0,0:0|0:0,0:0:0:0:
44,280,219645,1,0,0:0:0:0:
44,280,219747,2,0,L|128:272,1,62.6666666666667,2|0,0:0|0:0,0:0:0:0:
228,240,219953,1,0,0:0:0:0:
228,240,220055,2,0,L|312:248,1,62.6666666666667,10|0,0:0|0:0,0:0:0:0:
424,308,220261,1,0,0:0:0:0:
424,308,220363,6,0,L|412:168,1,141,6|0,0:0|3:0,0:0:0:0:
456,88,220671,2,0,L|352:80,1,94,8|0,0:0|0:0,0:0:0:0:
124,168,220979,1,2,0:0:0:0:
300,136,221132,1,0,0:0:0:0:
144,40,221286,1,10,0:0:0:0:
64,268,221440,6,2,B|184:260|184:260|232:192,1,188,6|0,0:0|0:0,0:0:0:0:
60,128,221902,1,10,0:0:0:0:
172,352,222056,1,10,0:0:0:0:
172,352,222132,1,8,0:0:0:0:
172,352,222209,1,8,0:0:0:0:
312,196,222363,1,8,0:0:0:0:
160,128,222517,1,8,0:0:0:0:
416,56,222671,1,8,0:0:0:0:
468,128,222979,5,8,0:0:0:0:
467,135,223056,1,8,0:0:0:0:
466,143,223132,2,2,L|308:152,1,141.000005378723,6|0,0:0|2:0,0:0:0:0:
300,344,223440,1,2,0:0:0:0:
420,256,223594,2,0,P|369:249|316:268,1,94,0|8,0:0|0:0,0:0:0:0:
196,352,223902,6,2,B|184:272|184:272|200:228|200:228|188:156,1,188,6|0,0:0|0:0,0:0:0:0:
64,38,224363,2,0,P|40:75|42:133,1,94,10|0,0:0|0:0,0:0:0:0:
105,214,224671,1,0,0:0:0:0:
170,56,224825,1,2,0:0:0:0:
230,150,224979,1,8,0:0:0:0:
279,29,225132,6,0,P|379:41|478:45,1,188,6|0,0:0|0:0,0:0:0:0:
400,230,225594,1,10,0:0:0:0:
325,141,225748,1,10,0:0:0:0:
478,135,225902,1,0,0:0:0:0:
461,310,226056,1,2,0:0:0:0:
461,310,226132,1,0,0:0:0:0:
461,310,226209,1,8,0:0:0:0:
231,288,226363,6,0,B|288:284|288:284|345:234|345:234|422:227,1,188,6|0,0:0|0:0,0:0:0:0:
375,345,226825,1,8,0:0:0:0:
168,192,226979,1,0,0:0:0:0:
184,193,227056,1,8,0:0:0:0:
204,194,227132,1,0,0:0:0:0:
224,195,227209,1,8,0:0:0:0:
244,197,227286,1,0,0:0:0:0:
82,293,227440,1,8,0:0:0:0:
200,84,227594,6,2,B|135:29|40:56|40:56|57:87|96:109,1,225.599993115235,6|0,0:0|0:0,0:0:0:0:
177,365,228056,2,0,L|191:220,1,112.799996557617,8|0,0:0|0:0,0:0:0:0:
290,148,228363,2,0,L|300:35,1,112.799996557617,8|0,0:0|0:0,0:0:0:0:
435,306,228671,2,0,L|449:161,1,112.799996557617,8|0,0:0|0:0,0:0:0:0:
187,148,228979,5,14,0:0:0:0:
290,306,229132,1,0,0:0:0:0:
387,118,229286,1,8,0:0:0:0:
184,260,229440,1,0,0:0:0:0:
301,62,229594,1,8,0:0:0:0:
394,279,229748,1,8,0:0:0:0:
165,108,229902,1,8,0:0:0:0:
488,182,230056,6,2,B|448:26|448:26|426:100,1,225.599993115235,6|0,0:0|0:0,0:0:0:0:
359,308,230517,1,8,0:0:0:0:
304,66,230671,1,0,0:0:0:0:
199,291,230825,1,8,0:0:0:0:
402,148,230979,1,0,0:0:0:0:
126,209,231132,1,8,0:0:0:0:
424,272,231286,1,0,0:0:0:0:
147,97,231440,5,14,0:0:0:0:
346,356,231594,1,0,0:0:0:0:
385,31,231748,1,8,0:0:0:0:
226,331,231902,1,8,0:0:0:0:
226,331,231979,1,0,0:0:0:0:
226,331,232056,1,0,0:0:0:0:
35,82,232209,2,0,L|152:97,1,112.799996557617,8|0,0:0|2:0,0:0:0:0:
482,157,232517,6,2,B|391:171|391:171|347:244|347:244|243:262,1,244.399988812256,6|0,0:0|0:0,0:0:0:0:
204,32,232979,1,8,0:0:0:0:
142,320,233132,1,2,0:0:0:0:
49,112,233286,1,8,0:0:0:0:
301,221,233440,1,2,0:0:0:0:
41,298,233594,1,8,0:0:0:0:
306,67,233748,1,2,0:0:0:0:
272,347,233902,5,12,0:0:0:0:
115,32,234056,1,2,0:0:0:0:
411,189,234209,1,8,0:0:0:0:
81,237,234363,1,2,0:0:0:0:
414,55,234517,1,8,0:0:0:0:
202,331,234671,1,10,0:0:0:0:
206,288,234748,1,8,0:0:0:0:
223,248,234825,1,8,0:0:0:0:
211,202,234902,1,0,0:0:0:0:
216,159,234979,6,0,L|232:14,1,122.199994406128,14|0,0:0|2:0,0:0:0:0:
470,163,235286,1,2,0:0:0:0:
470,163,235440,2,0,L|341:173,1,122.199994406128,10|0,0:0|0:0,0:0:0:0:
206,270,235748,2,0,L|77:280,1,122.199994406128,10|0,0:0|0:0,0:0:0:0:
296,56,236056,2,0,L|167:66,1,122.199994406128,10|0,0:0|0:0,0:0:0:0:
303,296,236363,5,14,0:0:0:0:
237,146,236517,1,2,0:0:0:0:
182,328,236671,1,10,0:0:0:0:
436,205,236825,2,0,L|310:198,1,122.199994406128,10|0,0:0|0:0,0:0:0:0:
10,156,237132,2,2,P|102:139|164:252,1,225.599993115235,10|0,0:0|0:0,0:0:0:0:
73,335,237594,6,0,B|49:288|49:288|69:228,1,103.400003155518,4|0,0:2|0:0,0:0:0:0:
368,69,237902,1,8,0:0:0:0:
368,69,238056,2,0,B|392:116|392:116|372:176,1,103.400003155518,4|0,0:2|0:0,0:0:0:0:
145,128,238363,1,8,0:0:0:0:
271,341,238517,2,0,L|283:218,1,103.400003155518,4|0,0:2|0:0,0:0:0:0:
176,42,238825,5,12,0:0:0:0:
199,209,238979,1,2,0:0:0:0:
372,245,239132,1,0,0:0:0:0:
316,351,239286,1,2,0:0:0:0:
281,183,239440,5,8,0:0:0:0:
409,123,239594,1,2,0:0:0:0:
426,320,239748,1,0,0:0:0:0:
256,272,239902,1,2,0:0:0:0:
275,345,240056,6,2,B|351:324|370:238|312:163|228:157|160:219|182:301|182:301|100:368|8:293|8:293|17:178|132:156|132:156|99:190|94:238,1,846.00003227234,6|2,0:0|2:0,0:0:0:0:
45,50,242209,2,0,L|141:58,1,70.5000026893617,2|2,0:0|0:0,0:0:0:0:
204,66,242517,5,2,0:0:0:0:
457,211,249902,6,2,L|276:201,1,169.199994836426,2|0,0:0|0:0,0:0:0:0:
124,27,251132,6,0,L|137:154,1,112.8,2|0,0:0|0:0,0:0:0:0:
83,325,251748,6,0,L|93:260,1,47,2|0,0:0|0:0,0:0:0:0:
66,192,252056,1,2,0:0:0:0:
308,281,252209,1,2,0:0:0:0:
193,336,252363,6,2,B|164:180|287:221|265:74,1,282.000010757447,6|0,0:0|0:0,0:0:0:0:
71,84,253286,2,0,L|154:92,1,70.5000026893617,2|0,0:0|0:0,0:0:0:0:
443,101,253594,5,4,0:0:0:0:
418,317,253902,1,2,0:0:0:0:
295,298,254056,2,0,L|289:209,1,70.5000026893617,2|0,0:0|0:0,0:0:0:0:
242,93,254363,2,2,L|100:85,1,141.000005378723,2|0,0:0|0:0,0:0:0:0:
28,278,254825,6,0,P|113:271|148:174,1,169.199994836426,6|6,1:2|1:2,0:0:0:0:
55,184,255286,1,6,1:2:0:0:
310,333,255594,2,0,L|303:235,1,84.599997418213,6|0,1:2|0:0,0:0:0:0:
447,80,255902,6,2,P|375:72|321:161,1,169.199994836426,6|0,1:2|0:0,0:0:0:0:
393,212,256363,1,8,0:0:0:0:
406,223,256671,2,0,L|319:231,1,84.599997418213,0|2,0:0|0:0,0:0:0:0:
231,206,256979,1,8,0:0:0:0:
160,264,257132,1,2,0:0:0:0:
23,47,257286,6,2,P|150:58|179:152,1,225.6,4|2,0:0|0:0,0:0:0:0:
90,179,257902,1,8,0:0:0:0:
195,353,258209,2,0,L|206:259,1,75.2,2|0,0:0|0:0,0:0:0:0:
260,202,258517,6,0,B|386:213|328:289|468:297,1,225.6,2|2,0:0|0:0,0:0:0:0:
488,144,259132,1,8,0:0:0:0:
388,53,259440,2,0,L|383:142,1,75.2,2|8,0:0|0:0,0:0:0:0:
272,303,259748,5,2,0:0:0:0:
254,112,259902,1,8,0:0:0:0:
256,138,259979,1,8,0:0:0:0:
258,164,260056,1,10,0:0:0:0:
169,298,260209,2,0,L|164:356,1,37.6,8|8,0:0|0:0,0:0:0:0:
78,317,260363,1,10,0:0:0:0:
64,294,260440,1,8,0:0:0:0:
59,268,260517,1,8,0:0:0:0:
62,241,260594,1,8,0:0:0:0:
74,217,260671,1,14,0:0:0:0:
95,201,260748,1,8,0:0:0:0:
120,194,260825,1,8,0:0:0:0:
146,194,260902,1,8,0:0:0:0:
170,202,260979,6,0,P|254:228|375:191,1,188,6|8,0:0|0:0,0:0:0:0:
408,341,261440,2,0,P|413:291|426:243,1,94,8|0,0:0|0:0,0:0:0:0:
405,98,261748,2,0,P|325:109|249:69,1,164.499994979859,8|0,0:0|3:0,0:0:0:0:
190,32,262209,6,0,L|203:130,1,94,6|0,0:0|0:0,0:0:0:0:
35,176,262517,1,8,0:0:0:0:
35,176,262671,2,0,B|137:168|97:231|220:228,1,188,2|2,0:0|0:0,0:0:0:0:
312,353,263132,2,0,L|295:197,1,141,8|0,0:0|0:0,0:0:0:0:
236,142,263440,6,0,P|276:121|329:126,1,94,6|0,0:0|0:0,0:0:0:0:
488,225,263748,1,8,0:0:0:0:
488,225,263902,2,0,P|442:223|399:192,1,94,8|0,0:0|0:0,0:0:0:0:
205,31,264209,2,0,L|309:42,1,94,8|0,0:0|0:0,0:0:0:0:
427,109,264517,6,0,B|326:95|355:171|239:157,1,188,4|2,0:0|0:0,0:0:0:0:
104,58,264979,2,0,L|117:171,1,94,8|0,0:0|0:0,0:0:0:0:
85,338,265286,1,2,0:0:0:0:
136,241,265440,1,2,0:0:0:0:
30,242,265594,1,8,0:0:0:0:
202,328,265748,1,2,0:0:0:0:
297,137,265902,6,0,L|199:144,1,94,12|0,0:0|0:0,0:0:0:0:
461,27,266209,1,2,0:0:0:0:
461,27,266363,2,0,P|448:73|454:125,1,94,12|0,0:0|0:0,0:0:0:0:
400,310,266671,1,2,0:0:0:0:
400,310,266825,2,0,L|385:198,1,94,12|2,0:0|0:0,0:0:0:0:
148,216,267132,6,0,L|262:223,1,94,12|8,0:0|0:0,0:0:0:0:
241,221,267363,1,8,0:0:0:0:
241,221,267440,1,8,0:0:0:0:
364,65,267594,2,0,P|317:77|251:84,1,94,8|0,0:0|0:0,0:0:0:0:
137,309,267902,2,0,L|151:180,1,94,8|0,0:0|0:0,0:0:0:0:
275,52,268209,6,0,P|213:65|74:62,1,188,12|2,0:0|0:0,0:0:0:0:
52,225,268671,1,8,0:0:0:0:
241,228,268825,1,8,0:0:0:0:
245,204,268902,1,8,0:0:0:0:
249,180,268979,1,8,0:0:0:0:
166,298,269132,1,2,0:0:0:0:
356,304,269286,2,0,L|345:211,1,94,12|2,0:0|0:0,0:0:0:0:
491,105,269594,6,0,P|428:50|316:61,1,188,4|8,0:0|0:0,0:0:0:0:
191,39,270056,1,2,0:0:0:0:
235,158,270209,1,0,0:0:0:0:
68,135,270363,2,0,L|59:40,1,94,2|8,0:0|0:0,0:0:0:0:
41,253,270671,6,0,B|100:254|140:230|140:230|235:247,1,188,2|2,0:0|0:0,0:0:0:0:
340,351,271132,2,0,L|327:235,1,94,8|0,0:0|0:0,0:0:0:0:
464,173,271440,2,0,B|488:140|488:140|361:163,1,141,2|0,0:0|0:0,0:0:0:0:
315,119,271748,2,0,L|305:19,1,94,8|0,0:0|0:0,0:0:0:0:
239,205,272056,6,0,B|109:208|189:143|64:139,1,188,2|8,0:0|0:0,0:0:0:0:
213,24,272517,2,0,L|225:121,1,94,2|0,0:0|0:0,0:0:0:0:
78,237,272825,1,8,0:0:0:0:
75,260,272902,1,8,0:0:0:0:
72,283,272979,1,8,0:0:0:0:
311,299,273132,6,0,L|213:312,1,94,12|0,0:0|3:0,0:0:0:0:
130,353,273440,1,2,0:0:0:0:
141,93,273594,1,8,0:0:0:0:
239,229,273748,1,2,0:0:0:0:
123,197,273902,1,8,0:0:0:0:
227,36,274056,1,2,0:0:0:0:
325,250,274209,1,8,0:0:0:0:
362,254,274286,1,8,0:0:0:0:
399,253,274363,1,8,0:0:0:0:
435,245,274440,1,8,0:0:0:0:
468,227,274517,5,12,0:0:0:0:
223,152,274671,1,2,0:0:0:0:
447,79,274825,1,8,0:0:0:0:
252,254,274979,1,2,0:0:0:0:
355,36,275132,1,8,0:0:0:0:
349,293,275286,1,2,0:0:0:0:
257,54,275440,1,8,0:0:0:0:
480,170,275594,1,2,0:0:0:0:
177,174,275748,5,12,0:0:0:0:
447,79,275902,1,2,0:0:0:0:
422,328,276056,2,0,L|293:342,1,112.799996557617,12|0,0:0|0:0,0:0:0:0:
99,122,276363,1,12,0:0:0:0:
304,155,276517,1,8,0:0:0:0:
304,155,276594,1,8,0:0:0:0:
304,155,276671,1,8,0:0:0:0:
175,304,276825,1,8,0:0:0:0:
50,29,276979,6,0,L|168:37,1,112.799996557617,12|0,0:0|0:0,0:0:0:0:
345,266,277286,1,8,0:0:0:0:
167,118,277440,1,2,0:0:0:0:
410,161,277594,1,8,0:0:0:0:
102,223,277748,1,2,0:0:0:0:
352,54,277902,1,12,0:0:0:0:
160,330,278056,1,2,0:0:0:0:
243,110,278209,5,12,0:0:0:0:
197,76,278286,1,8,0:0:0:0:
140,70,278363,1,8,0:0:0:0:
86,89,278440,1,8,0:0:0:0:
52,134,278517,2,0,L|61:204,1,56.3999982788086,8|8,0:0|0:0,0:0:0:0:
182,342,278671,2,0,L|191:269,1,56.3999982788086,12|0,0:0|0:0,0:0:0:0:
284,191,278825,1,8,0:0:0:0:
333,162,278902,1,8,0:0:0:0:
389,165,278979,1,8,0:0:0:0:
434,198,279056,1,8,0:0:0:0:
452,250,279132,2,0,L|463:313,1,56.3999982788086,12|8,0:0|0:0,0:0:0:0:
236,109,279286,2,0,L|221:28,1,56.3999982788086,10|0,0:0|0:0,0:0:0:0:
265,349,279440,5,4,0:0:0:0:
451,38,279748,6,0,B|412:44|412:44|364:83|364:83|304:97,1,141.000005378723,4|0,1:0|0:0,0:0:0:0:
123,206,280056,5,8,0:0:0:0:
389,178,280209,1,2,0:0:0:0:
153,93,280363,1,8,0:0:0:0:
359,291,280517,1,2,0:0:0:0:
253,36,280671,5,12,0:0:0:0:
257,63,280748,1,8,0:0:0:0:
262,90,280825,1,8,0:0:0:0:
232,340,280979,1,8,0:0:0:0:
440,209,281132,5,12,0:0:0:0:
413,205,281209,1,8,0:0:0:0:
386,200,281286,1,8,0:0:0:0:
106,216,281440,1,8,0:0:0:0:
327,363,281594,2,0,B|322:314|322:314|290:258|290:258|283:190,1,169.199994836426,12|0,0:0|3:0,0:0:0:0:
280,100,281902,5,12,0:0:0:0:
232,340,282056,1,2,0:0:0:0:
169,145,282209,1,2,0:0:0:0:
383,224,282363,5,12,0:0:0:0:
195,57,282517,1,2,0:0:0:0:
387,116,282671,1,2,0:0:0:0:
193,244,282825,5,12,0:0:0:0:
289,94,282979,1,2,0:0:0:0:
212,342,283132,5,2,1:0:0:0:
441,202,283286,1,2,1:0:0:0:
223,19,283440,1,2,1:0:0:0:
64,208,283748,5,8,0:0:0:0:
207,180,283902,1,8,0:0:0:0:
423,325,284209,5,4,1:3:0:0:
255,193,289286,5,4,1:0:0:0:
422,43,290517,5,2,0:0:0:0:
410,142,290825,1,2,0:0:0:0:
255,193,290979,1,2,0:0:0:0:
204,283,291286,2,0,P|174:297|129:291,1,70.4999978485108,2|0,0:0|3:0,0:0:0:0:
58,259,291748,6,0,L|74:141,1,103.400003155518,8|0,0:0|0:0,0:0:0:0:
96,48,292056,1,2,0:0:0:0:
316,156,292209,1,12,0:0:0:0:
468,42,292517,2,0,L|363:53,1,103.400003155518,12|0,0:0|0:0,0:0:0:0:
274,248,292825,6,2,P|351:252|414:135,1,206.800006311035,6|0,1:0|1:0,1:0:0:0:
272,36,293286,1,8,0:0:0:0:
198,128,293440,1,8,0:0:0:0:
195,102,293517,1,8,0:0:0:0:
192,76,293594,1,8,0:0:0:0:
93,289,293748,1,8,0:0:0:0:
65,285,294056,6,0,P|142:275|225:268,1,141.000005378723,4|2,0:0|0:0,0:0:0:0:
295,228,294517,2,0,P|330:238|389:238,1,70.5000026893617,10|2,0:0|0:0,0:0:0:0:
464,269,294825,2,0,L|478:186,1,70.5000026893617,10|2,0:0|0:0,0:0:0:0:
397,152,295132,2,0,L|383:69,1,70.5000026893617,10|2,0:0|0:0,0:0:0:0:
292,29,295440,6,0,P|257:30|221:48,1,70.5000026893617,10|2,0:0|0:0,0:0:0:0:
67,121,295748,2,0,P|97:137|137:140,1,70.5000026893617,10|2,0:0|0:0,0:0:0:0:
234,143,296056,1,10,0:0:0:0:
229,237,296209,1,2,0:0:0:0:
130,314,296363,2,0,L|122:241,1,70.5000026893617,10|2,0:0|0:0,0:0:0:0:
308,197,296671,6,2,B|444:214|363:288|508:307,1,225.599993115235,6|8,1:0|0:0,1:0:0:0:
239,349,297132,2,0,L|226:216,1,112.799996557617,8|0,0:0|3:0,0:0:0:0:
472,82,297440,1,8,0:0:0:0:
486,68,297748,6,2,P|394:56|323:128,1,188,6|0,1:0|0:0,1:0:0:0:
250,163,298209,1,8,0:0:0:0:
215,79,298363,1,2,0:0:0:0:
215,79,298440,1,8,0:0:0:0:
215,79,298517,1,8,0:0:0:0:
51,201,298671,1,8,0:0:0:0:
140,212,298825,1,8,0:0:0:0:
462,175,299132,6,0,L|353:183,1,94,2|2,0:0|0:0,0:0:0:0:
296,236,299594,1,2,0:0:0:0:
226,341,299902,2,0,L|231:286,1,47,2|0,0:0|0:0,0:0:0:0:
36,93,300209,2,0,P|128:86|174:161,1,188,2|0,0:0|0:0,0:0:0:0:
84,167,300979,5,2,0:0:0:0:
323,328,301132,1,8,0:0:0:0:
274,56,301286,2,0,L|287:158,1,94,12|8,0:0|0:0,0:0:0:0:
351,231,301517,1,8,0:0:0:0:
351,231,301594,6,0,B|207:244|281:300|154:333,1,225.599993115235,12|8,0:0|0:0,0:0:0:0:
30,112,302056,2,0,L|147:132,1,112.799996557617,12|0,0:0|0:0,0:0:0:0:
426,40,302363,2,0,L|309:60,1,112.799996557617,12|0,0:0|0:0,0:0:0:0:
19,256,302671,6,2,P|137:252|185:355,1,225.599993115235,6|0,1:0|0:0,1:0:0:0:
404,193,303132,2,0,L|284:204,1,112.799996557617,8|0,0:0|0:0,0:0:0:0:
65,43,303440,1,12,0:0:0:0:
190,244,303594,1,2,0:0:0:0:
261,38,303748,1,8,0:0:0:0:
497,299,303902,6,2,B|417:288|417:288|359:212|359:212|268:200,1,244.399988812256,6|2,1:0|0:0,1:0:0:0:
73,318,304363,1,8,0:0:0:0:
215,133,304517,1,2,0:0:0:0:
313,358,304671,1,8,0:0:0:0:
59,218,304825,1,2,0:0:0:0:
305,58,304979,1,8,0:0:0:0:
172,352,305132,6,0,L|156:224,1,122.199994406128,6|0,0:0|0:0,0:0:0:0:
212,64,305440,1,2,0:0:0:0:
336,200,305594,5,2,1:0:0:0:
40,208,305748,1,10,1:0:0:0:
64,152,305825,1,8,1:0:0:0:
120,128,305902,1,8,1:0:0:0:
180,136,305979,1,8,1:0:0:0:
232,172,306056,2,0,L|228:304,1,122.199994406128,2|0,1:2|3:0,0:0:0:0:
360,348,306363,6,2,L|352:292,1,56.3999982788086,4|0,0:0|3:0,1:0:0:0:
440,108,306825,6,0,B|468:76|468:76|316:96,1,183.299991609192,6|0,1:0|3:0,0:0:0:0:
244,52,307132,2,0,L|235:122,1,61.0999972030641,2|0,1:0|3:0,0:0:0:0:
177,193,307286,2,0,B|135:210|99:202|70:180|62:141|62:141|53:182,1,183.299991609192,2|0,1:0|3:0,0:0:0:0:
83,67,307594,6,0,B|62:24|108:-7|168:5|193:73|131:130,1,211.500008068085,6|0,1:0|3:0,0:0:0:0:
46,256,307902,1,0,1:0:0:0:
40,258,307979,1,0,1:0:0:0:
32,260,308056,2,0,P|105:227|156:233,1,122.199994406128,2|0,1:0|3:0,1:0:0:0:
247,338,308363,2,0,L|256:275,1,61.0999972030641,2|0,1:0|3:0,0:0:0:0:
334,181,308517,6,0,L|345:251,1,70.5,2|0,1:0|3:0,0:0:0:0:
480,101,308825,6,0,B|405:92|405:92|329:150|329:150|223:139,1,253.80000096817,6|0,1:3|0:0,0:0:0:0:
160,36,309286,1,10,0:0:0:0:
203,252,309440,1,0,0:0:0:0:
306,42,309594,1,2,0:0:0:0:
20,139,309748,2,0,L|145:127,1,108.100002061844,2|8,0:0|0:0,0:0:0:0:
460,306,310056,6,0,P|359:318|296:228,1,216.200004123688,6|2,0:0|0:0,0:0:0:0:
116,50,310517,2,0,L|131:158,1,108.100002061844,10|0,0:0|0:0,0:0:0:0:
325,44,310825,1,10,0:0:0:0:
375,33,310902,1,0,0:0:0:0:
420,57,310979,1,0,0:0:0:0:
437,105,311056,1,0,0:0:0:0:
414,150,311132,1,10,0:0:0:0:
365,167,311209,1,0,0:0:0:0:
318,144,311286,1,0,0:0:0:0:
267,132,311363,1,0,0:0:0:0:
216,144,311440,6,0,B|238:312,1,162.150003092766,6|0,0:0|3:0,0:0:0:0:
318,347,311748,2,0,B|340:293|340:293|312:240,1,108.100002061844,8|0,0:0|2:0,0:0:0:0:
261,42,312056,2,0,P|189:62|102:55,1,162.150003092766,0|0,0:0|3:0,0:0:0:0:
34,108,312363,2,0,L|47:230,1,108.100002061844,8|0,0:0|2:0,0:0:0:0:
217,349,312671,5,6,0:0:0:0:
188,189,312825,1,8,0:0:0:0:
188,189,312902,1,8,0:0:0:0:
188,189,312979,1,8,0:0:0:0:
483,302,313132,2,0,L|372:291,1,108.100002061844,12|0,0:0|2:0,0:0:0:0:
41,54,313440,2,0,B|109:44|109:44|177:89|177:89|263:75,1,216.200004123688,12|0,0:0|2:0,0:0:0:0:
93,320,313902,6,0,L|108:197,1,108.100002061844,14|0,0:0|0:0,0:0:0:0:
355,33,314209,2,0,L|340:156,1,108.100002061844,14|0,0:0|0:0,0:0:0:0:
201,311,314517,1,10,0:0:0:0:
133,48,314671,1,0,0:0:0:0:
382,227,314825,1,8,0:0:0:0:
10,272,314979,6,2,P|85:197|246:200,1,263.199991967774,6|0,0:0|0:0,0:0:0:0:
468,145,315440,1,8,0:0:0:0:
289,40,315594,1,8,0:0:0:0:
289,40,315671,1,8,0:0:0:0:
289,40,315748,1,8,0:0:0:0:
223,344,315902,1,8,0:0:0:0:
468,145,316209,6,2,B|401:-2|401:-2|366:103,1,253.80000096817,4|0,0:3|0:0,0:0:0:0:
209,202,316671,2,0,P|252:226|326:217,1,108.100002061844,10|0,0:0|0:0,0:0:0:0:
276,26,316979,1,0,0:0:0:0:
408,221,317132,1,2,0:0:0:0:
444,47,317286,1,8,0:0:0:0:
220,156,317440,6,0,B|147:146|147:146|89:92|89:92|-1:78,1,216.200004123688,6|0,0:0|0:0,0:0:0:0:
61,333,317902,2,0,L|83:213,1,108.100002061844,10|0,0:0|0:0,0:0:0:0:
210,41,318209,1,2,0:0:0:0:
266,275,318363,1,2,0:0:0:0:
98,135,318517,1,8,0:0:0:0:
446,194,318671,1,0,0:0:0:0:
446,194,318748,1,0,0:0:0:0:
446,194,318825,6,0,B|363:205|363:205|330:263|330:263|250:277,1,216.200004123688,6|10,0:0|0:0,0:0:0:0:
244,19,319286,2,0,L|275:127,1,108.100002061844,10|0,0:0|2:0,0:0:0:0:
139,328,319594,2,0,L|168:224,1,108.100002061844,10|0,0:0|2:0,0:0:0:0:
488,97,319902,6,2,L|256:124,1,216.200004123688,14|0,0:0|0:0,0:0:0:0:
67,136,320363,1,8,0:0:0:0:
186,35,320517,1,0,0:0:0:0:
132,252,320671,1,2,0:0:0:0:
24,160,320825,1,0,0:0:0:0:
212,200,320979,2,0,L|327:222,1,108.100002061844,10|0,0:0|0:0,0:0:0:0:
481,29,321286,6,0,P|393:36|344:133,1,197.39999397583,6|8,0:0|0:0,0:0:0:0:
495,196,321748,1,8,0:0:0:0:
295,358,322056,2,0,L|279:260,1,98.6999969879151,8|0,0:0|2:0,0:0:0:0:
244,44,322363,6,0,P|156:72|36:64,1,197.39999397583,12|0,0:0|0:0,0:0:0:0:
88,288,322825,2,0,L|100:164,1,98.6999969879151,8|0,0:0|0:0,0:0:0:0:
304,188,323132,1,2,0:0:0:0:
240,288,323286,1,0,0:0:0:0:
288,104,323440,2,0,P|344:108|380:140,1,98.6999969879151,10|0,0:0|0:0,0:0:0:0:
479,312,323748,6,2,L|258:291,1,206.800006311035,6|8,0:0|0:0,0:0:0:0:
179,360,324209,1,8,0:0:0:0:
52,60,324517,2,0,L|67:166,1,103.400003155518,8|0,0:0|2:0,0:0:0:0:
258,106,324825,6,2,B|414:84|414:84|375:129,1,206.800006311035,14|0,0:0|0:0,0:0:0:0:
265,333,325286,2,0,P|241:282|250:224,1,103.400003155518,8|0,0:0|0:0,0:0:0:0:
419,210,325594,1,2,0:0:0:0:
383,354,325748,1,0,0:0:0:0:
155,348,325902,1,8,0:0:0:0:
152,316,325979,1,8,0:0:0:0:
148,284,326056,1,8,0:0:0:0:
144,252,326132,1,8,0:0:0:0:
140,220,326209,6,0,L|120:80,1,112.799996557617,14|0,0:0|0:0,0:0:0:0:
311,303,326517,2,0,L|296:192,1,112.799996557617,10|0,0:0|0:0,0:0:0:0:
436,132,326825,2,0,L|420:20,1,112.799996557617,10|0,0:0|0:0,0:0:0:0:
185,35,327132,1,10,0:0:0:0:
65,219,327286,1,8,0:0:0:0:
65,219,327363,1,8,0:0:0:0:
65,219,327440,6,0,L|195:235,1,112.799996557617,14|0,0:0|0:0,0:0:0:0:
256,100,327748,2,0,L|386:116,1,112.799996557617,10|0,0:0|0:0,0:0:0:0:
337,320,328056,2,0,L|467:336,1,112.799996557617,10|0,0:0|0:0,0:0:0:0:
475,121,328363,1,10,0:0:0:0:
257,225,328517,1,8,0:0:0:0:
257,225,328594,1,8,0:0:0:0:
257,225,328671,5,14,0:0:0:0:
213,39,328825,1,0,0:0:0:0:
156,290,328979,1,10,0:0:0:0:
30,81,329132,2,0,L|148:93,1,112.799996557617,10|0,0:0|2:0,0:0:0:0:
456,166,329440,2,0,L|338:178,1,112.799996557617,10|0,0:0|2:0,0:0:0:0:
115,354,329748,6,2,B|137:261|137:261|206:217|206:217|227:130,1,244.399988812256,6|0,0:0|0:0,0:0:0:0:
59,30,330209,1,8,0:0:0:0:
78,136,330363,1,8,0:0:0:0:
78,136,330440,1,8,0:0:0:0:
78,136,330517,1,8,0:0:0:0:
239,347,330671,1,12,0:0:0:0:
482,255,330979,6,0,L|374:246,1,103.400003155518,4|0,0:3|0:0,0:0:0:0:
342,351,331286,1,0,0:0:0:0:
405,143,331440,2,2,B|331:151|331:151|286:205|286:205|198:216,1,206.800006311035,10|0,0:0|0:0,0:0:0:0:
149,28,331902,2,0,L|171:139,1,103.400003155518,0|8,0:0|0:0,0:0:0:0:
14,267,332209,6,2,P|125:258|218:362,1,253.80000096817,6|0,0:0|0:0,0:0:0:0:
444,254,332671,2,0,L|322:261,1,112.799996557617,10|0,0:0|0:0,0:0:0:0:
257,77,332979,1,2,0:0:0:0:
236,265,333132,1,0,0:0:0:0:
319,143,333286,1,8,0:0:0:0:
71,23,333440,6,2,B|84:93|84:93|144:140|144:140|164:242,1,225.599993115235,6|0,0:0|0:0,0:0:0:0:
43,351,333902,2,0,L|58:225,1,112.799996557617,10|0,0:0|0:0,0:0:0:0:
288,181,334209,1,0,0:0:0:0:
217,328,334363,1,2,0:0:0:0:
168,126,334517,1,8,0:0:0:0:
313,315,334671,6,2,P|408:329|490:231,1,225.599993115235,6|0,0:0|0:0,0:0:0:0:
394,55,335132,2,0,L|385:175,1,103.400003155518,10|0,0:0|0:0,0:0:0:0:
265,244,335440,1,2,0:0:0:0:
140,135,335594,1,2,0:0:0:0:
286,71,335748,1,8,0:0:0:0:
272,97,335825,1,0,0:0:0:0:
284,118,335902,1,0,0:0:0:0:
283,132,335979,1,0,0:0:0:0:
295,145,336056,6,0,L|128:135,1,155.100004733277,6|0,0:0|3:0,0:0:0:0:
51,95,336363,2,0,L|63:206,1,103.400003155518,10|0,0:0|0:0,0:0:0:0:
80,336,336671,1,2,0:0:0:0:
175,328,336825,2,0,L|186:225,1,103.400003155518,2|8,0:0|0:0,0:0:0:0:
202,80,337132,1,0,0:0:0:0:
291,126,337286,6,0,P|390:137|497:115,1,206.800006311035,2|10,0:0|0:0,0:0:0:0:
434,336,337748,2,0,L|412:228,1,103.400003155518,2|0,0:0|0:0,0:0:0:0:
260,213,338056,1,2,0:0:0:0:
171,214,338209,2,0,L|191:315,1,103.400003155518,10|0,0:0|0:0,0:0:0:0:
392,131,338517,5,12,0:0:0:0:
294,317,338671,1,0,0:0:0:0:
239,78,338825,1,8,0:0:0:0:
409,274,338979,1,0,0:0:0:0:
138,214,339132,1,8,0:0:0:0:
345,40,339286,1,0,0:0:0:0:
294,317,339440,1,8,0:0:0:0:
32,98,339594,6,2,B|109:90|109:90|173:133|173:133|249:123,1,206.800006311035,6|0,0:0|0:0,0:0:0:0:
383,35,340056,2,0,L|370:153,1,103.400003155518,10|0,0:0|0:0,0:0:0:0:
185,350,340363,2,0,L|175:288,1,51.7000015777588,10|0,0:0|0:0,0:0:0:0:
137,218,340517,1,8,0:0:0:0:
182,209,340594,1,8,0:0:0:0:
228,214,340671,1,8,0:0:0:0:
268,237,340748,1,8,0:0:0:0:
304,266,340825,1,8,0:0:0:0:
349,278,340902,1,8,0:0:0:0:
394,270,340979,5,4,0:3:0:0:
458,92,341286,1,2,0:0:0:0:
430,98,341902,1,2,0:0:0:0:
404,104,342517,1,2,0:0:0:0:
376,112,343132,1,2,0:0:0:0:
220,36,343440,6,0,P|160:48|64:52,1,141.000005378723,0|2,0:0|0:0,0:0:0:0:
28,148,343902,2,0,L|117:154,1,70.5000026893617
150,234,344209,2,0,L|239:228,1,70.5000026893617,0|2,0:0|0:0,0:0:0:0:
319,222,344517,5,8,0:0:0:0:
443,340,344825,1,2,0:0:0:0:
490,164,344979,2,0,L|387:177,1,94,12|2,0:0|0:0,0:0:0:0:
396,175,345209,1,8,0:0:0:0:
396,175,345286,1,8,0:0:0:0:
309,344,345440,1,2,1:2:0:0:
328,246,345594,1,0,1:0:0:0:
260,173,345748,1,2,1:2:0:0:
244,81,345902,5,4,1:2:0:0:
450,36,346209,1,2,0:0:0:0:
450,36,346363,2,0,L|442:127,1,70.5000026893617
369,166,346671,2,0,L|377:257,1,70.5000026893617,0|2,0:0|0:0,0:0:0:0:
419,325,346979,6,0,P|352:334|284:279,1,141.000005378723
154,191,347440,2,0,L|165:277,1,70.5000026893617,2|0,0:0|0:0,0:0:0:0:
72,270,347748,1,2,0:1:0:0:
145,102,347902,2,2,B|253:103|195:170|313:169,1,169.199994836426,2|0,0:1|0:0,0:1:0:0:
462,154,348363,5,12,0:0:0:0:
295,83,348517,1,2,0:0:0:0:
317,250,348671,1,2,0:0:0:0:
359,167,348825,5,12,0:0:0:0:
362,327,348979,1,2,0:0:0:0:
226,242,349132,1,2,0:0:0:0:
317,250,349286,5,12,0:0:0:0:
182,162,349440,1,2,0:0:0:0:
172,323,349594,1,2,0:0:0:0:
226,242,349748,5,12,0:0:0:0:
87,323,349902,1,2,0:0:0:0:
81,162,350056,1,2,0:0:0:0:
226,242,350209,6,2,L|397:232,1,164.5,4|0,1:2|3:0,1:0:0:0:
402,198,350825,6,0,B|445:173|463:127|456:63|413:31|350:29|303:51|294:122|294:122|302:180|246:210|246:210|84:111|84:111|365:128,1,902.399972460938,0|0,0:0|3:0,0:0:0:0:
