osu file format v14

[General]
AudioFilename: audio.mp3
AudioLeadIn: 0
PreviewTime: 463
Countdown: 0
SampleSet: Soft
StackLeniency: 0.5
Mode: 0
LetterboxInBreaks: 0
WidescreenStoryboard: 0

[Editor]
Bookmarks: 55629
DistanceSpacing: 1.2
BeatDivisor: 4
GridSize: 4
TimelineZoom: 3.199999

[Metadata]
Title:Aka no Ha
TitleUnicode:紅ノ葉
Artist:Nakamura Meiko
ArtistUnicode:仲村芽衣子
Creator:Lily Bread
Version:Insane Collab
Source:
Tags:ZZHBOY Sweet & Fluffy
BeatmapID:1078194
BeatmapSetID:506908

[Difficulty]
HPDrainRate:6.5
CircleSize:4
OverallDifficulty:7
ApproachRate:9
SliderMultiplier:1.6
SliderTickRate:1

[Events]
//Background and Video events
0,0,"58447044_p0.jpg",0,0
//Break Periods
//Storyboard Layer 0 (Background)
//Storyboard Layer 1 (Fail)
//Storyboard Layer 2 (Pass)
//Storyboard Layer 3 (Foreground)
//Storyboard Sound Samples

[TimingPoints]
-370,333.333333333333,3,2,1,60,1,0
629,-90.9090909090909,3,2,2,80,0,1
16629,-100,3,2,2,50,0,0
18629,-100,3,2,2,50,0,0
19546,-100,3,2,2,50,0,0
19879,-100,3,2,2,30,0,0
20213,-100,3,2,2,50,0,0
20629,-133.333333333333,3,2,1,35,0,0
35046,-133.333333333333,3,2,2,40,0,0
36629,-133.333333333333,3,3,1,35,0,0
44629,-133.333333333333,3,2,1,45,0,0
46213,-133.333333333333,3,2,2,45,0,0
50629,-133.333333333333,3,2,2,50,0,0
52629,-133.333333333333,3,2,1,35,0,0
55629,-83.3333333333333,3,2,2,80,0,1
71629,-100,3,2,2,50,0,0
73629,-100,3,3,1,50,0,0
74296,-100,3,2,2,50,0,0
75463,-100,3,3,1,50,0,0
75629,-83.3333333333333,3,2,2,80,0,1
90629,-100,3,3,1,60,0,1
91629,-83.3333333333333,3,2,2,80,0,0
91713,-100,3,2,2,50,0,0

[Colours]
Combo1 : 75,240,28
Combo2 : 34,145,255
Combo3 : 168,81,255
Combo4 : 255,57,156

[HitObjects]
48,144,629,6,0,P|80:80|192:100,1,176.000005371094,6|0,0:0|0:0,0:0:0:0:
112,248,1129,1,0,0:0:0:0:
228,184,1296,2,0,B|271:179|316:208,1,88.000002685547,8|0,0:0|0:0,0:0:0:0:
404,344,1629,5,2,0:0:0:0:
424,172,1796,2,0,P|417:128|398:89,1,88.000002685547,8|0,0:0|0:0,0:0:0:0:
284,120,2129,1,0,0:0:0:0:
256,264,2296,2,0,P|295:281|339:283,1,88.000002685547,10|0,0:0|0:0,0:0:0:0:
94,298,2629,6,0,P|193:303|266:250,1,176.000005371094,2|0,0:0|0:0,0:0:0:0:
260,104,3129,1,0,0:0:0:0:
72,180,3296,2,0,P|108:215|160:218,1,88.0000026855469,8|0,0:0|0:0,0:0:0:0:
260,104,3629,5,2,0:0:0:0:
176,32,3796,1,8,0:0:0:0:
83,92,3963,2,0,L|71:184,1,88.000002685547,8|0,0:0|0:0,0:0:0:0:
260,104,4296,1,8,0:0:0:0:
197,261,4463,1,8,0:0:0:0:
394,181,4629,6,0,P|310:173|258:97,1,176.000005371094,6|0,0:0|0:0,0:0:0:0:
280,304,5129,1,0,0:0:0:0:
210,174,5296,2,0,P|239:121|271:94,1,88.000002685547,8|0,0:0|0:0,0:0:0:0:
440,232,5629,5,2,0:0:0:0:
412,124,5796,1,8,0:0:0:0:
366,319,5963,2,0,L|280:304,1,88.000002685547,0|0,0:0|0:0,0:0:0:0:
199,174,6296,2,0,L|307:150,1,88.000002685547,8|0,0:0|0:0,0:0:0:0:
84,88,6629,6,0,P|92:174|92:292,1,176.000005371094,2|0,0:0|0:0,0:0:0:0:
192,312,7129,1,0,0:0:0:0:
199,174,7296,2,0,P|199:126|195:78,1,88.000002685547,8|0,0:0|0:0,0:0:0:0:
412,68,7629,5,2,0:0:0:0:
300,36,7796,1,8,0:0:0:0:
464,168,7963,1,0,0:0:0:0:
439,176,8046,1,0,0:0:0:0:
412,178,8129,1,0,0:0:0:0:
387,174,8213,1,0,0:0:0:0:
363,163,8296,1,0,0:0:0:0:
412,68,8463,1,0,0:0:0:0:
484,284,8629,6,0,P|412:288|292:244,1,176.000005371094,6|0,0:0|0:0,0:0:0:0:
240,120,9129,1,0,0:0:0:0:
240,120,9296,2,0,P|228:172|240:220,1,88.000002685547,8|0,0:0|0:0,0:0:0:0:
260,336,9629,5,2,0:0:0:0:
104,352,9796,1,8,0:0:0:0:
147,196,9963,2,0,P|207:196|247:212,1,88.000002685547,0|0,0:0|0:0,0:0:0:0:
44,248,10296,2,0,P|32:192|48:144,1,88.000002685547,10|0,0:0|0:0,0:0:0:0:
352,84,10629,6,0,P|322:135|288:162,1,88.000002685547,2|0,0:0|0:0,0:0:0:0:
147,196,10963,2,0,P|207:196|247:212,1,88.000002685547,0|0,0:0|0:0,0:0:0:0:
344,316,11296,2,0,P|314:264|307:221,1,88.000002685547,8|0,0:0|0:0,0:0:0:0:
424,40,11629,5,2,0:0:0:0:
368,176,11796,1,8,0:0:0:0:
324,56,11963,1,8,0:0:0:0:
444,128,12129,1,8,0:0:0:0:
336,176,12296,1,8,0:0:0:0:
336,32,12463,1,8,0:0:0:0:
200,144,12629,6,0,P|268:128|376:172,1,176.000005371094,6|0,0:0|0:0,0:0:0:0:
404,332,13129,1,0,0:0:0:0:
264,336,13296,2,0,P|260:272|284:236,1,88.000002685547,8|0,0:0|0:0,0:0:0:0:
404,332,13629,5,2,0:0:0:0:
264,368,13796,1,8,0:0:0:0:
112,324,13963,2,0,P|144:272|188:252,1,88.000002685547,0|0,0:0|0:0,0:0:0:0:
312,72,14296,2,0,P|316:136|292:172,1,88.000002685547,8|0,0:0|0:0,0:0:0:0:
84,176,14629,6,0,P|144:120|248:112,1,176.000005371094,2|0,0:0|0:0,0:0:0:0:
408,196,15129,1,0,0:0:0:0:
336,328,15296,2,0,P|328:280|336:228,1,88.000002685547,8|0,0:0|0:0,0:0:0:0:
376,48,15629,5,2,0:0:0:0:
384,64,15796,1,0,0:0:0:0:
468,248,15963,5,0,0:0:0:0:
450,246,16130,1,0,0:0:0:0:
244,208,16296,5,0,0:0:0:0:
254,193,16463,1,0,0:0:0:0:
368,172,16629,5,4,0:0:0:0:
256,192,16713,12,4,18629,0:0:0:0:
144,120,19629,5,8,0:0:0:0:
144,120,19713,1,0,0:0:0:0:
144,120,19796,1,8,0:0:0:0:
248,312,19963,1,8,0:0:0:0:
296,168,20129,1,8,0:0:0:0:
104,272,20296,1,12,0:0:0:0:
324,52,20629,6,0,P|256:56|184:48,1,120.000004577637,4|0,0:0|0:0,0:0:0:0:
112,16,21296,1,0,0:0:0:0:
64,156,21463,1,0,0:0:0:0:
200,180,21629,2,0,P|228:148|236:112,1,60.0000022888184,8|0,0:0|0:0,0:0:0:0:
204,51,21963,1,0,0:0:0:0:
100,296,22296,1,0,0:0:0:0:
228,328,22463,1,0,0:0:0:0:
84,216,22629,6,0,P|44:232|20:316,2,120.000004577637,2|0|0,0:0|0:0|0:0,0:0:0:0:
60,368,23463,1,0,0:0:0:0:
160,232,23629,2,0,P|144:164|80:140,2,120.000004577637,8|0|0,0:0|0:0|0:0,0:0:0:0:
28,160,24629,5,2,0:0:0:0:
116,56,24963,1,0,0:0:0:0:
244,104,25296,1,0,0:0:0:0:
244,104,25463,1,0,0:0:0:0:
244,104,25629,2,0,L|236:240,1,120.000004577637,8|0,0:0|0:0,0:0:0:0:
420,268,26296,1,0,0:0:0:0:
308,324,26463,1,0,0:0:0:0:
236,223,26629,6,0,P|160:216|112:224,1,120.000004577637,2|0,0:0|0:0,0:0:0:0:
48,288,27129,1,0,0:0:0:0:
88,144,27296,2,0,P|88:104|76:64,1,60.0000022888184,0|0,0:0|0:0,0:0:0:0:
0,20,27629,1,8,0:0:0:0:
184,72,27963,2,0,L|248:64,2,60.0000022888184,0|0|0,0:0|0:0|0:0,0:0:0:0:
188,331,28629,6,0,P|247:327|307:332,1,120.000004577637,4|0,0:0|0:0,0:0:0:0:
400,368,29296,1,0,0:0:0:0:
448,228,29463,1,0,0:0:0:0:
312,204,29629,2,0,P|284:236|276:272,1,60.0000022888184,8|0,0:0|0:0,0:0:0:0:
308,333,29963,1,0,0:0:0:0:
412,88,30296,1,0,0:0:0:0:
284,56,30463,1,0,0:0:0:0:
428,168,30629,6,0,P|468:152|492:68,2,120.000004577637,2|0|0,0:0|0:0|0:0,0:0:0:0:
452,16,31463,1,0,0:0:0:0:
352,152,31629,2,0,P|368:220|432:244,2,120.000004577637,8|0|0,0:0|0:0|0:0,0:0:0:0:
484,224,32629,5,4,0:0:0:0:
396,328,32963,1,0,0:0:0:0:
268,280,33296,1,0,0:0:0:0:
268,280,33463,1,0,0:0:0:0:
268,280,33629,2,0,L|276:144,1,120.000004577637,12|0,0:0|0:0,0:0:0:0:
92,116,34296,1,0,0:0:0:0:
204,60,34463,1,0,0:0:0:0:
275,160,34629,6,0,P|352:168|400:160,1,120.000004577637,4|0,0:0|0:0,0:0:0:0:
464,96,35129,1,8,0:0:0:0:
424,240,35296,2,0,P|424:280|436:320,1,60.0000022888184,8|8,0:0|0:0,0:0:0:0:
512,368,35629,6,0,P|436:340|408:348,1,90.0000034332277,8|0,0:0|0:0,0:0:0:0:
312,364,35963,2,0,P|264:368|236:356,1,60.0000022888184,8|0,3:0|0:0,0:0:0:0:
128,221,36296,2,0,P|133:250|128:280,1,60.0000022888184,4|0,3:0|0:0,0:0:0:0:
263,96,36629,5,4,0:0:0:0:
270,254,36796,1,0,0:0:0:0:
155,126,36963,1,8,0:0:0:0:
362,142,37129,2,0,P|378:190|370:222,1,60.0000022888184,8|0,0:0|0:0,0:0:0:0:
214,327,37463,1,8,0:0:0:0:
237,178,37629,5,8,0:0:0:0:
377,198,37796,1,0,0:0:0:0:
374,324,37963,1,8,0:0:0:0:
172,224,38129,2,0,P|192:201|219:188,1,60.0000022888184,0|8,0:0|0:0,0:0:0:0:
336,60,38463,1,8,0:0:0:0:
480,136,38629,6,0,B|431:160|391:125|341:148,1,120.000004577637,8|0,0:0|0:0,0:0:0:0:
296,270,39129,1,0,0:0:0:0:
402,304,39296,2,0,P|406:254|397:225,1,60.0000022888184
199,229,39629,5,8,0:0:0:0:
284,350,39796,1,8,0:0:0:0:
353,221,39963,1,8,0:0:0:0:
295,335,40129,1,8,0:0:0:0:
165,314,40296,1,2,0:0:0:0:
170,51,40629,6,0,P|204:72|302:71,1,120.000004577637,4|8,0:0|0:0,0:0:0:0:
469,114,41129,2,0,P|435:135|337:134,1,120.000004577637,8|8,0:0|0:0,0:0:0:0:
350,12,41629,5,8,0:0:0:0:
362,109,41796,1,0,0:0:0:0:
246,141,41963,1,8,0:0:0:0:
224,280,42130,1,8,0:0:0:0:
384,280,42296,2,0,P|352:282|311:269,1,60.0000022888184,0|8,0:0|0:0,0:0:0:0:
130,286,42629,6,0,B|135:354|204:370,1,120.000004577637,4|0,0:0|0:0,0:0:0:0:
314,304,43129,1,0,0:0:0:0:
406,84,43462,1,0,0:0:0:0:
321,42,43629,6,0,P|289:40|248:53,1,60.0000022888184,12|8,0:0|0:0,0:0:0:0:
285,195,43963,1,8,0:0:0:0:
422,188,44129,1,8,0:0:0:0:
260,152,44296,1,2,0:0:0:0:
448,231,44463,1,2,0:0:0:0:
316,347,44629,6,0,P|299:315|321:222,1,120.000004577637,4|0,0:0|0:0,0:0:0:0:
457,183,45129,1,0,0:0:0:0:
477,314,45296,1,8,0:0:0:0:
276,247,45629,5,2,0:0:0:0:
431,117,45962,1,0,0:0:0:0:
477,314,46296,1,8,0:0:0:0:
197,307,46629,6,0,P|180:343|174:389,2,60.0000022888184,2|0|0,0:0|0:0|0:0,0:0:0:0:
299,221,47129,1,2,0:0:0:0:
154,233,47296,1,0,0:0:0:0:
343,337,47629,5,0,0:0:0:0:
451,156,47962,1,0,0:0:0:0:
279,43,48296,1,8,0:0:0:0:
201,140,48463,1,8,0:0:0:0:
333,127,48629,6,0,P|344:170|334:264,1,120.000004577637,2|0,0:0|0:0,0:0:0:0:
203,289,49129,1,0,0:0:0:0:
335,335,49296,1,0,0:0:0:0:
167,303,49630,5,10,0:0:0:0:
371,321,49797,1,10,0:0:0:0:
170,61,50463,1,0,0:0:0:0:
170,61,50546,1,0,0:0:0:0:
170,61,50629,6,0,P|150:115|152:140,1,60.0000022888184,8|0,0:0|0:0,0:0:0:0:
287,174,50963,1,0,0:0:0:0:
125,278,51129,6,0,P|179:298|204:296,1,60.0000022888184,8|0,0:0|0:0,0:0:0:0:
238,161,51463,1,0,0:0:0:0:
342,323,51629,6,0,P|362:269|360:244,1,60.0000022888184,8|0,0:0|0:0,0:0:0:0:
225,210,51963,1,0,0:0:0:0:
387,106,52129,6,0,P|333:86|308:88,1,60.0000022888184,8|0,0:0|0:0,0:0:0:0:
274,223,52463,1,0,0:0:0:0:
448,229,52629,6,0,P|449:189|443:164,1,60.0000022888184,2|0,0:0|0:0,0:0:0:0:
331,85,52963,2,0,P|360:91|387:106,1,60.0000022888184,0|0,0:0|0:0,0:0:0:0:
448,229,53296,1,0,0:0:0:0:
358,330,53629,6,0,B|275:340|206:272|117:312,1,240.000009155274,4|0,0:0|0:0,0:0:0:0:
44,121,54629,6,0,P|75:104|106:102,1,60.0000022888184,0|0,0:0|0:0,0:0:0:0:
222,212,54963,2,0,P|192:208|167:193,1,60.0000022888184,0|0,0:0|0:0,0:0:0:0:
200,32,55296,1,0,0:0:0:0:
204,52,55379,1,0,0:0:0:0:
209,72,55462,1,0,0:0:0:0:
213,93,55546,1,0,0:0:0:0:
216,112,55629,6,0,P|268:136|328:132,1,95.9999970703126,4|0,0:0|0:0,0:0:0:0:
440,69,55963,2,0,P|461:112|464:160,1,95.9999970703126,8|0,0:0|0:0,0:0:0:0:
392,308,56296,2,0,P|371:265|368:217,1,95.9999970703126,8|0,0:0|0:0,0:0:0:0:
274,338,56629,6,0,P|227:334|185:312,1,95.9999970703126,2|0,0:0|0:0,0:0:0:0:
181,201,56962,2,0,P|139:179|92:176,1,95.9999970703126,8|0,0:0|0:0,0:0:0:0:
104,320,57296,1,8,0:0:0:0:
256,256,57463,1,0,0:0:0:0:
188,116,57629,6,0,L|188:16,1,95.9999970703126,2|0,0:0|0:0,0:0:0:0:
336,168,57963,2,0,L|336:272,1,95.9999970703126,8|0,0:0|0:0,0:0:0:0:
288,96,58296,2,0,P|328:84|408:124,1,95.9999970703126,8|0,0:0|0:0,0:0:0:0:
244,200,58629,6,0,L|128:200,1,95.9999970703126,2|0,0:0|0:0,0:0:0:0:
184,316,58963,2,0,L|64:316,1,95.9999970703126,8|0,0:0|0:0,0:0:0:0:
16,188,59296,1,8,0:0:0:0:
168,112,59463,1,8,0:0:0:0:
288,288,59629,6,0,P|328:300|408:260,1,95.9999970703126,2|0,0:0|0:0,0:0:0:0:
420,176,59963,2,0,P|372:179|330:201,1,95.9999970703126,8|0,0:0|0:0,0:0:0:0:
496,188,60296,1,8,0:0:0:0:
344,112,60463,1,0,0:0:0:0:
244,184,60629,6,0,L|128:184,1,95.9999970703126,2|0,0:0|0:0,0:0:0:0:
184,68,60963,2,0,L|64:68,1,95.9999970703126,8|0,0:0|0:0,0:0:0:0:
304,40,61296,2,0,P|350:31|420:60,1,95.9999970703126,8|0,0:0|0:0,0:0:0:0:
387,194,61629,6,0,P|356:158|346:83,1,95.9999970703126,2|0,0:0|0:0,0:0:0:0:
400,324,61963,2,0,P|354:336|307:327,1,95.9999970703126,8|0,0:0|0:0,0:0:0:0:
160,256,62296,1,8,0:0:0:0:
352,256,62463,1,0,0:0:0:0:
256,132,62629,6,0,L|256:260,1,95.9999970703126,10|0,0:0|0:0,0:0:0:0:
112,324,62963,2,0,P|157:336|204:327,1,95.9999970703126,8|0,0:0|0:0,0:0:0:0:
160,176,63296,1,8,0:0:0:0:
336,176,63463,1,8,0:0:0:0:
352,176,63546,1,8,0:0:0:0:
368,176,63629,6,0,P|408:136|408:88,1,95.9999970703126,4|0,0:0|0:0,0:0:0:0:
304,284,63963,2,0,P|256:292|204:280,1,95.9999970703126,8|0,0:0|0:0,0:0:0:0:
161,82,64296,2,0,P|169:130|157:182,1,95.9999970703126,8|0,0:0|0:0,0:0:0:0:
24,332,64629,6,0,L|120:256,1,95.9999970703126,10|0,0:0|0:0,0:0:0:0:
285,223,64963,2,0,L|209:282,1,95.9999970703126,8|0,0:0|0:0,0:0:0:0:
352,136,65296,1,8,0:0:0:0:
416,296,65463,1,0,0:0:0:0:
400,76,65629,6,0,P|348:60|284:96,1,95.9999970703126,10|0,0:0|0:0,0:0:0:0:
285,223,65963,2,0,P|237:223|195:201,1,95.9999970703126,8|0,0:0|0:0,0:0:0:0:
418,225,66296,2,0,P|465:225|507:203,1,95.9999970703126,8|0,0:0|0:0,0:0:0:0:
285,312,66629,6,0,P|237:312|195:334,1,95.9999970703126,10|0,0:0|0:0,0:0:0:0:
24,264,66963,2,0,L|132:264,1,95.9999970703126,8|0,0:0|0:0,0:0:0:0:
256,152,67296,1,8,0:0:0:0:
300,324,67463,1,8,0:0:0:0:
336,176,67629,6,0,P|336:129|314:87,1,95.9999970703126,10|0,0:0|0:0,0:0:0:0:
88,132,67963,2,0,P|129:154|177:154,1,95.9999970703126,8|0,0:0|0:0,0:0:0:0:
332,164,68296,1,8,0:0:0:0:
456,80,68463,1,0,0:0:0:0:
313,86,68629,6,0,P|272:109|246:149,1,95.9999970703126,10|0,0:0|0:0,0:0:0:0:
399,323,68963,2,0,P|397:275|373:234,1,95.9999970703126,8|0,0:0|0:0,0:0:0:0:
180,224,69296,1,8,0:0:0:0:
292,356,69463,1,0,0:0:0:0:
128,288,69629,6,0,P|100:249|93:202,1,95.9999970703126,10|0,0:0|0:0,0:0:0:0:
297,199,69963,2,0,P|295:246|272:288,1,95.9999970703126,8|0,0:0|0:0,0:0:0:0:
408,104,70296,2,0,L|528:104,1,95.9999970703126,10|0,0:0|0:0,0:0:0:0:
408,280,70629,6,0,L|528:280,1,95.9999970703126,10|0,0:0|0:0,0:0:0:0:
280,188,70963,1,8,0:0:0:0:
336,352,71129,1,8,0:0:0:0:
360,200,71296,1,8,0:0:0:0:
358,164,71379,1,8,0:0:0:0:
341,132,71462,1,8,0:0:0:0:
312,112,71545,1,8,0:0:0:0:
276,106,71629,6,0,P|220:100|152:24,2,160,4|0|0,0:0|0:0|0:0,0:0:0:0:
120,188,72629,6,0,L|288:188,1,160,8|0,0:0|0:0,0:0:0:0:
344,260,73129,1,0,0:0:0:0:
408,132,73296,1,8,0:0:0:0:
492,248,73463,1,8,0:0:0:0:
392,340,73629,6,0,B|352:348|352:348|300:336,1,80,0|8,0:0|0:0,0:0:0:0:
252,264,73963,2,0,B|213:255|213:255|173:263,1,80,8|8,0:0|0:0,0:0:0:0:
212,352,74296,1,8,0:0:0:0:
116,340,74463,1,0,0:0:0:0:
88,248,74629,6,0,B|80:207|80:207|88:169,1,80,0|0,0:0|0:0,0:0:0:0:
152,96,74963,1,0,0:0:0:0:
200,192,75129,1,0,0:0:0:0:
200,192,75213,1,0,0:0:0:0:
200,192,75296,1,12,0:0:0:0:
468,192,75629,6,0,L|272:192,1,191.999994140625,6|0,0:0|0:0,0:0:0:0:
160,104,76129,1,0,0:0:0:0:
112,228,76296,2,0,P|68:207|40:170,1,95.9999970703126,8|0,0:0|0:0,0:0:0:0:
204,232,76629,5,2,0:0:0:0:
204,232,76796,2,0,P|247:252|275:289,2,95.9999970703126,8|0|0,0:0|0:0|0:0,0:0:0:0:
120,152,77296,1,8,0:0:0:0:
200,308,77463,1,0,0:0:0:0:
304,192,77629,6,0,B|412:192|412:192|436:236|508:232,1,191.999994140625,2|0,0:0|0:0,0:0:0:0:
500,64,78129,1,0,0:0:0:0:
500,64,78296,2,0,L|480:176,1,95.9999970703126,8|0,0:0|0:0,0:0:0:0:
444,304,78629,5,2,0:0:0:0:
352,192,78796,1,8,0:0:0:0:
252,264,78963,2,0,P|304:304|348:304,1,95.9999970703126,8|0,0:0|0:0,0:0:0:0:
436,220,79296,1,8,0:0:0:0:
308,128,79463,1,8,0:0:0:0:
424,52,79629,6,0,B|440:24|440:24|256:24,1,191.999994140625,6|0,0:0|0:0,0:0:0:0:
132,60,80129,1,0,0:0:0:0:
232,148,80296,2,0,P|248:208|228:252,1,95.9999970703126,8|0,0:0|0:0,0:0:0:0:
76,192,80629,5,2,0:0:0:0:
132,312,80796,1,8,0:0:0:0:
264,308,80963,2,0,L|364:308,1,95.9999970703126,0|0,0:0|0:0,0:0:0:0:
436,192,81296,2,0,L|340:192,1,95.9999970703126,8|0,0:0|0:0,0:0:0:0:
264,80,81629,6,0,P|352:48|464:96,1,191.999994140625,2|0,0:0|0:0,0:0:0:0:
504,152,82129,1,0,0:0:0:0:
504,152,82296,2,0,L|496:272,1,95.9999970703126,8|0,0:0|0:0,0:0:0:0:
416,332,82629,5,2,0:0:0:0:
384,192,82796,1,8,0:0:0:0:
312,284,82963,2,0,L|240:288,3,47.9999985351563,0|0|0|0,0:0|0:0|0:0|0:0,0:0:0:0:
272,244,83296,2,0,L|200:248,3,47.9999985351563,0|0|0|0,0:0|0:0|0:0|0:0,0:0:0:0:
256,204,83629,6,0,P|276:108|248:16,1,191.999994140625,6|0,0:0|0:0,0:0:0:0:
148,108,84129,1,0,0:0:0:0:
148,108,84296,2,0,P|140:180|156:220,1,95.9999970703126,8|0,0:0|0:0,0:0:0:0:
216,324,84629,5,2,0:0:0:0:
92,296,84796,1,8,0:0:0:0:
60,172,84963,2,0,L|60:64,1,95.9999970703126,0|0,0:0|0:0,0:0:0:0:
196,48,85296,2,0,P|240:60|312:36,1,95.9999970703126,8|0,0:0|0:0,0:0:0:0:
404,160,85629,6,0,P|357:150|311:162,1,95.9999970703126,6|0,0:0|0:0,0:0:0:0:
416,336,85963,2,0,P|403:290|372:255,1,95.9999970703126,0|0,0:0|0:0,0:0:0:0:
208,340,86296,2,0,P|254:348|300:334,1,95.9999970703126,8|0,0:0|0:0,0:0:0:0:
240,224,86629,5,2,0:0:0:0:
104,308,86796,1,8,0:0:0:0:
160,156,86963,2,0,P|224:124|260:128,1,95.9999970703126,8|0,0:0|0:0,0:0:0:0:
388,184,87296,1,8,0:0:0:0:
272,52,87463,1,8,0:0:0:0:
404,104,87629,6,0,P|444:124|472:188,1,95.9999970703126,2|0,0:0|0:0,0:0:0:0:
416,304,87963,1,0,0:0:0:0:
304,224,88129,1,0,0:0:0:0:
200,320,88296,2,0,P|264:352|312:352,1,95.9999970703126,8|0,0:0|0:0,0:0:0:0:
208,216,88629,5,4,0:0:0:0:
364,160,88796,1,8,0:0:0:0:
216,96,88963,2,0,L|108:68,1,95.9999970703126,8|0,0:0|0:0,0:0:0:0:
208,216,89296,2,0,L|312:224,1,95.9999970703126,8|0,0:0|0:0,0:0:0:0:
408,300,89629,6,0,L|488:300,8,63.9999980468751,8|8|8|8|8|8|8|8|8,0:0|0:0|0:0|0:0|0:0|0:0|0:0|0:0|0:0,0:0:0:0:
364,328,90629,6,0,L|304:328,8,53.3333333333333,8|8|8|8|8|8|8|8|8,0:0|0:0|0:0|0:0|0:0|0:0|0:0|0:0|0:0,0:0:0:0:
272,300,91629,5,4,0:0:0:0:
256,192,91713,12,0,95629,0:0:0:0:
