osu file format v14

[General]
AudioFilename: audio.mp3
AudioLeadIn: 0
PreviewTime: 463
Countdown: 0
SampleSet: Soft
StackLeniency: 0.7
Mode: 0
LetterboxInBreaks: 0
WidescreenStoryboard: 0

[Editor]
Bookmarks: 73129,74963
DistanceSpacing: 1.3
BeatDivisor: 4
GridSize: 4
TimelineZoom: 3.099999

[Metadata]
Title:Aka no Ha
TitleUnicode:紅ノ葉
Artist:Nakamura Meiko
ArtistUnicode:仲村芽衣子
Creator:Lily Bread
Version:Hard
Source:
Tags:ZZHBOY Sweet & Fluffy
BeatmapID:1091565
BeatmapSetID:506908

[Difficulty]
HPDrainRate:6
CircleSize:4
OverallDifficulty:6
ApproachRate:8
SliderMultiplier:1.4
SliderTickRate:1

[Events]
//Background and Video events
0,0,"58447044_p0.jpg",0,0
//Break Periods
//Storyboard Layer 0 (Background)
//Storyboard Layer 1 (Fail)
//Storyboard Layer 2 (Pass)
//Storyboard Layer 3 (Foreground)
//Storyboard Sound Samples

[TimingPoints]
-370,333.333333333333,3,2,1,60,1,0
629,-90.9090909090909,3,2,2,80,0,1
16629,-100,3,2,2,50,0,0
18629,-133.333333333333,3,2,2,50,0,0
19546,-100,3,2,2,50,0,0
19879,-100,3,2,2,30,0,0
20213,-100,3,2,2,50,0,0
20629,-125,3,2,1,35,0,0
35046,-125,3,2,2,40,0,0
36629,-125,3,3,1,35,0,0
44629,-111.111111111111,3,2,1,45,0,0
46213,-111.111111111111,3,2,2,45,0,0
50629,-111.111111111111,3,2,2,50,0,0
52629,-111.111111111111,3,2,1,35,0,0
55629,-90.9090909090909,3,2,2,80,0,1
71629,-100,3,2,2,50,0,0
73629,-100,3,3,1,50,0,0
74296,-100,3,2,2,50,0,0
75463,-100,3,3,1,50,0,0
75629,-90.9090909090909,3,2,2,80,0,1
90629,-90.9090909090909,3,3,1,60,0,1
91629,-90.9090909090909,3,2,2,80,0,0
91713,-90.9090909090909,3,2,2,50,0,0

[Colours]
Combo1 : 75,240,28
Combo2 : 34,145,255
Combo3 : 168,81,255
Combo4 : 255,57,156

[HitObjects]
40,188,629,6,0,P|113:183|188:141,1,154.000004699707,6|0,0:0|0:0,0:0:0:0:
248,68,1129,1,0,0:0:0:0:
304,148,1296,2,0,P|331:122|345:86,1,77.0000023498536,8|0,0:0|0:0,0:0:0:0:
416,16,1629,5,2,0:0:0:0:
472,100,1796,2,0,L|492:268,1,154.000004699707,8|0,0:0|0:0,0:0:0:0:
392,236,2296,2,0,L|288:236,1,77.0000023498536,10|0,0:0|0:0,0:0:0:0:
216,224,2629,6,0,P|149:188|73:183,1,154.000004699707,2|0,0:0|0:0,0:0:0:0:
20,268,3129,1,0,0:0:0:0:
104,324,3296,2,0,L|212:324,1,77.0000023498536,8|0,0:0|0:0,0:0:0:0:
284,356,3629,6,0,P|296:300|284:276,1,77.0000023498536,2|8,0:0|0:0,0:0:0:0:
216,224,3963,2,0,P|248:200|296:192,1,77.0000023498536,8|0,0:0|0:0,0:0:0:0:
368,240,4296,2,0,L|460:240,1,77.0000023498536,8|8,0:0|0:0,0:0:0:0:
496,140,4629,6,0,L|324:140,1,154.000004699707,6|0,0:0|0:0,0:0:0:0:
280,60,5129,1,0,0:0:0:0:
192,112,5296,2,0,P|171:79|173:41,1,77.0000023498536,8|0,0:0|0:0,0:0:0:0:
272,172,5629,6,0,P|244:198|207:204,1,77.0000023498536,2|8,0:0|0:0,0:0:0:0:
108,228,5963,2,0,P|98:191|112:155,1,77.0000023498536,0|0,0:0|0:0,0:0:0:0:
176,280,6296,2,0,P|185:316|171:352,1,77.0000023498536,8|0,0:0|0:0,0:0:0:0:
264,316,6629,6,0,L|444:316,1,154.000004699707,2|0,0:0|0:0,0:0:0:0:
496,252,7129,1,0,0:0:0:0:
496,252,7296,2,0,P|508:216|500:172,1,77.0000023498536,8|0,0:0|0:0,0:0:0:0:
460,64,7629,5,2,0:0:0:0:
400,144,7796,2,0,P|373:116|361:80,1,77.0000023498536,8|0,0:0|0:0,0:0:0:0:
288,12,8129,1,0,0:0:0:0:
208,72,8296,2,0,L|152:72,2,38.5000011749268,0|0|0,0:0|0:0|0:0,0:0:0:0:
280,144,8629,6,0,L|280:308,1,154.000004699707,6|0,0:0|0:0,0:0:0:0:
200,360,9129,1,0,0:0:0:0:
132,288,9296,2,0,P|140:244|124:200,1,77.0000023498536,8|0,0:0|0:0,0:0:0:0:
40,252,9629,5,2,0:0:0:0:
48,152,9796,2,0,P|112:120|208:144,1,154.000004699707,8|0,0:0|0:0,0:0:0:0:
280,180,10296,2,0,L|376:180,1,77.0000023498536,10|0,0:0|0:0,0:0:0:0:
395,77,10629,6,0,P|429:93|452:124,1,77.0000023498536,2|0,0:0|0:0,0:0:0:0:
508,208,10963,2,0,P|476:229|438:233,1,77.0000023498536,0|0,0:0|0:0,0:0:0:0:
357,180,11296,2,0,P|340:231|349:262,1,77.0000023498536,8|0,0:0|0:0,0:0:0:0:
408,328,11629,5,2,0:0:0:0:
308,340,11796,1,8,0:0:0:0:
244,260,11963,2,0,L|240:176,1,77.0000023498536,8|8,0:0|0:0,0:0:0:0:
276,88,12296,1,8,0:0:0:0:
176,100,12463,1,8,0:0:0:0:
144,196,12629,6,0,P|104:168|84:64,1,154.000004699707,6|0,0:0|0:0,0:0:0:0:
164,16,13129,1,0,0:0:0:0:
164,16,13296,2,0,L|248:16,1,77.0000023498536,8|0,0:0|0:0,0:0:0:0:
340,20,13629,5,2,0:0:0:0:
276,88,13796,2,0,L|312:248,1,154.000004699707,8|0,0:0|0:0,0:0:0:0:
364,324,14296,2,0,P|404:272|404:248,1,77.0000023498536,8|0,0:0|0:0,0:0:0:0:
380,176,14629,6,0,P|380:100|436:44,1,154.000004699707,2|0,0:0|0:0,0:0:0:0:
472,136,15129,1,0,0:0:0:0:
472,136,15296,2,0,L|472:228,1,77.0000023498536,8|0,0:0|0:0,0:0:0:0:
380,248,15629,6,0,L|300:260,1,77.0000023498536,2|0,0:0|0:0,0:0:0:0:
436,324,15963,2,0,L|512:328,1,77.0000023498536,0|0,0:0|0:0,0:0:0:0:
340,344,16296,2,0,L|248:360,1,77.0000023498536,0|0,0:0|0:0,0:0:0:0:
188,296,16629,6,0,P|132:276|40:284,2,140,4|0|0,0:0|0:0|0:0,0:0:0:0:
216,116,17629,6,0,P|140:124|60:100,1,140,8|0,0:0|0:0,0:0:0:0:
12,48,18129,1,0,0:0:0:0:
92,4,18296,1,8,0:0:0:0:
172,48,18463,1,8,0:0:0:0:
264,16,18629,6,0,P|320:56|300:188,1,210.000008010865,4|0,0:0|0:0,0:0:0:0:
396,340,19629,5,8,0:0:0:0:
480,308,19796,1,8,0:0:0:0:
404,256,19963,1,8,0:0:0:0:
488,224,20129,1,8,0:0:0:0:
412,172,20296,1,12,0:0:0:0:
272,256,20629,5,4,0:0:0:0:
140,196,20963,1,0,0:0:0:0:
260,112,21296,1,0,0:0:0:0:
116,84,21629,2,0,P|72:100|24:172,2,112,8|0|0,0:0|0:0|0:0,0:0:0:0:
252,28,22629,6,0,P|304:44|364:36,1,112,2|0,0:0|0:0,0:0:0:0:
472,132,23296,1,0,0:0:0:0:
472,132,23463,1,0,0:0:0:0:
472,132,23629,2,0,P|488:196|472:248,2,112,8|0|0,0:0|0:0|0:0,0:0:0:0:
340,188,24629,5,2,0:0:0:0:
233,88,24962,1,0,0:0:0:0:
200,230,25296,1,0,0:0:0:0:
320,312,25629,2,0,P|248:364|216:368,1,112,8|0,0:0|0:0,0:0:0:0:
88,328,26296,1,0,0:0:0:0:
88,328,26463,1,0,0:0:0:0:
88,328,26629,6,0,L|64:204,1,112,2|0,0:0|0:0,0:0:0:0:
52,148,27129,2,0,L|40:88,2,56,0|0|0,0:0|0:0|0:0,0:0:0:0:
120,172,27629,2,0,P|179:166|236:140,2,112,8|0|0,0:0|0:0|0:0,0:0:0:0:
212,60,28629,5,4,0:0:0:0:
310,166,28963,1,0,0:0:0:0:
353,27,29296,1,0,0:0:0:0:
452,132,29629,2,0,P|476:84|476:20,2,112,8|0|0,0:0|0:0|0:0,0:0:0:0:
384,260,30629,6,0,L|260:264,1,112,2|0,0:0|0:0,0:0:0:0:
140,324,31296,1,0,0:0:0:0:
140,324,31463,1,0,0:0:0:0:
140,324,31629,2,0,P|88:332|24:320,2,112,8|0|0,0:0|0:0|0:0,0:0:0:0:
88,188,32629,6,0,P|96:132|136:88,1,112,4|0,0:0|0:0,0:0:0:0:
276,60,33296,1,0,0:0:0:0:
180,168,33629,2,0,P|222:203|276:211,1,112,12|0,0:0|0:0,0:0:0:0:
384,112,34296,1,0,0:0:0:0:
464,232,34629,6,0,P|468:288|452:352,1,112,4|0,0:0|0:0,0:0:0:0:
380,300,35129,1,8,0:0:0:0:
312,356,35296,1,8,0:0:0:0:
300,268,35463,1,8,0:0:0:0:
232,324,35629,2,0,L|168:336,1,56,8|0,0:0|0:0,0:0:0:0:
216,240,35963,2,0,L|144:240,1,56,8|0,3:0|0:0,0:0:0:0:
232,152,36296,2,0,L|168:140,1,56,4|0,3:0|0:0,0:0:0:0:
108,68,36629,6,0,P|152:40|212:48,1,112,4|8,0:0|0:0,0:0:0:0:
276,80,37129,2,0,L|392:80,1,112,8|8,0:0|0:0,0:0:0:0:
444,132,37629,2,0,P|456:200|480:252,1,112,8|8,0:0|0:0,0:0:0:0:
468,316,38129,2,0,P|416:328|360:304,1,112,8|8,0:0|0:0,0:0:0:0:
320,248,38629,6,0,P|300:212|199:253,1,168,8|0,0:0|0:0,0:0:0:0:
175,313,39296,2,0,L|107:331,1,56,0|0,0:0|0:0,0:0:0:0:
57,290,39629,2,0,P|28:240|37:170,1,112,8|8,0:0|0:0,0:0:0:0:
74,48,40296,1,2,0:0:0:0:
216,96,40629,6,0,P|276:88|320:52,1,112,4|8,0:0|0:0,0:0:0:0:
384,32,41129,2,0,P|428:40|472:96,1,112,8|8,0:0|0:0,0:0:0:0:
448,160,41629,2,0,L|444:272,1,112,8|8,0:0|0:0,0:0:0:0:
380,312,42129,2,0,P|320:328|252:316,1,112,8|8,0:0|0:0,0:0:0:0:
250,252,42629,6,0,P|234:184|140:195,1,168,4|0,0:0|0:0,0:0:0:0:
117,250,43296,2,0,L|48:264,1,56,0|0,0:0|0:0,0:0:0:0:
19,202,43629,2,0,P|5:155|20:91,1,112,12|8,0:0|0:0,0:0:0:0:
154,39,44296,1,2,0:0:0:0:
154,39,44463,1,2,0:0:0:0:
154,39,44629,6,0,P|210:47|278:27,2,125.999996154785,4|0|8,0:0|0:0|0:0,0:0:0:0:
180,200,45629,1,2,0:0:0:0:
304,92,45963,2,0,P|372:112|408:172,1,125.999996154785,0|8,0:0|0:0,0:0:0:0:
256,224,46629,6,0,L|240:352,1,125.999996154785,2|0,0:0|0:0,0:0:0:0:
324,348,47129,2,0,P|388:332|440:364,1,125.999996154785,2|0,0:0|0:0,0:0:0:0:
504,316,47629,2,0,L|500:180,1,125.999996154785,0|0,0:0|0:0,0:0:0:0:
444,36,48296,1,8,0:0:0:0:
444,36,48463,1,8,0:0:0:0:
444,36,48629,6,0,P|380:28|308:48,1,125.999996154785,2|0,0:0|0:0,0:0:0:0:
276,200,49296,1,0,0:0:0:0:
160,84,49629,1,10,0:0:0:0:
236,48,49796,1,10,0:0:0:0:
104,140,50296,2,0,L|28:140,1,62.9999980773926,0|0,0:0|0:0,0:0:0:0:
8,228,50629,5,8,0:0:0:0:
8,228,50796,2,0,L|72:228,1,62.9999980773926,0|0,0:0|0:0,0:0:0:0:
148,304,51129,1,8,0:0:0:0:
148,304,51296,2,0,L|85:304,1,62.9999980773926,0|0,0:0|0:0,0:0:0:0:
192,228,51629,5,8,0:0:0:0:
192,228,51796,2,0,L|256:228,1,62.9999980773926,0|0,0:0|0:0,0:0:0:0:
332,304,52129,1,8,0:0:0:0:
332,304,52296,2,0,L|269:304,1,62.9999980773926,0|0,0:0|0:0,0:0:0:0:
340,208,52629,5,2,0:0:0:0:
340,208,53629,5,4,0:0:0:0:
340,208,54629,6,0,L|340:132,1,62.9999980773926,0|0,0:0|0:0,0:0:0:0:
420,172,54963,2,0,L|420:104,1,62.9999980773926,0|0,0:0|0:0,0:0:0:0:
476,48,55296,2,0,L|476:8,3,31.4999990386963,0|0|0|0,0:0|0:0|0:0|0:0,0:0:0:0:
432,36,55629,6,0,L|264:36,1,154.000004699707,4|8,0:0|0:0,0:0:0:0:
200,100,56129,1,0,0:0:0:0:
156,12,56296,2,0,P|112:36|96:72,1,77.0000023498536,8|0,0:0|0:0,0:0:0:0:
116,156,56629,6,0,L|84:256,1,77.0000023498536,2|0,0:0|0:0,0:0:0:0:
220,188,56963,2,0,L|248:276,1,77.0000023498536,8|0,0:0|0:0,0:0:0:0:
292,348,57296,1,8,0:0:0:0:
344,264,57463,1,0,0:0:0:0:
420,328,57629,6,0,P|444:264|408:188,1,154.000004699707,2|8,0:0|0:0,0:0:0:0:
324,140,58129,1,0,0:0:0:0:
324,140,58296,2,0,L|300:56,1,77.0000023498536,8|0,0:0|0:0,0:0:0:0:
228,28,58629,6,0,P|184:36|156:60,1,77.0000023498536,2|0,0:0|0:0,0:0:0:0:
302,65,58963,2,0,P|346:57|374:33,1,77.0000023498536,8|0,0:0|0:0,0:0:0:0:
464,4,59296,1,8,0:0:0:0:
504,96,59463,1,8,0:0:0:0:
412,136,59629,6,0,L|408:308,1,154.000004699707,2|8,0:0|0:0,0:0:0:0:
324,340,60129,1,0,0:0:0:0:
288,244,60296,2,0,L|215:217,1,77.0000023498536,8|0,0:0|0:0,0:0:0:0:
120,196,60629,6,0,P|116:240|144:280,1,77.0000023498536,2|0,0:0|0:0,0:0:0:0:
188,132,60963,2,0,P|158:108|120:105,1,77.0000023498536,8|0,0:0|0:0,0:0:0:0:
216,218,61296,2,0,P|256:199|276:155,1,77.0000023498536,8|0,0:0|0:0,0:0:0:0:
308,264,61629,6,0,L|360:328,1,77.0000023498536,2|0,0:0|0:0,0:0:0:0:
428,252,61963,2,0,L|416:156,1,77.0000023498536,8|0,0:0|0:0,0:0:0:0:
340,112,62296,2,0,L|400:48,1,77.0000023498536,8|0,0:0|0:0,0:0:0:0:
272,48,62629,6,0,L|192:48,1,77.0000023498536,10|0,0:0|0:0,0:0:0:0:
212,148,62963,2,0,L|268:208,1,77.0000023498536,8|0,0:0|0:0,0:0:0:0:
268,304,63296,1,8,0:0:0:0:
176,268,63463,1,8,0:0:0:0:
120,348,63629,6,0,P|76:280|96:212,1,154.000004699707,4|8,0:0|0:0,0:0:0:0:
132,120,64129,1,0,0:0:0:0:
132,120,64296,2,0,L|132:40,1,77.0000023498536,8|0,0:0|0:0,0:0:0:0:
220,92,64629,6,0,P|260:100|312:80,1,77.0000023498536,10|0,0:0|0:0,0:0:0:0:
257,16,64963,2,0,P|294:7|332:16,1,77.0000023498536,8|0,0:0|0:0,0:0:0:0:
408,84,65296,1,8,0:0:0:0:
360,172,65463,1,0,0:0:0:0:
460,156,65629,6,0,P|492:120|496:76,1,77.0000023498536,10|0,0:0|0:0,0:0:0:0:
420,240,65963,2,0,P|467:249|507:231,1,77.0000023498536,8|0,0:0|0:0,0:0:0:0:
324,244,66296,2,0,P|339:289|375:315,1,77.0000023498536,8|0,0:0|0:0,0:0:0:0:
264,340,66629,6,0,L|164:348,1,77.0000023498536,10|0,0:0|0:0,0:0:0:0:
192,244,66963,2,0,L|92:244,1,77.0000023498536,8|0,0:0|0:0,0:0:0:0:
48,320,67296,1,8,0:0:0:0:
4,232,67463,1,8,0:0:0:0:
60,148,67629,6,0,L|64:52,1,77.0000023498536,10|0,0:0|0:0,0:0:0:0:
156,108,67963,2,0,L|188:32,1,77.0000023498536,8|0,0:0|0:0,0:0:0:0:
252,112,68296,1,8,0:0:0:0:
292,20,68463,1,0,0:0:0:0:
368,84,68629,6,0,P|392:48|392:8,1,77.0000023498536,10|0,0:0|0:0,0:0:0:0:
324,155,68963,2,0,P|301:186|298:224,1,77.0000023498536,8|0,0:0|0:0,0:0:0:0:
348,312,69296,1,8,0:0:0:0:
396,224,69463,1,0,0:0:0:0:
298,225,69629,6,0,L|206:217,1,77.0000023498536,10|0,0:0|0:0,0:0:0:0:
224,324,69963,2,0,L|120:332,1,77.0000023498536,8|0,0:0|0:0,0:0:0:0:
56,284,70296,2,0,P|84:252|124:236,1,77.0000023498536,10|0,0:0|0:0,0:0:0:0:
160,148,70629,6,0,L|160:56,1,77.0000023498536,10|0,0:0|0:0,0:0:0:0:
248,20,70963,1,8,0:0:0:0:
292,108,71129,1,8,0:0:0:0:
372,48,71296,2,0,L|424:48,3,38.5000011749268,8|8|8|8,0:0|0:0|0:0|0:0,0:0:0:0:
392,92,71629,6,0,L|392:240,2,140,4|0|0,0:0|0:0|0:0,0:0:0:0:
476,248,72629,6,0,P|432:308|352:308,1,140,8|0,0:0|0:0,0:0:0:0:
300,260,73129,1,0,0:0:0:0:
288,348,73296,1,8,0:0:0:0:
216,292,73463,1,8,0:0:0:0:
148,352,73629,6,0,L|72:352,1,70,0|8,0:0|0:0,0:0:0:0:
120,272,73963,2,0,L|48:272,1,70,8|8,0:0|0:0,0:0:0:0:
84,188,74296,2,0,L|164:188,1,70,8|0,0:0|0:0,0:0:0:0:
136,100,74629,6,0,L|224:100,1,70,0|0,0:0|0:0,0:0:0:0:
288,140,74963,1,0,0:0:0:0:
240,216,75129,2,0,L|240:264,2,35,0|0|12,0:0|0:0|0:0,0:0:0:0:
341,64,75629,6,0,P|264:56|195:119,1,154.000004699707,6|0,0:0|0:0,0:0:0:0:
148,180,76129,1,0,0:0:0:0:
240,216,76296,2,0,L|332:216,1,77.0000023498536,8|0,0:0|0:0,0:0:0:0:
400,160,76629,5,2,0:0:0:0:
484,216,76796,2,0,P|465:290|398:366,1,154.000004699707,8|0,0:0|0:0,0:0:0:0:
332,304,77296,2,0,P|292:296|228:304,1,77.0000023498536,8|0,0:0|0:0,0:0:0:0:
172,356,77629,6,0,P|102:324|53:266,1,154.000004699707,2|0,0:0|0:0,0:0:0:0:
16,172,78129,1,0,0:0:0:0:
112,200,78296,2,0,L|220:200,1,77.0000023498536,8|0,0:0|0:0,0:0:0:0:
272,260,78629,6,0,P|294:207|287:181,1,77.0000023498536,2|8,0:0|0:0,0:0:0:0:
300,90,78963,2,0,P|261:87|230:109,1,77.0000023498536,8|0,0:0|0:0,0:0:0:0:
132,108,79296,2,0,L|55:108,1,77.0000023498536,8|8,0:0|0:0,0:0:0:0:
88,12,79629,6,0,L|242:12,1,154.000004699707,6|0,0:0|0:0,0:0:0:0:
340,20,80129,1,0,0:0:0:0:
416,84,80296,2,0,P|441:55|445:16,1,77.0000023498536,8|0,0:0|0:0,0:0:0:0:
424,168,80629,6,0,P|385:169|353:150,1,77.0000023498536,2|8,0:0|0:0,0:0:0:0:
244,92,80963,2,0,P|224:124|228:162,1,77.0000023498536,0|0,0:0|0:0,0:0:0:0:
300,240,81296,2,0,P|308:276|293:311,1,77.0000023498536,8|0,0:0|0:0,0:0:0:0:
192,268,81629,6,0,P|112:252|38:268,1,154.000004699707,2|0,0:0|0:0,0:0:0:0:
8,172,82129,1,0,0:0:0:0:
8,172,82296,2,0,L|12:92,1,77.0000023498536,8|0,0:0|0:0,0:0:0:0:
88,28,82629,5,2,0:0:0:0:
128,120,82796,2,0,L|212:124,1,77.0000023498536,8|0,0:0|0:0,0:0:0:0:
272,48,83129,1,0,0:0:0:0:
356,100,83296,2,0,L|400:100,2,38.5000011749268,0|0|0,0:0|0:0|0:0,0:0:0:0:
292,176,83629,6,0,L|292:340,1,154.000004699707,6|0,0:0|0:0,0:0:0:0:
384,368,84129,1,0,0:0:0:0:
472,316,84296,2,0,L|476:224,1,77.0000023498536,8|0,0:0|0:0,0:0:0:0:
396,176,84629,5,2,0:0:0:0:
413,76,84796,2,0,P|346:38|271:47,1,154.000004699707,8|0,0:0|0:0,0:0:0:0:
212,128,85296,2,0,L|135:128,1,77.0000023498536,8|0,0:0|0:0,0:0:0:0:
44,168,85629,6,0,P|66:198|100:214,1,77.0000023498536,6|0,0:0|0:0,0:0:0:0:
164,296,85963,2,0,P|132:317|94:321,1,77.0000023498536,0|0,0:0|0:0,0:0:0:0:
216,212,86296,2,0,L|296:212,1,77.0000023498536,8|0,0:0|0:0,0:0:0:0:
340,300,86629,5,2,0:0:0:0:
440,292,86796,1,8,0:0:0:0:
476,200,86963,2,0,L|472:116,1,77.0000023498536,8|0,0:0|0:0,0:0:0:0:
404,52,87296,1,8,0:0:0:0:
324,116,87463,1,8,0:0:0:0:
260,40,87629,6,0,L|172:48,1,77.0000023498536,2|0,0:0|0:0,0:0:0:0:
208,144,87963,2,0,L|120:148,1,77.0000023498536,0|0,0:0|0:0,0:0:0:0:
168,240,88296,2,0,L|91:240,1,77.0000023498536,8|0,0:0|0:0,0:0:0:0:
24,164,88629,5,4,0:0:0:0:
4,264,88796,1,8,0:0:0:0:
84,328,88963,2,0,L|184:328,1,77.0000023498536,8|0,0:0|0:0,0:0:0:0:
260,316,89296,2,0,P|300:264|300:240,1,77.0000023498536,8|0,0:0|0:0,0:0:0:0:
356,172,89629,6,0,L|424:172,8,51.3333348999024,8|8|8|8|8|8|8|8|8,0:0|0:0|0:0|0:0|0:0|0:0|0:0|0:0|0:0,0:0:0:0:
388,112,90629,6,0,L|456:112,8,51.3333348999024,8|8|8|8|8|8|8|8|8,0:0|0:0|0:0|0:0|0:0|0:0|0:0|0:0|0:0,0:0:0:0:
412,48,91629,5,4,0:0:0:0:
256,192,91796,12,0,95629,0:0:0:0:
