osu file format v14

[General]
AudioFilename: audio.mp3
AudioLeadIn: 0
PreviewTime: 463
Countdown: 0
SampleSet: Soft
StackLeniency: 0.3
Mode: 0
LetterboxInBreaks: 0
WidescreenStoryboard: 0

[Editor]
Bookmarks: 73129,74963
DistanceSpacing: 1.6
BeatDivisor: 4
GridSize: 4
TimelineZoom: 2.799999

[Metadata]
Title:Aka no Ha
TitleUnicode:紅ノ葉
Artist:Nakamura Meiko
ArtistUnicode:仲村芽衣子
Creator:Lily Bread
Version:Extra
Source:
Tags:ZZHBOY Sweet & Fluffy
BeatmapID:1106518
BeatmapSetID:506908

[Difficulty]
HPDrainRate:7
CircleSize:4.2
OverallDifficulty:8
ApproachRate:9.1
SliderMultiplier:1.8
SliderTickRate:1

[Events]
//Background and Video events
0,0,"58447044_p0.jpg",0,0
//Break Periods
//Storyboard Layer 0 (Background)
//Storyboard Layer 1 (Fail)
//Storyboard Layer 2 (Pass)
//Storyboard Layer 3 (Foreground)
//Storyboard Sound Samples

[TimingPoints]
-370,333.333333333333,3,2,1,60,1,0
629,-72.992700729927,3,2,2,80,0,1
16629,-100,3,2,2,50,0,0
18629,-200,3,2,2,50,0,0
19546,-100,3,2,2,50,0,0
19879,-100,3,2,2,30,0,0
20213,-100,3,2,2,50,0,0
20629,-144.927536231884,3,2,1,35,0,0
35046,-144.927536231884,3,2,2,40,0,0
36629,-144.927536231884,3,3,1,35,0,0
44629,-144.927536231884,3,2,1,45,0,0
46213,-144.927536231884,3,2,2,45,0,0
50629,-144.927536231884,3,2,2,50,0,0
52629,-144.927536231884,3,2,1,35,0,0
55629,-72.992700729927,3,2,2,80,0,1
71629,-100,3,2,2,50,0,0
73629,-100,3,3,1,50,0,0
74296,-100,3,2,2,50,0,0
75463,-100,3,3,1,50,0,0
75629,-72.992700729927,3,2,2,80,0,1
90629,-72.992700729927,3,3,1,60,0,1
91629,-83.3333333333333,3,2,2,80,0,0
91713,-83.3333333333333,3,2,2,50,0,0

[Colours]
Combo1 : 75,240,28
Combo2 : 34,145,255
Combo3 : 168,81,255
Combo4 : 255,57,156

[HitObjects]
9,68,629,6,0,L|256:68,1,246.600006961212,6|0,0:0|0:0,0:0:0:0:
256,192,1129,1,0,0:0:0:0:
380,68,1296,1,8,0:0:0:0:
380,316,1463,1,0,0:0:0:0:
132,192,1629,6,0,L|272:192,1,123.300003480606,2|8,0:0|0:0,0:0:0:0:
503,192,1963,2,0,L|380:192,1,123.300003480606
256,316,2296,1,10,0:0:0:0:
132,68,2463,1,0,0:0:0:0:
8,192,2629,6,0,B|265:192,1,246.600006961212,2|0,0:0|0:0,0:0:0:0:
256,316,3129,1,0,0:0:0:0:
380,192,3296,1,8,0:0:0:0:
256,68,3463,1,0,0:0:0:0:
132,191,3629,6,0,L|132:68,1,123.300003480606,2|8,0:0|0:0,0:0:0:0:
380,192,3963,2,0,L|380:316,1,123.300003480606,8|0,0:0|0:0,0:0:0:0:
380,68,4296,1,8,0:0:0:0:
256,316,4463,1,8,0:0:0:0:
132,68,4629,6,0,B|132:314,1,246.600006961212,6|0,0:0|0:0,0:0:0:0:
256,192,5129,1,0,0:0:0:0:
256,68,5296,1,8,0:0:0:0:
256,316,5463,1,0,0:0:0:0:
379,192,5629,6,0,L|247:192,1,123.300003480606,2|8,0:0|0:0,0:0:0:0:
8,192,5963,2,0,L|132:192,1,123.300003480606
380,316,6296,2,0,L|252:316,1,123.300003480606,8|0,0:0|0:0,0:0:0:0:
9,192,6629,6,0,L|256:192,1,246.600006961212,2|0,0:0|0:0,0:0:0:0:
380,192,7129,1,0,0:0:0:0:
256,316,7296,2,0,L|128:316,1,123.300003480606,8|0,0:0|0:0,0:0:0:0:
132,192,7629,5,2,0:0:0:0:
256,68,7796,1,8,0:0:0:0:
380,192,7963,1,0,0:0:0:0:
194,192,8129,2,0,L|256:192,1,61.6500017403031
317,316,8296,2,0,L|256:316,1,61.6500017403031
132,316,8463,1,0,0:0:0:0:
380,192,8629,6,0,B|128:192,1,246.600006961212,6|0,0:0|0:0,0:0:0:0:
256,316,9129,1,0,0:0:0:0:
380,192,9296,1,8,0:0:0:0:
256,68,9463,1,0,0:0:0:0:
132,192,9629,6,0,L|132:68,1,123.300003480606,2|8,0:0|0:0,0:0:0:0:
380,192,9963,2,0,L|380:315,1,123.300003480606
256,68,10296,1,10,0:0:0:0:
256,316,10463,1,0,0:0:0:0:
380,192,10629,6,0,L|236:192,1,123.300003480606,2|0,0:0|0:0,0:0:0:0:
132,68,10963,2,0,L|272:68,1,123.300003480606
380,316,11296,2,0,L|252:316,1,123.300003480606,8|0,0:0|0:0,0:0:0:0:
132,192,11629,5,2,0:0:0:0:
380,68,11796,1,8,0:0:0:0:
132,316,11963,1,8,0:0:0:0:
380,192,12129,1,8,0:0:0:0:
132,68,12296,1,8,0:0:0:0:
380,316,12463,1,8,0:0:0:0:
132,192,12629,6,0,L|388:192,1,246.600006961212,6|0,0:0|0:0,0:0:0:0:
256,316,13129,1,0,0:0:0:0:
380,192,13296,1,8,0:0:0:0:
256,68,13463,1,0,0:0:0:0:
132,192,13629,6,0,L|132:64,1,123.300003480606,2|8,0:0|0:0,0:0:0:0:
380,68,13963,2,0,L|380:204,1,123.300003480606
256,68,14296,1,8,0:0:0:0:
256,316,14463,1,0,0:0:0:0:
502,192,14629,6,0,L|256:192,1,246.600006961212,2|0,0:0|0:0,0:0:0:0:
132,192,15129,1,0,0:0:0:0:
256,316,15296,2,0,L|388:316,1,123.300003480606,8|0,0:0|0:0,0:0:0:0:
132,316,15629,5,2,0:0:0:0:
132,192,15796,1,0,0:0:0:0:
256,192,15963,1,0,0:0:0:0:
380,68,16129,1,0,0:0:0:0:
256,68,16296,1,0,0:0:0:0:
380,192,16463,1,0,0:0:0:0:
200,316,16629,6,0,L|380:316,2,180,4|0|0,0:0|0:0|0:0,0:0:0:0:
312,68,17629,6,0,L|132:68,1,180,8|0,0:0|0:0,0:0:0:0:
256,192,18129,1,0,0:0:0:0:
132,316,18296,1,8,0:0:0:0:
132,68,18463,1,8,0:0:0:0:
312,192,18629,6,0,L|128:192,1,180,4|0,0:0|0:0,0:0:0:0:
256,316,19629,5,8,0:0:0:0:
132,192,19796,1,8,0:0:0:0:
256,192,19963,1,8,0:0:0:0:
380,192,20129,1,8,0:0:0:0:
256,68,20296,1,12,0:0:0:0:
132,68,20629,5,4,0:0:0:0:
380,68,20963,1,0,0:0:0:0:
380,316,21296,1,0,0:0:0:0:
380,316,21629,5,8,0:0:0:0:
132,316,21963,1,0,0:0:0:0:
132,68,22296,1,0,0:0:0:0:
255,192,22629,6,0,L|380:192,1,124.200000189514,2|0,0:0|0:0,0:0:0:0:
380,316,23296,1,0,0:0:0:0:
256,316,23463,1,0,0:0:0:0:
132,192,23629,6,0,B|132:68,2,124.200000189514,8|0|0,0:0|0:0|0:0,0:0:0:0:
380,316,24629,5,2,0:0:0:0:
380,68,24963,1,0,0:0:0:0:
132,68,25296,1,0,0:0:0:0:
255,192,25629,6,0,L|380:192,1,124.200000189514,8|0,0:0|0:0,0:0:0:0:
132,316,26296,1,0,0:0:0:0:
132,192,26463,1,0,0:0:0:0:
255,316,26629,6,0,L|380:316,1,124.200000189514,2|0,0:0|0:0,0:0:0:0:
379,192,27129,1,0,0:0:0:0:
318,68,27296,2,0,L|256:68,1,62.1000000947571
132,68,27629,6,0,L|132:193,2,124.200000189514,8|0|0,0:0|0:0|0:0,0:0:0:0:
132,68,28629,5,4,0:0:0:0:
380,68,28963,1,0,0:0:0:0:
380,316,29296,1,0,0:0:0:0:
380,316,29629,5,8,0:0:0:0:
132,316,29963,1,0,0:0:0:0:
132,68,30296,1,0,0:0:0:0:
255,192,30629,6,0,L|380:192,1,124.200000189514,2|0,0:0|0:0,0:0:0:0:
132,316,31296,1,0,0:0:0:0:
256,316,31463,1,0,0:0:0:0:
132,192,31629,6,0,L|132:57,2,124.200000189514,8|0|0,0:0|0:0|0:0,0:0:0:0:
380,68,32629,5,4,0:0:0:0:
380,316,32963,1,0,0:0:0:0:
132,316,33296,1,0,0:0:0:0:
132,316,33629,5,12,0:0:0:0:
132,68,33963,1,0,0:0:0:0:
380,68,34296,1,0,0:0:0:0:
256,191,34629,6,0,L|256:316,1,124.200000189514,4|0,0:0|0:0,0:0:0:0:
380,316,35129,1,8,0:0:0:0:
380,192,35296,1,8,0:0:0:0:
380,68,35463,1,8,0:0:0:0:
194,192,35629,6,0,L|132:192,1,62.1000000947571,8|0,0:0|0:0,0:0:0:0:
163,316,35963,2,0,L|130:316,2,31.0500000473785,8|0|0,3:0|0:0|0:0,0:0:0:0:
163,68,36296,2,0,L|130:68,2,31.0500000473785,4|0|0,3:0|0:0|0:0,0:0:0:0:
256,192,36629,6,0,B|391:192,1,124.200000189514,4|8,0:0|0:0,0:0:0:0:
380,68,37129,2,0,B|229:68,1,124.200000189514,8|8,0:0|0:0,0:0:0:0:
131,192,37629,6,0,B|275:192,1,124.200000189514,8|8,0:0|0:0,0:0:0:0:
380,316,38129,2,0,B|240:316,1,124.200000189514,8|8,0:0|0:0,0:0:0:0:
192,192,38629,6,0,B|272:192,1,62.1000000947571,8|0,0:0|0:0,0:0:0:0:
442,192,38963,2,0,B|374:192,1,62.1000000947571
380,68,39296,1,0,0:0:0:0:
256,68,39463,1,0,0:0:0:0:
132,132,39629,6,0,B|132:224,1,62.1000000947571,8|8,0:0|0:0,0:0:0:0:
256,253,39963,2,0,B|256:316,1,62.1000000947571,8|8,0:0|0:0,0:0:0:0:
380,68,40296,1,2,0:0:0:0:
380,68,40629,6,0,B|380:216,1,124.200000189514,4|8,0:0|0:0,0:0:0:0:
256,192,41129,2,0,B|256:68,1,124.200000189514,8|8,0:0|0:0,0:0:0:0:
132,192,41629,6,0,B|132:344,1,124.200000189514,8|8,0:0|0:0,0:0:0:0:
256,316,42129,2,0,B|256:181,1,124.200000189514,8|8,0:0|0:0,0:0:0:0:
380,129,42629,6,0,B|380:192,1,62.1000000947571,4|0,0:0|0:0,0:0:0:0:
256,129,42963,2,0,B|256:192,1,62.1000000947571
132,68,43296,1,0,0:0:0:0:
132,192,43463,1,0,0:0:0:0:
194,316,43629,6,0,B|266:316,1,62.1000000947571,12|8,0:0|0:0,0:0:0:0:
317,192,43963,2,0,B|384:192,1,62.1000000947571,8|8,0:0|0:0,0:0:0:0:
380,316,44296,1,2,0:0:0:0:
256,68,44463,1,2,0:0:0:0:
194,192,44629,6,0,L|132:192,1,62.1000000947571,4|0,0:0|0:0,0:0:0:0:
194,316,44963,2,0,L|132:316,1,62.1000000947571
194,68,45296,2,0,L|131:68,1,62.1000000947571,8|0,0:0|0:0,0:0:0:0:
317,192,45629,6,0,L|384:192,1,62.1000000947571,2|0,0:0|0:0,0:0:0:0:
317,316,45963,2,0,L|380:316,1,62.1000000947571
317,68,46296,2,0,L|380:68,1,62.1000000947571,8|0,0:0|0:0,0:0:0:0:
256,192,46629,6,0,L|116:192,1,124.200000189514,2|0,0:0|0:0,0:0:0:0:
380,192,47129,2,0,L|380:57,1,124.200000189514,2|0,0:0|0:0,0:0:0:0:
320,316,47629,6,0,L|388:316,1,62.1000000947571
193,192,47963,2,0,L|260:192,1,62.1000000947571
130,300,48296,1,8,0:0:0:0:
256,68,48463,1,8,0:0:0:0:
318,192,48629,6,0,L|242:192,1,62.1000000947571,2|0,0:0|0:0,0:0:0:0:
193,68,48963,2,0,L|273:68,1,62.1000000947571
194,192,49296,2,0,L|131:192,1,62.1000000947571
256,68,49629,5,10,0:0:0:0:
380,316,49796,1,10,0:0:0:0:
380,316,50296,1,0,0:0:0:0:
380,99,50463,2,0,L|380:51,1,31.0500000473785
256,192,50629,5,8,0:0:0:0:
132,68,50796,1,0,0:0:0:0:
132,192,50963,1,0,0:0:0:0:
380,68,51129,1,8,0:0:0:0:
380,192,51296,1,0,0:0:0:0:
256,68,51463,1,0,0:0:0:0:
132,316,51629,5,8,0:0:0:0:
256,192,51796,1,0,0:0:0:0:
132,192,51963,1,0,0:0:0:0:
380,67,52129,1,8,0:0:0:0:
256,99,52296,2,0,L|256:55,3,31.0500000473785
256,192,52629,6,0,L|256:336,2,124.200000189514,2|0|0,0:0|0:0|0:0,0:0:0:0:
380,192,53629,6,0,L|380:64,1,124.200000189514,4|0,0:0|0:0,0:0:0:0:
380,68,54629,5,0,0:0:0:0:
256,68,54796,1,0,0:0:0:0:
256,192,54963,1,0,0:0:0:0:
380,192,55129,1,0,0:0:0:0:
411,316,55296,2,0,L|371:316,1,31.0500000473785
287,316,55463,2,0,L|242:316,1,31.0500000473785
132,192,55629,6,0,B|384:192,1,246.600006961212,4|8,0:0|0:0,0:0:0:0:
256,68,56129,1,0,0:0:0:0:
132,192,56296,1,8,0:0:0:0:
255,316,56463,1,0,0:0:0:0:
380,68,56629,6,0,L|256:68,1,123.300003480606,2|0,0:0|0:0,0:0:0:0:
132,316,56963,2,0,L|264:316,1,123.300003480606,8|0,0:0|0:0,0:0:0:0:
380,68,57296,1,8,0:0:0:0:
380,316,57463,1,0,0:0:0:0:
256,69,57629,6,0,B|256:316,1,246.600006961212,2|8,0:0|0:0,0:0:0:0:
132,192,58129,1,0,0:0:0:0:
256,68,58296,1,8,0:0:0:0:
380,192,58463,1,0,0:0:0:0:
132,68,58629,6,0,L|132:191,1,123.300003480606,2|0,0:0|0:0,0:0:0:0:
380,68,58963,2,0,L|380:208,1,123.300003480606,8|0,0:0|0:0,0:0:0:0:
256,316,59296,1,8,0:0:0:0:
256,69,59463,1,8,0:0:0:0:
132,191,59629,6,0,B|388:191,1,246.600006961212,2|8,0:0|0:0,0:0:0:0:
256,316,60129,1,0,0:0:0:0:
132,192,60296,1,8,0:0:0:0:
256,69,60463,1,0,0:0:0:0:
256,316,60629,6,0,L|388:316,1,123.300003480606,2|0,0:0|0:0,0:0:0:0:
256,69,60963,2,0,L|400:69,1,123.300003480606,8|0,0:0|0:0,0:0:0:0:
132,192,61296,1,8,0:0:0:0:
380,192,61463,1,0,0:0:0:0:
256,69,61629,6,0,L|128:69,1,123.300003480606,2|0,0:0|0:0,0:0:0:0:
256,192,61963,1,8,0:0:0:0:
379,69,62129,1,0,0:0:0:0:
256,316,62296,1,8,0:0:0:0:
380,192,62463,1,0,0:0:0:0:
132,69,62629,5,10,0:0:0:0:
256,316,62796,1,0,0:0:0:0:
256,69,62963,1,8,0:0:0:0:
379,316,63129,1,0,0:0:0:0:
379,69,63296,1,8,0:0:0:0:
194,192,63463,2,0,L|262:192,1,61.6500017403031,8|8,0:0|0:0,0:0:0:0:
379,316,63629,6,0,B|128:316,1,246.600006961212,4|8,0:0|0:0,0:0:0:0:
256,192,64129,1,0,0:0:0:0:
379,316,64296,1,8,0:0:0:0:
379,69,64463,1,0,0:0:0:0:
256,316,64629,6,0,L|128:316,1,123.300003480606,10|0,0:0|0:0,0:0:0:0:
255,69,64963,2,0,L|411:69,1,123.300003480606,8|0,0:0|0:0,0:0:0:0:
379,316,65296,1,8,0:0:0:0:
255,69,65463,1,0,0:0:0:0:
132,315,65629,6,0,L|132:175,1,123.300003480606,10|0,0:0|0:0,0:0:0:0:
379,316,65963,2,0,L|256:316,1,123.300003480606,8|0,0:0|0:0,0:0:0:0:
255,69,66296,2,0,L|255:201,1,123.300003480606,8|0,0:0|0:0,0:0:0:0:
501,69,66629,6,0,L|357:69,1,123.300003480606,10|0,0:0|0:0,0:0:0:0:
132,68,66963,1,8,0:0:0:0:
256,192,67129,1,0,0:0:0:0:
132,316,67296,1,8,0:0:0:0:
255,68,67463,1,8,0:0:0:0:
132,316,67629,6,0,L|256:316,1,123.300003480606,10|0,0:0|0:0,0:0:0:0:
255,68,67963,2,0,L|396:68,1,123.300003480606,8|0,0:0|0:0,0:0:0:0:
379,316,68296,1,8,0:0:0:0:
132,192,68463,1,0,0:0:0:0:
380,316,68629,6,0,L|380:192,1,123.300003480606,10|0,0:0|0:0,0:0:0:0:
132,192,68963,2,0,L|132:68,1,123.300003480606,8|0,0:0|0:0,0:0:0:0:
378,68,69296,1,8,0:0:0:0:
255,316,69463,1,0,0:0:0:0:
378,68,69629,6,0,L|230:68,1,123.300003480606,10|0,0:0|0:0,0:0:0:0:
255,316,69963,2,0,L|132:316,1,123.300003480606,8|0,0:0|0:0,0:0:0:0:
255,68,70296,2,0,L|127:68,1,123.300003480606,10|0,0:0|0:0,0:0:0:0:
379,316,70629,6,0,L|247:316,1,123.300003480606,10|0,0:0|0:0,0:0:0:0:
132,192,70963,1,8,0:0:0:0:
380,68,71129,1,8,0:0:0:0:
192,192,71296,2,0,L|264:192,1,61.6500017403031,8|8,0:0|0:0,0:0:0:0:
316,316,71463,2,0,L|248:316,1,61.6500017403031,8|8,0:0|0:0,0:0:0:0:
131,248,71629,6,0,L|131:60,2,180,4|0|0,0:0|0:0|0:0,0:0:0:0:
254,136,72629,6,0,L|254:316,1,180,8|0,0:0|0:0,0:0:0:0:
380,316,73129,1,0,0:0:0:0:
380,68,73296,1,8,0:0:0:0:
132,192,73463,1,8,0:0:0:0:
290,192,73629,6,0,B|380:192,1,90,0|8,0:0|0:0,0:0:0:0:
221,68,73963,2,0,B|125:68,1,90,8|8,0:0|0:0,0:0:0:0:
132,316,74296,1,8,0:0:0:0:
290,316,74463,2,0,B|402:316,2,90
132,192,74963,1,0,0:0:0:0:
211,68,75129,2,0,L|256:68,1,45
380,192,75296,1,12,0:0:0:0:
380,192,75629,6,0,B|100:192,1,246.600006961212,6|0,0:0|0:0,0:0:0:0:
256,316,76129,1,0,0:0:0:0:
256,68,76296,1,8,0:0:0:0:
380,192,76463,1,0,0:0:0:0:
132,316,76629,6,0,L|132:192,1,123.300003480606,2|8,0:0|0:0,0:0:0:0:
380,68,76963,2,0,L|380:212,1,123.300003480606
132,68,77296,1,8,0:0:0:0:
380,316,77463,1,0,0:0:0:0:
132,192,77629,6,0,B|388:192,1,246.600006961212,2|0,0:0|0:0,0:0:0:0:
256,316,78129,1,0,0:0:0:0:
132,192,78296,1,8,0:0:0:0:
256,68,78463,1,0,0:0:0:0:
378,192,78629,6,0,L|250:192,1,123.300003480606,2|8,0:0|0:0,0:0:0:0:
132,316,78963,2,0,L|260:316,1,123.300003480606,8|0,0:0|0:0,0:0:0:0:
380,68,79296,1,8,0:0:0:0:
380,316,79463,1,8,0:0:0:0:
256,68,79629,6,0,B|256:316,1,246.600006961212,6|0,0:0|0:0,0:0:0:0:
380,192,80129,1,0,0:0:0:0:
256,68,80296,1,8,0:0:0:0:
132,192,80463,1,0,0:0:0:0:
256,314,80629,6,0,L|256:186,1,123.300003480606,2|8,0:0|0:0,0:0:0:0:
132,67,80963,2,0,L|259:68,1,123.300003480606
380,192,81296,2,0,L|232:192,1,123.300003480606,8|0,0:0|0:0,0:0:0:0:
380,316,81629,6,0,B|380:64,1,246.600006961212,2|0,0:0|0:0,0:0:0:0:
256,192,82129,1,0,0:0:0:0:
256,316,82296,2,0,L|128:316,1,123.300003480606,8|0,0:0|0:0,0:0:0:0:
132,68,82629,5,2,0:0:0:0:
380,192,82796,1,8,0:0:0:0:
133,316,82963,1,0,0:0:0:0:
194,68,83129,2,0,L|270:68,1,61.6500017403031
380,192,83296,2,0,L|308:190,1,61.6500017403031
131,191,83463,1,0,0:0:0:0:
380,316,83629,6,0,B|133:316,1,246.600006961212,6|0,0:0|0:0,0:0:0:0:
380,68,84129,1,0,0:0:0:0:
256,192,84296,1,8,0:0:0:0:
380,316,84463,1,0,0:0:0:0:
256,68,84629,6,0,L|128:68,1,123.300003480606,2|8,0:0|0:0,0:0:0:0:
256,316,84963,2,0,L|384:316,1,123.300003480606
132,316,85296,2,0,L|132:192,1,123.300003480606,8|0,0:0|0:0,0:0:0:0:
380,192,85629,6,0,L|252:192,1,123.300003480606,6|0,0:0|0:0,0:0:0:0:
132,68,85963,2,0,L|260:68,1,123.300003480606
256,316,86296,2,0,L|100:316,1,123.300003480606,8|0,0:0|0:0,0:0:0:0:
132,68,86629,5,2,0:0:0:0:
379,316,86796,1,8,0:0:0:0:
379,68,86963,2,0,L|256:68,1,123.300003480606,8|0,0:0|0:0,0:0:0:0:
132,316,87296,1,8,0:0:0:0:
380,68,87463,1,8,0:0:0:0:
256,316,87629,5,2,0:0:0:0:
132,68,87796,1,0,0:0:0:0:
380,192,87963,1,0,0:0:0:0:
132,316,88129,1,0,0:0:0:0:
255,68,88296,1,8,0:0:0:0:
379,316,88463,1,0,0:0:0:0:
132,192,88629,5,4,0:0:0:0:
380,68,88796,1,8,0:0:0:0:
256,192,88963,2,0,L|380:192,1,123.300003480606,8|0,0:0|0:0,0:0:0:0:
255,316,89296,2,0,L|132:316,1,123.300003480606,8|0,0:0|0:0,0:0:0:0:
214,192,89629,6,0,L|130:192,2,82.2000023204041,8|8|8,0:0|0:0|0:0,0:0:0:0:
256,150,89963,2,0,L|256:68,2,82.2000023204041,8|8|8,0:0|0:0|0:0,0:0:0:0:
298,192,90296,2,0,L|382:192,2,82.2000023204041,8|8|8,0:0|0:0|0:0,0:0:0:0:
214,316,90629,6,0,B|132:316,2,82.2000023204041,8|8|8,0:0|0:0|0:0,0:0:0:0:
214,192,90963,2,0,B|132:192,2,82.2000023204041,8|8|8,0:0|0:0|0:0,0:0:0:0:
214,68,91296,2,0,B|132:68,2,82.2000023204041,8|8|8,0:0|0:0|0:0,0:0:0:0:
256,192,91629,5,4,0:0:0:0:
256,192,91713,12,0,95629,0:0:0:0:
