osu file format v14

[General]
AudioFilename: audio.mp3
AudioLeadIn: 0
PreviewTime: 463
Countdown: 0
SampleSet: None
StackLeniency: 0.5
Mode: 0
LetterboxInBreaks: 0
WidescreenStoryboard: 0

[Editor]
Bookmarks: 73129,74963
DistanceSpacing: 1.6
BeatDivisor: 4
GridSize: 4
TimelineZoom: 2.799999

[Metadata]
Title:Aka no Ha
TitleUnicode:紅ノ葉
Artist:Nakamura Meiko
ArtistUnicode:仲村芽衣子
Creator:Lily Bread
Version:Another
Source:
Tags:ZZHBOY Sweet & Fluffy
BeatmapID:1078193
BeatmapSetID:506908

[Difficulty]
HPDrainRate:7
CircleSize:4
OverallDifficulty:8
ApproachRate:9
SliderMultiplier:1.8
SliderTickRate:1

[Events]
//Background and Video events
0,0,"58447044_p0.jpg",0,0
//Break Periods
//Storyboard Layer 0 (Background)
//Storyboard Layer 1 (Fail)
//Storyboard Layer 2 (Pass)
//Storyboard Layer 3 (Foreground)
//Storyboard Sound Samples

[TimingPoints]
-370,333.333333333333,3,2,1,60,1,0
629,-90.9090909090909,3,2,2,80,0,1
16629,-100,3,2,2,50,0,0
18629,-200,3,2,2,50,0,0
19546,-100,3,2,2,50,0,0
19879,-100,3,2,2,30,0,0
20213,-100,3,2,2,50,0,0
20629,-133.333333333333,3,2,1,35,0,0
35046,-133.333333333333,3,2,2,40,0,0
36629,-133.333333333333,3,3,1,35,0,0
44629,-133.333333333333,3,2,1,45,0,0
46213,-133.333333333333,3,2,2,45,0,0
50629,-133.333333333333,3,2,2,50,0,0
52629,-133.333333333333,3,2,1,35,0,0
55629,-83.3333333333333,3,2,2,80,0,1
71629,-100,3,2,2,50,0,0
73629,-100,3,3,1,50,0,0
74296,-100,3,2,2,50,0,0
75463,-100,3,3,1,50,0,0
75629,-83.3333333333333,3,2,2,80,0,1
90629,-83.3333333333333,3,3,1,60,0,1
91629,-83.3333333333333,3,2,2,80,0,0
91713,-83.3333333333333,3,2,2,50,0,0

[Colours]
Combo1 : 75,240,28
Combo2 : 34,145,255
Combo3 : 168,81,255
Combo4 : 255,57,156

[HitObjects]
40,176,629,6,0,P|56:92|156:56,1,198.000006042481,6|0,0:0|0:0,0:0:0:0:
260,200,1129,1,0,0:0:0:0:
320,32,1296,1,8,0:0:0:0:
128,144,1463,1,0,0:0:0:0:
317,267,1629,6,0,P|272:286|224:280,1,99.0000030212403,2|8,0:0|0:0,0:0:0:0:
344,116,1963,2,0,P|388:96|437:103,1,99.0000030212403,0|0,0:0|0:0,0:0:0:0:
480,312,2296,1,10,0:0:0:0:
400,172,2463,1,0,0:0:0:0:
224,204,2629,6,0,B|168:232|132:204|132:204|72:232|16:172,1,198.000006042481,2|0,0:0|0:0,0:0:0:0:
60,20,3129,1,0,0:0:0:0:
176,144,3296,1,8,0:0:0:0:
252,24,3463,1,0,0:0:0:0:
96,140,3629,6,0,L|96:264,1,99.0000030212403,2|8,0:0|0:0,0:0:0:0:
256,200,3963,2,0,L|256:316,1,99.0000030212403,8|0,0:0|0:0,0:0:0:0:
400,348,4296,1,8,0:0:0:0:
472,200,4463,1,8,0:0:0:0:
308,120,4629,6,0,B|252:88|196:124|196:124|144:136|100:88,1,198.000006042481,6|0,0:0|0:0,0:0:0:0:
16,32,5129,1,0,0:0:0:0:
92,224,5296,1,8,0:0:0:0:
172,48,5463,1,0,0:0:0:0:
308,120,5629,6,0,L|412:120,1,99.0000030212403,2|8,0:0|0:0,0:0:0:0:
196,220,5963,2,0,L|324:220,1,99.0000030212403,0|0,0:0|0:0,0:0:0:0:
88,320,6296,2,0,L|220:320,1,99.0000030212403,8|0,0:0|0:0,0:0:0:0:
100,208,6629,6,0,P|132:136|248:128,1,198.000006042481,2|0,0:0|0:0,0:0:0:0:
407,120,7129,1,0,0:0:0:0:
295,220,7296,2,0,P|332:240|404:224,1,99.0000030212403,8|0,0:0|0:0,0:0:0:0:
476,60,7629,5,2,0:0:0:0:
348,168,7796,1,8,0:0:0:0:
484,240,7963,2,0,L|484:300,3,49.5000015106202,0|0|0|0,0:0|0:0|0:0|0:0,0:0:0:0:
440,288,8296,2,0,L|440:348,3,49.5000015106202,0|0|0|0,0:0|0:0|0:0|0:0,0:0:0:0:
392,320,8629,6,0,B|344:336|292:340|292:340|252:292|180:320,1,198.000006042481,6|0,0:0|0:0,0:0:0:0:
48,344,9129,1,0,0:0:0:0:
176,176,9296,1,8,0:0:0:0:
232,382,9463,1,0,0:0:0:0:
116,248,9629,6,0,L|8:232,1,99.0000030212403,2|8,0:0|0:0,0:0:0:0:
260,172,9963,2,0,L|384:144,1,99.0000030212403,0|0,0:0|0:0,0:0:0:0:
128,88,10296,1,10,0:0:0:0:
200,260,10463,1,0,0:0:0:0:
356,150,10629,6,0,P|408:164|464:136,1,99.0000030212403,2|0,0:0|0:0,0:0:0:0:
264,28,10963,2,0,P|212:14|156:42,1,99.0000030212403,0|0,0:0|0:0,0:0:0:0:
157,195,11296,2,0,P|110:210|64:196,1,99.0000030212403,8|0,0:0|0:0,0:0:0:0:
220,92,11629,5,2,0:0:0:0:
300,256,11796,1,8,0:0:0:0:
404,88,11963,1,8,0:0:0:0:
244,176,12129,1,8,0:0:0:0:
328,28,12296,1,8,0:0:0:0:
112,132,12463,1,8,0:0:0:0:
288,288,12629,6,0,P|193:310|103:272,1,198.000006042481,6|0,0:0|0:0,0:0:0:0:
244,176,13129,1,0,0:0:0:0:
320,364,13296,1,8,0:0:0:0:
408,188,13463,1,0,0:0:0:0:
228,308,13629,6,0,L|130:326,1,99.0000030212403,2|8,0:0|0:0,0:0:0:0:
412,296,13963,2,0,L|502:335,1,99.0000030212403,0|0,0:0|0:0,0:0:0:0:
488,128,14296,1,8,0:0:0:0:
312,204,14463,1,0,0:0:0:0:
360,52,14629,6,0,L|116:20,1,198.000006042481,2|0,0:0|0:0,0:0:0:0:
44,88,15129,1,0,0:0:0:0:
44,88,15296,2,0,P|28:148|48:200,1,99.0000030212403,8|0,0:0|0:0,0:0:0:0:
244,120,15629,5,2,0:0:0:0:
176,172,15796,1,0,0:0:0:0:
280,336,15963,1,0,0:0:0:0:
252,228,16129,1,0,0:0:0:0:
32,340,16296,1,0,0:0:0:0:
156,292,16463,1,0,0:0:0:0:
73,126,16629,6,0,P|177:98|253:126,2,180,4|0|0,0:0|0:0|0:0,0:0:0:0:
344,316,17629,6,0,P|408:284|452:172,1,180,8|0,0:0|0:0,0:0:0:0:
376,56,18129,1,0,0:0:0:0:
312,236,18296,1,8,0:0:0:0:
264,92,18463,1,8,0:0:0:0:
264,92,18629,6,0,P|152:132|136:232,1,225,4|0,0:0|0:0,0:0:0:0:
172,364,19629,5,8,0:0:0:0:
376,320,19796,1,8,0:0:0:0:
208,264,19963,1,8,0:0:0:0:
280,344,20129,1,8,0:0:0:0:
336,164,20296,1,12,0:0:0:0:
336,164,20629,5,4,0:0:0:0:
231,314,20963,1,0,0:0:0:0:
153,148,21296,1,0,0:0:0:0:
312,240,21629,5,8,0:0:0:0:
132,252,21963,1,0,0:0:0:0:
212,87,22296,1,0,0:0:0:0:
232,240,22629,6,0,P|276:312|336:320,1,135.000005149842,2|0,0:0|0:0,0:0:0:0:
452,204,23296,1,0,0:0:0:0:
452,204,23463,1,0,0:0:0:0:
452,204,23629,6,0,B|472:160|452:120|452:120|452:40,2,135.000005149842,8|0|0,0:0|0:0|0:0,0:0:0:0:
244,276,24629,5,2,0:0:0:0:
217,92,24963,1,0,0:0:0:0:
388,161,25296,1,0,0:0:0:0:
209,203,25629,6,0,P|120:188|56:212,1,135.000005149842,8|0,0:0|0:0,0:0:0:0:
184,344,26296,1,0,0:0:0:0:
184,344,26463,1,0,0:0:0:0:
184,344,26629,6,0,P|273:359|337:335,1,135.000005149842,2|0,0:0|0:0,0:0:0:0:
392,292,27129,1,0,0:0:0:0:
392,292,27296,2,0,L|400:208,1,67.5000025749208,0|0,0:0|0:0,0:0:0:0:
424,136,27629,6,0,P|476:172|488:264,2,135.000005149842,8|0|0,0:0|0:0|0:0,0:0:0:0:
308,248,28629,5,4,0:0:0:0:
128,213,28963,1,0,0:0:0:0:
248,74,29296,1,0,0:0:0:0:
228,256,29629,5,8,0:0:0:0:
144,97,29963,1,0,0:0:0:0:
327,103,30296,1,0,0:0:0:0:
156,204,30629,6,0,P|132:260|180:332,1,135.000005149842,2|0,0:0|0:0,0:0:0:0:
336,256,31296,1,0,0:0:0:0:
336,256,31463,1,0,0:0:0:0:
336,256,31629,6,0,P|400:268|480:216,2,135.000005149842,8|0|0,0:0|0:0|0:0,0:0:0:0:
366,84,32629,5,4,0:0:0:0:
223,199,32963,1,0,0:0:0:0:
194,18,33296,1,0,0:0:0:0:
312,156,33629,5,12,0:0:0:0:
136,99,33963,1,0,0:0:0:0:
175,278,34296,1,0,0:0:0:0:
244,112,34629,6,0,P|300:76|368:96,1,135.000005149842,4|0,0:0|0:0,0:0:0:0:
440,168,35129,1,8,0:0:0:0:
356,336,35296,1,8,0:0:0:0:
444,276,35463,1,8,0:0:0:0:
268,272,35629,6,0,P|208:256|164:280,1,101.250003862381,8|0,0:0|0:0,0:0:0:0:
144,316,35963,2,0,L|92:320,2,33.7500012874604,8|0|0,3:0|0:0|0:0,0:0:0:0:
128,208,36296,2,0,L|80:196,2,33.7500012874604,4|0|0,3:0|0:0|0:0,0:0:0:0:
208,136,36629,6,0,B|272:112|272:112|336:136,1,135.000005149842,4|8,0:0|0:0,0:0:0:0:
444,136,37129,2,0,B|416:72|416:72|356:44,1,135.000005149842,8|8,0:0|0:0,0:0:0:0:
252,32,37629,6,0,B|185:32|185:32|134:77,1,135.000005149842,8|8,0:0|0:0,0:0:0:0:
136,188,38129,2,0,B|137:254|137:254|94:307,1,135.000005149842,8|8,0:0|0:0,0:0:0:0:
36,216,38629,6,0,B|32:172|32:172|60:108,1,101.250003862381,8|0,0:0|0:0,0:0:0:0:
104,100,38963,2,0,B|140:104|140:104|200:88,1,67.5000025749208,0|0,0:0|0:0,0:0:0:0:
248,20,39296,1,0,0:0:0:0:
348,60,39463,1,0,0:0:0:0:
272,136,39629,6,0,B|264:176|264:176|276:228,1,67.5000025749208,8|8,0:0|0:0,0:0:0:0:
376,180,39963,2,0,B|382:206|382:206|374:246,1,67.5000025749208,8|8,0:0|0:0,0:0:0:0:
276,296,40296,1,2,0:0:0:0:
484,232,40629,6,0,B|484:164|484:164|440:92,1,135.000005149842,4|8,0:0|0:0,0:0:0:0:
352,56,41129,2,0,B|284:56|284:56|226:90,1,135.000005149842,8|8,0:0|0:0,0:0:0:0:
312,160,41629,6,0,B|311:226|311:226|275:284,1,135.000005149842,8|8,0:0|0:0,0:0:0:0:
208,200,42129,2,0,B|149:164|149:164|65:165,1,135.000005149842,8|8,0:0|0:0,0:0:0:0:
24,256,42629,6,0,B|56:308|56:308|96:328,1,101.250003862381,4|0,0:0|0:0,0:0:0:0:
144,312,42963,2,0,B|176:308|176:308|220:312,1,67.5000025749208,0|0,0:0|0:0,0:0:0:0:
374,357,43296,1,0,0:0:0:0:
276,248,43463,1,0,0:0:0:0:
396,264,43629,6,0,B|433:268|433:268|468:260,1,67.5000025749208,12|8,0:0|0:0,0:0:0:0:
406,163,43963,2,0,B|369:158|369:158|340:166,1,67.5000025749208,8|8,0:0|0:0,0:0:0:0:
324,304,44296,1,2,0:0:0:0:
500,180,44463,1,2,0:0:0:0:
340,167,44629,6,0,P|308:180|275:174,1,67.5000025749208,4|0,0:0|0:0,0:0:0:0:
325,9,44963,2,0,P|304:34|300:68,1,67.5000025749208,0|0,0:0|0:0,0:0:0:0:
440,135,45296,2,0,P|428:103|403:83,1,67.5000025749208,8|0,0:0|0:0,0:0:0:0:
275,173,45629,6,0,P|306:160|339:167,1,67.5000025749208,2|0,0:0|0:0,0:0:0:0:
290,330,45963,2,0,P|311:304|318:272,1,67.5000025749208,0|0,0:0|0:0,0:0:0:0:
172,204,46296,2,0,P|184:236|210:257,1,67.5000025749208,8|0,0:0|0:0,0:0:0:0:
168,96,46629,6,0,P|104:108|64:172,1,135.000005149842,2|0,0:0|0:0,0:0:0:0:
176,359,47129,2,0,P|115:332|80:276,1,135.000005149842,2|0,0:0|0:0,0:0:0:0:
252,280,47629,6,0,P|284:272|336:284,1,67.5000025749208,0|0,0:0|0:0,0:0:0:0:
408,340,47963,2,0,P|441:344|473:336,1,67.5000025749208,0|0,0:0|0:0,0:0:0:0:
496,208,48296,1,8,0:0:0:0:
376,156,48463,1,8,0:0:0:0:
210,193,48629,6,0,P|243:198|275:187,1,67.5000025749208,2|0,0:0|0:0,0:0:0:0:
259,27,48963,2,0,P|238:53|234:87,1,67.5000025749208,0|0,0:0|0:0,0:0:0:0:
376,156,49296,2,0,P|364:125|339:104,1,67.5000025749208
376,304,49629,5,10,0:0:0:0:
188,276,49796,1,10,0:0:0:0:
188,276,50463,1,0,0:0:0:0:
188,276,50546,1,0,0:0:0:0:
188,276,50629,5,8,0:0:0:0:
179,154,50796,1,0,0:0:0:0:
78,222,50963,1,0,0:0:0:0:
296,320,51129,1,8,0:0:0:0:
302,197,51296,1,0,0:0:0:0:
404,264,51463,1,0,0:0:0:0:
281,85,51629,5,8,0:0:0:0:
179,154,51796,1,0,0:0:0:0:
171,32,51963,1,0,0:0:0:0:
108,240,52129,1,8,0:0:0:0:
64,140,52296,2,0,L|0:140,3,33.7500012874604,0|0|0|0,0:0|0:0|0:0|0:0,0:0:0:0:
32,196,52629,6,0,L|32:352,2,135.000005149842,2|0|0,0:0|0:0|0:0,0:0:0:0:
232,116,53629,6,0,P|292:75|359:67,1,135.000005149842,4|0,0:0|0:0,0:0:0:0:
353,67,54629,5,0,0:0:0:0:
304,216,54796,1,0,0:0:0:0:
460,184,54963,1,0,0:0:0:0:
376,148,55129,1,0,0:0:0:0:
332,288,55296,1,0,0:0:0:0:
310,293,55379,1,0,0:0:0:0:
288,292,55462,1,0,0:0:0:0:
266,287,55546,1,0,0:0:0:0:
248,280,55629,6,0,B|68:216|68:216|92:264,1,215.999993408203,4|8,0:0|0:0,0:0:0:0:
156,356,56129,1,0,0:0:0:0:
260,148,56296,1,8,0:0:0:0:
328,360,56463,1,0,0:0:0:0:
188,284,56629,6,0,L|75:247,1,107.999996704102,2|0,0:0|0:0,0:0:0:0:
360,248,56963,2,0,L|480:288,1,107.999996704102,8|0,0:0|0:0,0:0:0:0:
356,96,57296,1,8,0:0:0:0:
272,272,57463,1,0,0:0:0:0:
208,88,57629,6,0,B|174:52|109:48|109:48|64:92|-2:79,1,215.999993408203,2|8,0:0|0:0,0:0:0:0:
244,160,58129,1,0,0:0:0:0:
84,240,58296,1,8,0:0:0:0:
40,8,58463,1,0,0:0:0:0:
160,152,58629,6,0,L|160:295,1,107.999996704102,2|0,0:0|0:0,0:0:0:0:
328,236,58963,2,0,L|328:368,1,107.999996704102,8|0,0:0|0:0,0:0:0:0:
456,120,59296,1,8,0:0:0:0:
340,24,59463,1,8,0:0:0:0:
184,56,59629,6,0,B|116:112|52:72|52:72|40:176,1,215.999993408203,2|8,0:0|0:0,0:0:0:0:
152,260,60129,1,0,0:0:0:0:
288,140,60296,1,8,0:0:0:0:
108,16,60463,1,0,0:0:0:0:
224,200,60629,6,0,L|324:252,1,107.999996704102,2|0,0:0|0:0,0:0:0:0:
32,288,60963,2,0,L|132:340,1,107.999996704102,8|0,0:0|0:0,0:0:0:0:
288,280,61296,1,8,0:0:0:0:
444,348,61463,1,0,0:0:0:0:
382,181,61629,6,0,P|322:141|266:145,1,107.999996704102,2|0,0:0|0:0,0:0:0:0:
152,316,61963,1,8,0:0:0:0:
52,260,62129,1,0,0:0:0:0:
200,136,62296,1,8,0:0:0:0:
144,216,62463,1,0,0:0:0:0:
16,76,62629,5,10,0:0:0:0:
92,136,62796,1,0,0:0:0:0:
236,8,62963,1,8,0:0:0:0:
168,72,63129,1,0,0:0:0:0:
360,108,63296,1,8,0:0:0:0:
244,236,63463,1,8,0:0:0:0:
228,256,63546,1,8,0:0:0:0:
212,276,63629,6,0,B|332:284|332:284|380:256|450:287,1,215.999993408203,4|8,0:0|0:0,0:0:0:0:
496,160,64129,1,0,0:0:0:0:
384,352,64296,1,8,0:0:0:0:
284,112,64463,1,0,0:0:0:0:
176,292,64629,6,0,L|56:276,1,107.999996704102,10|0,0:0|0:0,0:0:0:0:
304,192,64963,2,0,L|436:164,1,107.999996704102,8|0,0:0|0:0,0:0:0:0:
128,88,65296,1,8,0:0:0:0:
256,256,65463,1,0,0:0:0:0:
376,92,65629,6,0,P|429:90|484:136,1,107.999996704102,10|0,0:0|0:0,0:0:0:0:
276,340,65963,2,0,P|323:316|348:269,1,107.999996704102,8|0,0:0|0:0,0:0:0:0:
180,68,66296,2,0,P|177:120|205:165,1,107.999996704102,8|0,0:0|0:0,0:0:0:0:
112,320,66629,6,0,L|-12:316,1,107.999996704102,10|0,0:0|0:0,0:0:0:0:
240,236,66963,1,8,0:0:0:0:
100,192,67129,1,0,0:0:0:0:
293,99,67296,1,8,0:0:0:0:
197,327,67463,1,8,0:0:0:0:
210,113,67629,6,0,P|159:72|100:82,1,107.999996704102,10|0,0:0|0:0,0:0:0:0:
280,312,67963,2,0,P|331:352|389:342,1,107.999996704102,8|0,0:0|0:0,0:0:0:0:
156,204,68296,1,8,0:0:0:0:
401,174,68463,1,0,0:0:0:0:
209,269,68629,6,0,P|198:321|222:368,1,107.999996704102,10|0,0:0|0:0,0:0:0:0:
348,110,68963,2,0,P|356:45|318:0,1,107.999996704102,8|0,0:0|0:0,0:0:0:0:
316,270,69296,1,8,0:0:0:0:
167,73,69463,1,0,0:0:0:0:
346,192,69629,6,0,P|406:167|426:112,1,107.999996704102,10|0,0:0|0:0,0:0:0:0:
138,152,69963,2,0,P|78:177|57:231,1,107.999996704102,8|0,0:0|0:0,0:0:0:0:
316,270,70296,2,0,L|192:270,1,107.999996704102,10|0,0:0|0:0,0:0:0:0:
275,73,70629,6,0,L|151:73,1,107.999996704102,10|0,0:0|0:0,0:0:0:0:
116,268,70963,1,8,0:0:0:0:
40,44,71129,1,8,0:0:0:0:
172,160,71296,1,8,0:0:0:0:
208,160,71379,1,8,0:0:0:0:
244,160,71462,1,8,0:0:0:0:
280,160,71545,1,8,0:0:0:0:
312,160,71629,6,0,P|400:136|428:32,2,180,4|0|0,0:0|0:0|0:0,0:0:0:0:
91,163,72629,6,0,P|112:247|192:284,1,180,8|0,0:0|0:0,0:0:0:0:
256,224,73129,1,0,0:0:0:0:
376,304,73296,1,8,0:0:0:0:
404,164,73463,1,8,0:0:0:0:
278,114,73629,6,0,B|238:90|238:90|182:90,1,90,0|8,0:0|0:0,0:0:0:0:
82,162,73963,2,0,B|61:120|61:120|62:74,1,90,8|8,0:0|0:0,0:0:0:0:
194,90,74296,1,8,0:0:0:0:
194,222,74463,2,0,B|172:259|172:259|131:282,2,90,0|0|0,0:0|0:0|0:0,0:0:0:0:
312,192,74963,1,0,0:0:0:0:
448,80,75129,1,0,0:0:0:0:
448,80,75213,1,0,0:0:0:0:
448,80,75296,1,12,0:0:0:0:
480,164,75629,6,0,B|424:180|380:140|380:140|336:100|244:120,1,215.999993408203,6|0,0:0|0:0,0:0:0:0:
120,280,76129,1,0,0:0:0:0:
132,68,76296,1,8,0:0:0:0:
312,184,76463,1,0,0:0:0:0:
84,136,76629,6,0,P|52:92|56:36,1,107.999996704102,2|8,0:0|0:0,0:0:0:0:
204,276,76963,2,0,P|189:328|142:359,1,107.999996704102,0|0,0:0|0:0,0:0:0:0:
200,124,77296,1,8,0:0:0:0:
384,272,77463,1,0,0:0:0:0:
308,80,77629,6,0,B|252:84|220:28|220:28|140:12|104:76,1,215.999993408203,2|0,0:0|0:0,0:0:0:0:
36,224,78129,1,0,0:0:0:0:
200,124,78296,1,8,0:0:0:0:
32,40,78463,1,0,0:0:0:0:
296,4,78629,6,0,L|404:4,1,107.999996704102,2|8,0:0|0:0,0:0:0:0:
240,200,78963,2,0,L|120:200,1,107.999996704102,8|0,0:0|0:0,0:0:0:0:
384,104,79296,1,8,0:0:0:0:
256,316,79463,1,8,0:0:0:0:
200,124,79629,6,0,B|240:88|304:108|304:108|308:164|376:188,1,215.999993408203,6|0,0:0|0:0,0:0:0:0:
472,328,80129,1,0,0:0:0:0:
500,124,80296,1,8,0:0:0:0:
312,252,80463,1,0,0:0:0:0:
384,104,80629,6,0,P|400:56|476:20,1,107.999996704102,2|8,0:0|0:0,0:0:0:0:
352,324,80963,2,0,P|302:334|233:286,1,107.999996704102,0|0,0:0|0:0,0:0:0:0:
236,48,81296,2,0,P|269:85|262:169,1,107.999996704102,8|0,0:0|0:0,0:0:0:0:
72,232,81629,6,0,B|200:188|200:188|224:224|272:224,1,215.999993408203,2|0,0:0|0:0,0:0:0:0:
352,324,82129,1,0,0:0:0:0:
372,211,82296,2,0,L|384:99,1,107.999996704102,8|0,0:0|0:0,0:0:0:0:
192,120,82629,5,2,0:0:0:0:
320,24,82796,1,8,0:0:0:0:
372,211,82963,2,0,L|456:212,3,53.9999983520508,0|0|0|0,0:0|0:0|0:0|0:0,0:0:0:0:
412,264,83296,2,0,L|496:265,3,53.9999983520508,0|0|0|0,0:0|0:0|0:0|0:0,0:0:0:0:
440,320,83629,6,0,B|376:352|376:352|328:280|228:300,1,215.999993408203,6|0,0:0|0:0,0:0:0:0:
52,360,84129,1,0,0:0:0:0:
80,160,84296,1,8,0:0:0:0:
200,352,84463,1,0,0:0:0:0:
164,144,84629,6,0,P|120:88|76:80,1,107.999996704102,2|8,0:0|0:0,0:0:0:0:
224,364,84963,2,0,P|294:353|323:319,1,107.999996704102,0|0,0:0|0:0,0:0:0:0:
284,56,85296,2,0,P|257:122|296:204,1,161.999995056153,8|0,0:0|0:0,0:0:0:0:
272,240,85629,6,0,P|220:256|156:232,1,107.999996704102,6|0,0:0|0:0,0:0:0:0:
403,119,85963,2,0,P|415:67|453:30,1,107.999996704102,0|0,0:0|0:0,0:0:0:0:
444,288,86296,2,0,P|483:324|496:375,1,107.999996704102,8|0,0:0|0:0,0:0:0:0:
496,116,86629,5,2,0:0:0:0:
412,364,86796,1,8,0:0:0:0:
361,186,86963,2,0,P|323:147|272:136,1,107.999996704102,8|0,0:0|0:0,0:0:0:0:
216,328,87296,1,8,0:0:0:0:
120,184,87463,1,8,0:0:0:0:
332,288,87629,5,2,0:0:0:0:
296,40,87796,1,0,0:0:0:0:
280,216,87963,1,0,0:0:0:0:
484,108,88129,1,0,0:0:0:0:
271,136,88296,2,0,L|160:136,1,107.999996704102,8|0,0:0|0:0,0:0:0:0:
32,44,88629,5,4,0:0:0:0:
100,252,88796,1,8,0:0:0:0:
188,40,88963,2,0,L|300:40,1,107.999996704102,8|0,0:0|0:0,0:0:0:0:
452,156,89296,2,0,P|472:228|400:256,1,161.999995056153,8|0,0:0|0:0,0:0:0:0:
360,236,89629,6,0,L|284:236,2,71.9999978027344,8|8|8,0:0|0:0|0:0,0:0:0:0:
420,288,89963,2,0,L|458:353,2,71.9999978027344,8|8|8,0:0|0:0|0:0,0:0:0:0:
432,212,90296,2,0,L|470:146,2,71.9999978027344,8|8|8,0:0|0:0|0:0,0:0:0:0:
360,148,90629,6,0,B|340:120|340:120|288:96,2,71.9999978027344,8|8|8,0:0|0:0|0:0,0:0:0:0:
260,196,90963,2,0,B|245:227|245:227|250:284,2,71.9999978027344,8|8|8,0:0|0:0|0:0,0:0:0:0:
352,256,91296,2,0,B|386:252|386:252|433:219,2,71.9999978027344,8|8|8,0:0|0:0|0:0,0:0:0:0:
308,336,91629,5,4,0:0:0:0:
256,192,91713,12,0,95629,0:0:0:0:
