osu file format v14

[General]
AudioFilename: audio.mp3
AudioLeadIn: 0
PreviewTime: 463
Countdown: 0
SampleSet: None
StackLeniency: 0.7
Mode: 0
LetterboxInBreaks: 0
WidescreenStoryboard: 0

[Editor]
Bookmarks: 71629,73129,74963,75296
DistanceSpacing: 1
BeatDivisor: 2
GridSize: 4
TimelineZoom: 3.699999

[Metadata]
Title:Aka no Ha
TitleUnicode:紅ノ葉
Artist:Nakamura Meiko
ArtistUnicode:仲村芽衣子
Creator:Lily Bread
Version:Advanced
Source:
Tags:ZZHBOY Sweet & Fluffy
BeatmapID:1099007
BeatmapSetID:506908

[Difficulty]
HPDrainRate:4
CircleSize:3.5
OverallDifficulty:4
ApproachRate:6
SliderMultiplier:1.1
SliderTickRate:1

[Events]
//Background and Video events
0,0,"58447044_p0.jpg",0,0
//Break Periods
//Storyboard Layer 0 (Background)
//Storyboard Layer 1 (Fail)
//Storyboard Layer 2 (Pass)
//Storyboard Layer 3 (Foreground)
//Storyboard Sound Samples

[TimingPoints]
-370,333.333333333333,3,2,1,60,1,0
629,-100,3,2,2,80,0,1
16629,-100,3,2,2,50,0,0
18629,-100,3,2,2,50,0,0
19546,-100,3,2,2,50,0,0
19879,-100,3,2,2,30,0,0
20213,-100,3,2,2,50,0,0
20629,-100,3,2,1,35,0,0
35046,-100,3,2,2,40,0,0
36629,-100,3,3,1,35,0,0
44629,-100,3,2,1,45,0,0
46213,-100,3,2,2,45,0,0
50629,-100,3,2,2,50,0,0
52629,-100,3,2,1,35,0,0
55629,-100,3,2,2,80,0,1
71629,-100,3,2,2,50,0,0
73629,-100,3,3,1,50,0,0
74296,-100,3,2,2,50,0,0
75463,-100,3,3,1,50,0,0
75629,-100,3,2,2,80,0,1
90629,-100,3,3,1,60,0,1
91629,-100,3,2,2,80,0,0
91713,-100,3,2,2,50,0,0

[Colours]
Combo1 : 75,240,28
Combo2 : 34,145,255
Combo3 : 168,81,255
Combo4 : 255,57,156

[HitObjects]
40,108,629,6,0,P|120:76|224:108,1,165,6|0,0:0|0:0,0:0:0:0:
244,116,1296,2,0,L|316:116,1,55,8|0,0:0|0:0,0:0:0:0:
352,136,1629,2,0,P|396:188|376:268,1,110,2|0,0:0|0:0,0:0:0:0:
324,308,2296,2,0,L|240:308,1,55,10|0,0:0|0:0,0:0:0:0:
212,308,2629,6,0,P|128:292|84:196,1,165,2|0,0:0|0:0,0:0:0:0:
84,176,3296,2,0,L|84:88,1,55,8|0,0:0|0:0,0:0:0:0:
100,68,3629,1,2,0:0:0:0:
192,124,3963,1,8,0:0:0:0:
264,40,4296,1,8,0:0:0:0:
320,132,4629,6,0,P|320:228|332:316,1,165,6|0,0:0|0:0,0:0:0:0:
364,340,5296,2,0,L|424:340,1,55,8|0,0:0|0:0,0:0:0:0:
472,320,5629,1,2,0:0:0:0:
412,228,5963,1,0,0:0:0:0:
472,136,6296,1,8,0:0:0:0:
416,40,6629,6,0,P|340:24|224:48,1,165,2|0,0:0|0:0,0:0:0:0:
204,56,7296,2,0,L|192:180,1,110,8|2,0:0|0:0,0:0:0:0:
192,220,7796,2,0,P|267:287|347:225,1,220,8|0,0:0|0:0,0:0:0:0:
340,172,8629,6,0,P|392:120|508:140,1,165,6|0,0:0|0:0,0:0:0:0:
500,172,9296,2,0,L|504:244,1,55,8|0,0:0|0:0,0:0:0:0:
488,280,9629,2,0,P|436:328|372:320,1,110,2|0,0:0|0:0,0:0:0:0:
288,320,10296,2,0,L|192:320,1,55,10|0,0:0|0:0,0:0:0:0:
180,300,10629,5,2,0:0:0:0:
224,200,10963,1,0,0:0:0:0:
116,212,11296,1,8,0:0:0:0:
164,112,11629,2,0,P|248:92|320:144,1,165,2|8,0:0|0:0,0:0:0:0:
344,176,12296,2,0,L|360:256,1,55,8|8,0:0|0:0,0:0:0:0:
384,276,12629,6,0,P|452:296|504:228,1,165,6|0,0:0|0:0,0:0:0:0:
500,176,13296,2,0,L|481:96,1,55,8|0,0:0|0:0,0:0:0:0:
464,72,13629,2,0,P|400:44|304:64,1,165,2|0,0:0|0:0,0:0:0:0:
256,76,14296,2,0,L|160:76,1,55,8|0,0:0|0:0,0:0:0:0:
148,92,14629,6,0,P|84:124|76:224,1,165,2|0,0:0|0:0,0:0:0:0:
100,256,15296,1,8,0:0:0:0:
176,336,15629,1,2,0:0:0:0:
260,264,15963,1,0,0:0:0:0:
184,184,16296,1,0,0:0:0:0:
272,116,16629,6,0,P|368:72|456:132,1,220,4|0,0:0|0:0,0:0:0:0:
468,240,17629,2,0,P|456:312|424:348,1,110,8|0,0:0|0:0,0:0:0:0:
324,336,18296,2,0,L|252:336,1,55,8|8,0:0|0:0,0:0:0:0:
212,336,18629,5,4,0:0:0:0:
448,108,19629,2,0,L|376:108,1,55,8|8,0:0|0:0,0:0:0:0:
372,56,19963,2,0,L|296:56,1,55,8|8,0:0|0:0,0:0:0:0:
268,76,20296,1,12,0:0:0:0:
212,168,20629,6,0,B|160:136|160:72|160:72|112:24|32:56,1,220,4|0,0:0|0:0,0:0:0:0:
68,156,21629,2,0,P|136:244|264:264,1,220,8|0,0:0|0:0,0:0:0:0:
332,212,22629,2,0,B|368:164|352:100|352:100|376:40|468:56,1,220,2|0,0:0|0:0,0:0:0:0:
500,144,23629,1,8,0:0:0:0:
208,300,24629,6,0,B|184:240|206:190|206:190|232:140|208:80,1,220,2|0,0:0|0:0,0:0:0:0:
100,88,25629,2,0,B|121:141|96:191|96:191|73:241|97:301,1,220,8|0,0:0|0:0,0:0:0:0:
208,300,26629,2,0,P|296:308|392:284,2,165,2|0|8,0:0|0:0|0:0,0:0:0:0:
228,72,28629,6,0,P|120:80|48:200,1,220,4|0,0:0|0:0,0:0:0:0:
4,260,29629,2,0,P|112:252|184:132,1,220,8|0,0:0|0:0,0:0:0:0:
228,72,30629,2,0,P|328:48|396:140,1,220,2|0,0:0|0:0,0:0:0:0:
404,240,31629,1,8,0:0:0:0:
80,304,32629,5,4,0:0:0:0:
260,28,33629,1,12,0:0:0:0:
432,304,34629,2,0,P|360:328|248:288,1,165,4|8,0:0|0:0,0:0:0:0:
180,172,35629,2,0,P|120:160|52:184,2,110,8|8|4,0:0|3:0|3:0,0:0:0:0:
280,220,36629,6,0,P|284:136|216:64,1,165,4|8,0:0|0:0,0:0:0:0:
392,36,37629,2,0,P|420:88|432:208,1,165,8|8,0:0|0:0,0:0:0:0:
344,332,38629,2,0,P|232:336|104:320,1,220,8|0,0:0|0:0,0:0:0:0:
52,240,39629,2,0,L|56:12,1,220,8|2,0:0|0:0,0:0:0:0:
160,52,40629,6,0,P|236:72|328:44,1,165,4|8,0:0|0:0,0:0:0:0:
484,36,41629,2,0,P|488:128|476:212,1,165,8|8,0:0|0:0,0:0:0:0:
364,320,42629,2,0,P|256:332|124:312,1,220,4|0,0:0|0:0,0:0:0:0:
76,232,43629,2,0,P|184:220|232:240,1,110,12|8,0:0|0:0,0:0:0:0:
292,248,44296,2,0,L|368:248,1,55,2|2,0:0|0:0,0:0:0:0:
404,244,44629,6,0,P|464:228|508:188,2,110,4|0|8,0:0|0:0|0:0,0:0:0:0:
340,156,45629,2,0,P|272:136|196:136,1,110,2|0,0:0|0:0,0:0:0:0:
124,132,46296,1,8,0:0:0:0:
104,240,46629,6,0,P|124:300|120:348,1,110,2|0,0:0|0:0,0:0:0:0:
172,360,47129,2,0,P|228:348|296:356,1,110,2|0,0:0|0:0,0:0:0:0:
336,352,47629,2,0,L|448:352,1,110,0|0,0:0|0:0,0:0:0:0:
492,252,48296,2,0,L|444:204,1,55,8|8,0:0|0:0,0:0:0:0:
408,184,48629,6,0,P|352:172|256:196,2,110,2|0|0,0:0|0:0|0:0,0:0:0:0:
492,112,49629,2,0,L|492:28,1,55,10|10,0:0|0:0,0:0:0:0:
216,60,50629,6,0,L|136:60,2,55,8|0|0,0:0|0:0|0:0,0:0:0:0:
260,92,51129,2,0,L|340:92,2,55,8|0|0,0:0|0:0|0:0,0:0:0:0:
232,140,51629,2,0,L|152:140,2,55,8|0|0,0:0|0:0|0:0,0:0:0:0:
276,172,52129,2,0,L|356:172,2,55,8|0|0,0:0|0:0|0:0,0:0:0:0:
240,216,52629,5,2,0:0:0:0:
508,24,53629,1,4,0:0:0:0:
240,216,54629,2,0,P|158:241|112:104,1,220,0|0,0:0|0:0,0:0:0:0:
180,72,55629,6,0,P|232:88|348:60,1,165,4|0,0:0|0:0,0:0:0:0:
392,64,56296,2,0,L|460:64,1,55,8|0,0:0|0:0,0:0:0:0:
476,112,56629,2,0,P|492:160|476:228,1,110,2|8,0:0|0:0,0:0:0:0:
384,168,57296,2,0,L|308:168,1,55,8|0,0:0|0:0,0:0:0:0:
276,172,57629,6,0,P|208:216|192:256,1,110,2|8,0:0|0:0,0:0:0:0:
300,276,58296,2,0,L|340:336,1,55,8|0,0:0|0:0,0:0:0:0:
364,364,58629,1,2,0:0:0:0:
452,296,58963,1,8,0:0:0:0:
388,204,59296,2,0,L|400:132,1,55,8|8,0:0|0:0,0:0:0:0:
384,96,59629,6,0,P|328:68|224:80,1,165,2|0,0:0|0:0,0:0:0:0:
200,124,60296,2,0,L|188:184,1,55,8|0,0:0|0:0,0:0:0:0:
176,232,60629,1,2,0:0:0:0:
96,304,60963,1,8,0:0:0:0:
28,216,61296,1,8,0:0:0:0:
108,144,61629,6,0,L|136:32,1,110,2|8,0:0|0:0,0:0:0:0:
244,16,62296,1,8,0:0:0:0:
312,104,62629,2,0,P|392:112|428:96,1,110,10|8,0:0|0:0,0:0:0:0:
500,28,63296,1,8,0:0:0:0:
500,136,63629,6,0,L|484:304,1,165,4|0,0:0|0:0,0:0:0:0:
444,336,64296,2,0,L|376:356,1,55,8|0,0:0|0:0,0:0:0:0:
340,336,64629,2,0,P|280:316|216:328,1,110,10|8,0:0|0:0,0:0:0:0:
124,336,65296,2,0,L|92:280,1,55,8|0,0:0|0:0,0:0:0:0:
68,244,65629,5,10,0:0:0:0:
92,136,65963,1,8,0:0:0:0:
188,192,66296,1,8,0:0:0:0:
256,104,66629,2,0,P|348:96|376:120,1,110,10|8,0:0|0:0,0:0:0:0:
444,168,67296,2,0,L|464:236,1,55,8|8,0:0|0:0,0:0:0:0:
448,276,67629,6,0,P|396:324|336:316,1,110,10|8,0:0|0:0,0:0:0:0:
280,248,68296,2,0,L|264:178,1,55,8|0,0:0|0:0,0:0:0:0:
231,151,68629,2,0,P|162:134|113:170,1,110,10|8,0:0|0:0,0:0:0:0:
36,92,69296,2,0,L|88:48,1,55,8|0,0:0|0:0,0:0:0:0:
128,36,69629,6,0,P|176:28|264:44,1,110,10|8,0:0|0:0,0:0:0:0:
332,92,70296,1,10,0:0:0:0:
432,44,70629,1,10,0:0:0:0:
468,148,70963,2,0,L|472:264,1,110,8|8,0:0|0:0,0:0:0:0:
368,292,71629,6,0,P|312:332|76:252,1,330,4|8,0:0|0:0,0:0:0:0:
300,216,73296,2,0,L|396:216,1,55,8|8,0:0|0:0,0:0:0:0:
412,220,73629,2,0,P|440:144|320:88,2,220,0|8|0,0:0|0:0|0:0,0:0:0:0:
444,328,75296,1,12,0:0:0:0:
336,312,75629,6,0,P|254:336|154:293,1,165,6|0,0:0|0:0,0:0:0:0:
144,272,76296,2,0,L|132:188,1,55,8|0,0:0|0:0,0:0:0:0:
128,164,76629,2,0,P|124:104|164:28,1,110,2|0,0:0|0:0,0:0:0:0:
248,84,77296,2,0,L|332:84,1,55,8|0,0:0|0:0,0:0:0:0:
360,84,77629,6,0,P|440:116|465:219,1,165,2|0,0:0|0:0,0:0:0:0:
472,240,78296,2,0,L|468:328,1,55,8|0,0:0|0:0,0:0:0:0:
464,348,78629,1,2,0:0:0:0:
372,288,78963,1,8,0:0:0:0:
300,372,79296,1,8,0:0:0:0:
256,272,79629,6,0,P|200:216|96:233,1,165,6|0,0:0|0:0,0:0:0:0:
92,268,80296,2,0,L|72:340,1,55,8|0,0:0|0:0,0:0:0:0:
56,372,80629,1,2,0:0:0:0:
4,276,80963,1,0,0:0:0:0:
48,176,81296,1,8,0:0:0:0:
152,136,81629,6,0,P|228:116|336:152,1,165,2|0,0:0|0:0,0:0:0:0:
356,168,82296,2,0,L|376:284,1,110,8|2,0:0|0:0,0:0:0:0:
368,332,82796,2,0,P|492:304|492:212,1,220,8|0,0:0|0:0,0:0:0:0:
500,172,83629,6,0,P|460:88|368:64,1,165,6|0,0:0|0:0,0:0:0:0:
344,68,84296,2,0,L|272:72,1,55,8|0,0:0|0:0,0:0:0:0:
240,100,84629,2,0,P|188:112|112:92,1,110,2|0,0:0|0:0,0:0:0:0:
40,160,85296,1,8,0:0:0:0:
36,268,85629,5,6,0:0:0:0:
124,216,85963,1,0,0:0:0:0:
120,324,86296,1,8,0:0:0:0:
208,260,86629,2,0,P|262:201|343:195,1,165,2|0,0:0|0:0,0:0:0:0:
388,224,87296,1,8,0:0:0:0:
476,160,87629,6,0,L|476:80,1,55,2|0,0:0|0:0,0:0:0:0:
420,108,87963,2,0,L|420:32,1,55,0|0,0:0|0:0,0:0:0:0:
364,60,88296,2,0,L|364:4,1,55,8|0,0:0|0:0,0:0:0:0:
312,24,88629,2,0,L|184:24,1,110,4|8,0:0|0:0,0:0:0:0:
100,68,89296,1,8,0:0:0:0:
152,164,89629,6,0,P|180:232|352:276,1,220,8|8,0:0|0:0,0:0:0:0:
396,220,90629,2,0,P|368:152|196:108,1,220,8|8,0:0|0:0,0:0:0:0:
256,192,91629,12,0,95629,0:0:0:0:
