osu file format v14

[General]
AudioFilename: audio 123.mp3
AudioLeadIn: 0
PreviewTime: 488
Countdown: 0
SampleSet: Normal
StackLeniency: 0.7
Mode: 1
LetterboxInBreaks: 0
WidescreenStoryboard: 1

[Editor]
DistanceSpacing: 0.8
BeatDivisor: 4
GridSize: 32
TimelineZoom: 1

[Metadata]
Title:Star Light Zone ~ Mega Drive version ~
TitleUnicode:Star Light Zone ~ Mega Drive version ~
Artist:Nakamura Masato
ArtistUnicode:中村正人
Creator:Peaceful
Version:Muzukashii
Source:ソニック・ザ・ヘッジホッグ
Tags:instrumental video game original soundtrack music OST ソニックチーム Sonic the hedgehog 1 team sega _DUSK_ -Dusk MetalStream electronic vgm
BeatmapID:2809985
BeatmapSetID:1357811

[Difficulty]
HPDrainRate:7
CircleSize:5
OverallDifficulty:4
ApproachRate:5
SliderMultiplier:1.4
SliderTickRate:1

[Events]
//Background and Video events
0,0,"o8SnUJS.jpeg",0,0
//Break Periods
//Storyboard Layer 0 (Background)
//Storyboard Layer 1 (Fail)
//Storyboard Layer 2 (Pass)
//Storyboard Layer 3 (Foreground)
//Storyboard Layer 4 (Overlay)
//Storyboard Sound Samples

[TimingPoints]
68,480,4,1,0,47,1,0
1988,-100,4,1,0,60,0,0
28868,-100,4,1,0,60,0,1
29108,-100,4,1,0,70,0,1
44228,-100,4,1,0,60,0,0

[HitObjects]
437,200,548,5,0,0:0:0:0:
437,200,1028,1,0,0:0:0:0:
253,106,1508,1,8,0:0:0:0:
244,79,1988,5,4,0:0:0:0:
232,113,2348,1,0,0:0:0:0:
282,248,2708,1,0,0:0:0:0:
157,21,3668,1,0,0:0:0:0:
297,145,3788,1,0,0:0:0:0:
287,114,3908,1,0,0:0:0:0:
284,90,4268,1,8,0:0:0:0:
287,114,4628,1,8,0:0:0:0:
296,160,4868,1,0,0:0:0:0:
287,114,5348,1,8,0:0:0:0:
287,114,5828,1,8,0:0:0:0:
281,90,6188,1,0,0:0:0:0:
210,163,6548,1,0,0:0:0:0:
285,114,7028,1,8,0:0:0:0:
213,152,7268,1,0,0:0:0:0:
285,114,7508,1,8,0:0:0:0:
240,87,7748,1,0,0:0:0:0:
217,63,8108,1,8,0:0:0:0:
240,87,8468,1,0,0:0:0:0:
285,114,8708,1,0,0:0:0:0:
204,61,9188,1,8,0:0:0:0:
244,79,9668,5,8,0:0:0:0:
232,113,10028,1,0,0:0:0:0:
282,248,10388,1,0,0:0:0:0:
157,21,11348,1,0,0:0:0:0:
297,145,11468,1,0,0:0:0:0:
287,114,11588,1,0,0:0:0:0:
284,90,11948,1,8,0:0:0:0:
287,114,12308,1,8,0:0:0:0:
296,160,12548,1,0,0:0:0:0:
287,114,13028,1,8,0:0:0:0:
287,114,13508,1,8,0:0:0:0:
281,90,13868,1,0,0:0:0:0:
210,163,14228,1,0,0:0:0:0:
285,114,14708,1,8,0:0:0:0:
213,152,14948,1,0,0:0:0:0:
285,114,15188,1,8,0:0:0:0:
240,87,15428,1,0,0:0:0:0:
240,87,15908,1,0,0:0:0:0:
285,114,16388,1,0,0:0:0:0:
204,61,16868,1,8,0:0:0:0:
244,79,17348,5,4,0:0:0:0:
232,113,17708,1,0,0:0:0:0:
282,248,18068,1,0,0:0:0:0:
157,21,19028,1,0,0:0:0:0:
297,145,19148,1,0,0:0:0:0:
287,114,19268,1,0,0:0:0:0:
284,90,19628,1,8,0:0:0:0:
287,114,19988,1,8,0:0:0:0:
296,160,20228,1,0,0:0:0:0:
287,114,20708,1,8,0:0:0:0:
287,114,21188,1,8,0:0:0:0:
281,90,21548,1,0,0:0:0:0:
210,163,21908,1,0,0:0:0:0:
285,114,22388,1,8,0:0:0:0:
213,152,22628,1,0,0:0:0:0:
285,114,22868,1,8,0:0:0:0:
240,87,23108,1,0,0:0:0:0:
217,63,23468,1,8,0:0:0:0:
240,87,23828,1,0,0:0:0:0:
285,114,24068,1,0,0:0:0:0:
204,61,24548,1,8,0:0:0:0:
244,79,25028,5,8,0:0:0:0:
232,113,25388,1,0,0:0:0:0:
282,248,25748,1,0,0:0:0:0:
157,21,26708,1,0,0:0:0:0:
297,145,26828,1,0,0:0:0:0:
287,114,26948,1,0,0:0:0:0:
284,90,27308,1,8,0:0:0:0:
287,114,27668,1,8,0:0:0:0:
296,160,27908,1,0,0:0:0:0:
287,114,28388,1,8,0:0:0:0:
287,114,28868,1,0,0:0:0:0:
211,85,29108,5,0,0:0:0:0:
109,147,29228,1,0,0:0:0:0:
353,70,29348,1,0,0:0:0:0:
180,125,29708,1,0,0:0:0:0:
239,74,29828,1,0,0:0:0:0:
198,109,30068,1,8,0:0:0:0:
298,114,30308,1,0,0:0:0:0:
245,121,30788,1,0,0:0:0:0:
373,111,31028,1,8,0:0:0:0:
373,111,31508,1,0,0:0:0:0:
261,85,31988,1,0,0:0:0:0:
356,110,32228,1,8,0:0:0:0:
245,121,32468,1,0,0:0:0:0:
257,73,32948,1,0,0:0:0:0:
245,121,33068,1,0,0:0:0:0:
356,110,33188,1,0,0:0:0:0:
245,121,33548,1,0,0:0:0:0:
356,110,33668,1,0,0:0:0:0:
238,68,33908,1,8,0:0:0:0:
273,86,34148,1,0,0:0:0:0:
265,158,34868,1,8,0:0:0:0:
356,110,35108,1,8,0:0:0:0:
255,159,35348,1,0,0:0:0:0:
356,110,35588,1,8,0:0:0:0:
208,155,35828,1,8,0:0:0:0:
189,137,36308,1,0,0:0:0:0:
189,137,36788,5,0,0:0:0:0:
213,178,36908,1,0,0:0:0:0:
353,70,37028,1,0,0:0:0:0:
213,178,37388,1,0,0:0:0:0:
239,74,37508,1,0,0:0:0:0:
307,72,37748,1,8,0:0:0:0:
233,165,37988,1,0,0:0:0:0:
373,111,38708,1,8,0:0:0:0:
373,111,39188,1,0,0:0:0:0:
244,106,39668,1,8,0:0:0:0:
198,74,39788,1,8,0:0:0:0:
356,110,39908,1,8,0:0:0:0:
198,74,40148,1,0,0:0:0:0:
160,35,40628,1,0,0:0:0:0:
198,74,40748,1,0,0:0:0:0:
356,110,40868,1,0,0:0:0:0:
198,74,41228,1,0,0:0:0:0:
356,110,41348,1,0,0:0:0:0:
173,109,41588,1,8,0:0:0:0:
356,110,41828,1,0,0:0:0:0:
198,74,42068,1,8,0:0:0:0:
198,74,42188,1,8,0:0:0:0:
281,41,42308,1,8,0:0:0:0:
173,109,42788,1,12,0:0:0:0:
262,68,43268,1,0,0:0:0:0:
262,73,43748,1,8,0:0:0:0:
244,79,44228,5,4,0:0:0:0:
256,192,44468,12,0,48068,0:0:0:0:
