osu file format v14

[General]
AudioFilename: audio 123.mp3
AudioLeadIn: 0
PreviewTime: 488
Countdown: 0
SampleSet: Normal
StackLeniency: 0.7
Mode: 1
LetterboxInBreaks: 0
WidescreenStoryboard: 0

[Editor]
DistanceSpacing: 0.8
BeatDivisor: 4
GridSize: 32
TimelineZoom: 1

[Metadata]
Title:Star Light Zone ~ Mega Drive version ~
TitleUnicode:Star Light Zone ~ Mega Drive version ~
Artist:Nakamura Masato
ArtistUnicode:中村正人
Creator:Peaceful
Version:Kantan
Source:ソニック・ザ・ヘッジホッグ
Tags:instrumental video game original soundtrack music OST ソニックチーム Sonic the hedgehog 1 team sega _DUSK_ -Dusk MetalStream electronic vgm
BeatmapID:2809984
BeatmapSetID:1357811

[Difficulty]
HPDrainRate:9
CircleSize:5
OverallDifficulty:2
ApproachRate:5
SliderMultiplier:1.4
SliderTickRate:1

[Events]
//Background and Video events
0,0,"o8SnUJS.jpeg",0,0
//Break Periods
//Storyboard Layer 0 (Background)
//Storyboard Layer 1 (Fail)
//Storyboard Layer 2 (Pass)
//Storyboard Layer 3 (Foreground)
//Storyboard Layer 4 (Overlay)
//Storyboard Sound Samples

[TimingPoints]
68,480,4,1,0,47,1,0
1988,-100,4,1,0,60,0,0
28868,-100,4,1,0,60,0,1
29108,-100,4,1,0,70,0,1
44228,-100,4,1,0,60,0,0

[HitObjects]
244,79,1988,5,4,0:0:0:0:
287,114,3908,1,8,0:0:0:0:
287,114,4868,1,0,0:0:0:0:
287,114,5348,1,8,0:0:0:0:
287,114,5828,1,8,0:0:0:0:
285,114,7028,1,8,0:0:0:0:
285,114,7508,1,8,0:0:0:0:
285,114,8708,1,0,0:0:0:0:
285,114,9668,1,8,0:0:0:0:
192,132,11588,1,0,0:0:0:0:
192,132,12548,1,0,0:0:0:0:
192,126,13028,1,8,0:0:0:0:
190,140,13508,1,0,0:0:0:0:
233,165,14708,1,8,0:0:0:0:
233,165,15188,1,0,0:0:0:0:
27,210,16388,1,0,0:0:0:0:
244,79,17348,5,4,0:0:0:0:
287,114,19268,1,8,0:0:0:0:
287,114,20228,1,0,0:0:0:0:
287,114,20708,1,8,0:0:0:0:
287,114,21188,1,8,0:0:0:0:
285,114,22388,1,8,0:0:0:0:
285,114,22868,1,8,0:0:0:0:
285,114,24068,1,0,0:0:0:0:
285,114,25028,1,8,0:0:0:0:
192,132,26948,1,0,0:0:0:0:
192,132,27908,1,0,0:0:0:0:
256,192,28388,1,8,0:0:0:0:
128,128,28868,1,0,0:0:0:0:
353,70,29348,5,0,0:0:0:0:
256,160,29828,1,8,0:0:0:0:
224,96,30308,1,0,0:0:0:0:
373,111,31028,1,8,0:0:0:0:
373,111,31508,1,0,0:0:0:0:
356,110,32228,1,8,0:0:0:0:
356,110,33188,1,0,0:0:0:0:
356,110,33668,1,0,0:0:0:0:
273,86,34148,1,0,0:0:0:0:
356,110,35108,1,8,0:0:0:0:
356,110,35588,1,8,0:0:0:0:
149,190,36308,1,0,0:0:0:0:
353,70,37028,5,0,0:0:0:0:
239,74,37508,1,8,0:0:0:0:
233,165,37988,1,0,0:0:0:0:
373,111,38708,1,8,0:0:0:0:
373,111,39188,1,0,0:0:0:0:
356,110,39908,1,8,0:0:0:0:
356,110,40868,1,0,0:0:0:0:
356,110,41348,1,0,0:0:0:0:
356,110,41828,1,0,0:0:0:0:
281,41,42308,1,8,0:0:0:0:
155,87,42788,1,12,0:0:0:0:
244,79,44228,5,4,0:0:0:0:
256,192,44468,12,0,48068,0:0:0:0:
