osu file format v14

[General]
AudioFilename: Ho shi ka ze no ho ros co pe.mp3
AudioLeadIn: 0
PreviewTime: 61697
Countdown: 0
SampleSet: Soft
StackLeniency: 0.3
Mode: 0
LetterboxInBreaks: 0
WidescreenStoryboard: 0

[Editor]
Bookmarks: 21754,107640
DistanceSpacing: 1
BeatDivisor: 2
GridSize: 32
TimelineZoom: 1

[Metadata]
Title:Hoshikaze no Horoscope(#12 ver.)
TitleUnicode:星風のホロスコープ(#12 ver.)
Artist:Nakamura Eriko, Shimizu Ai, Aoba Ringo
ArtistUnicode:中村繪里子、清水 愛、青葉りんご
Creator:Momochikun
Version:Normal
Source:星空へ架かる橋
Tags:A Bridge to the Starry Skies character song album Nakatsugawa Ui Hinata Ibuki Koumoto Madoka feng visual novel eroge
BeatmapID:836567
BeatmapSetID:382584

[Difficulty]
HPDrainRate:4
CircleSize:3.5
OverallDifficulty:4
ApproachRate:5
SliderMultiplier:1.15
SliderTickRate:1

[Events]
//Background and Video events
0,0,"BG.jpeg",0,0
//Break Periods
2,18004,20040
//Storyboard Layer 0 (Background)
//Storyboard Layer 1 (Fail)
//Storyboard Layer 2 (Pass)
//Storyboard Layer 3 (Foreground)
//Storyboard Sound Samples

[TimingPoints]
1420,461.538461538462,4,2,1,30,1,0
4650,-100,4,2,1,20,0,0
5112,-100,4,2,1,30,0,0
8112,-100,4,2,1,20,0,0
8804,-100,4,2,1,30,0,0
13650,-100,4,2,1,20,0,0
13881,-100,4,2,1,30,0,0
17804,-100,4,2,1,20,0,0
17920,-100,4,2,1,5,0,0
20573,-100,4,2,1,35,0,0
21240,342.857142857143,4,2,1,75,1,1
21325,-100,4,2,1,75,0,0
28954,-100,4,2,1,50,0,0
29125,-100,4,2,1,30,0,0
29297,-100,4,2,1,50,0,0
30840,-100,4,2,1,5,0,0
32211,-100,4,2,2,25,0,0
37182,-100,4,2,2,20,0,0
37697,-100,4,2,2,25,0,0
39925,-100,4,2,2,20,0,0
40440,-100,4,2,2,25,0,0
42497,-100,4,2,2,35,0,0
42668,-100,4,2,2,25,0,0
43182,-100,4,1,1,40,0,0
43354,-100,4,2,1,40,0,0
44554,-100,4,1,1,35,0,0
44725,-100,4,2,1,40,0,0
45068,-100,4,1,1,35,0,0
45240,-100,4,2,1,40,0,0
45925,-100,4,1,1,35,0,0
46097,-100,4,2,1,40,0,0
46611,-100,4,3,2,45,0,0
46632,-100,4,2,1,40,0,0
47125,-100,4,1,1,30,0,0
47640,-100,4,2,1,40,0,0
47811,-100,4,1,1,30,0,0
47982,-100,4,2,1,40,0,0
50554,-100,4,1,1,30,0,0
50897,-100,4,2,1,30,0,0
51925,-100,4,1,1,30,0,0
52097,-100,4,2,1,40,0,0
52440,-100,4,2,1,50,0,0
52782,-100,4,1,1,30,0,0
53125,-100,4,2,1,40,0,0
53297,-100,4,1,1,30,0,0
53468,-100,4,2,1,40,0,0
53811,-100,4,2,1,50,0,0
54154,-100,4,2,1,40,0,0
55182,-100,4,2,1,50,0,0
56040,-100,4,1,1,35,0,0
56211,-100,4,2,1,40,0,0
56382,-100,4,2,1,50,0,0
56554,-100,4,2,1,60,0,0
56897,-100,4,1,1,65,0,0
57240,-100,4,2,1,65,0,0
57411,-100,4,1,1,45,0,0
57582,-100,4,2,1,55,0,0
57754,-100,4,2,1,55,0,0
57925,-100,4,1,1,45,0,0
58097,-100,4,2,1,55,0,0
58440,-100,4,1,1,45,0,0
58611,-100,4,2,1,45,0,0
58782,-100,4,2,1,45,0,0
58954,-100,4,1,1,45,0,0
59125,-100,4,2,1,45,0,0
59297,-100,4,1,1,50,0,0
59468,-100,4,2,1,45,0,0
59640,-100,4,2,1,65,0,0
60154,-100,4,1,1,50,0,0
60325,-100,4,2,1,55,0,0
60497,-100,4,1,1,50,0,0
60668,-100,4,2,1,55,0,0
60840,-100,4,2,1,65,0,0
61697,-100,4,2,1,75,0,0
61868,-100,4,2,1,40,0,0
62040,-100,4,2,1,50,0,0
62211,-100,4,2,1,65,0,0
62382,-100,4,2,1,85,0,1
67354,-100,4,2,1,60,0,1
67868,-100,4,2,1,85,0,1
70268,-100,4,2,1,60,0,1
70611,-100,4,2,1,85,0,1
73097,-100,4,2,1,45,0,1
73354,-100,4,2,1,70,0,0
78668,-100,4,2,1,85,0,1
83811,-100,4,2,1,50,0,1
84154,-100,4,2,1,85,0,1
89468,-100,4,2,1,85,0,0
89511,-100,4,2,1,30,0,0
89811,-100,4,2,1,75,0,1
89897,-100,4,2,1,75,0,0
97525,-100,4,2,1,50,0,0
97868,-100,4,2,1,70,0,0
105582,-100,4,2,1,80,0,0
106097,-100,4,2,1,80,0,1
106182,-100,4,2,1,5,0,0

[Colours]
Combo1 : 89,255,172
Combo2 : 255,200,200
Combo3 : 252,167,131
Combo4 : 204,204,255
Combo5 : 255,170,255
Combo6 : 142,142,255

[HitObjects]
354,169,1420,6,0,P|429:156|470:149,2,115,2|0|0,0:0|0:0|0:0,0:0:0:0:
267,244,2804,2,0,P|258:209|257:176,1,57.5,0|2,0:0|0:0,0:0:0:0:
229,136,3266,2,0,P|154:123|113:116,2,115,0|0|2,0:0|0:0|0:0,0:0:0:0:
321,67,4650,2,0,P|330:102|331:135,1,57.5,0|0,0:0|0:0,0:0:0:0:
326,180,5112,6,0,P|364:194|392:193,2,57.5,2|0|0,0:0|0:0|0:0,0:0:0:0:
269,169,5804,1,0,0:0:0:0:
269,169,6035,2,0,P|232:222|229:283,1,115,0|0,0:0|0:0,0:0:0:0:
248,324,6727,2,0,P|150:308|123:305,1,115,0|0,0:0|0:0,0:0:0:0:
51,225,7650,2,0,L|40:160,1,57.5,0|2,0:0|0:0,0:0:0:0:
38,110,8112,2,0,P|95:123|158:115,1,115
196,81,8804,6,0,B|231:57|231:57|317:70,2,115,2|0|0,0:0|0:0|0:0,0:0:0:0:
246,184,10189,2,0,L|263:245,1,57.5,0|0,0:0|0:0,0:0:0:0:
278,294,10650,2,0,P|229:274|159:284,1,115,0|2,0:0|0:0,0:0:0:0:
79,206,11573,2,0,P|99:152|92:96,1,115,2|2,0:0|0:0,0:0:0:0:
79,40,12266,1,0,0:0:0:0:
79,40,12496,1,2,0:0:0:0:
221,137,13189,6,0,P|293:120|345:110,1,115,2|0,0:0|0:0,0:0:0:0:
385,87,13881,2,0,P|368:159|358:211,1,115,0|2,0:0|0:0,0:0:0:0:
463,337,15035,2,0,P|410:308|342:312,1,115,2|0,0:0|0:0,0:0:0:0:
300,318,15727,1,0,0:0:0:0:
206,250,16189,22,0,B|121:224|124:273|29:246,1,172.5,2|2,0:0|0:0,0:0:0:0:
88,145,17343,1,0,0:0:0:0:
4,66,17804,1,4,0:0:0:0:
454,96,21240,70,0,P|382:110|322:121,1,115,4|8,0:0|0:0,0:0:0:0:
283,122,21754,2,0,P|256:168|259:237,1,115,2|0,3:2|0:0,0:0:0:0:
288,276,22268,1,10,0:0:0:0:
185,328,22611,2,0,P|128:329|78:301,1,115,2|8,3:2|0:0,0:0:0:0:
45,253,23125,2,0,B|27:181|27:181|41:124,1,115,2|2,3:2|3:2,0:0:0:0:
73,96,23640,2,0,L|62:40,2,57.5,10|2|2,0:0|0:0|3:2,0:0:0:0:
174,149,24325,5,10,0:0:0:0:
174,149,24497,2,0,P|224:148|292:118,1,115,2|2,3:2|3:2,0:0:0:0:
332,93,25011,2,0,P|312:172|312:213,1,115,10|4,0:0|0:0,0:0:0:0:
415,256,25697,2,0,L|475:240,1,57.5,10|4,0:0|0:0,0:0:0:0:
429,348,26211,2,0,L|369:332,1,57.5,2|8,3:2|0:0,0:0:0:0:
261,307,26725,6,0,B|201:298|164:319|164:319|123:307|101:266,1,172.5,4|4,0:0|0:0,0:0:0:0:
43,180,27582,2,0,L|24:101,2,57.5,0|10|4,0:0|0:0|0:0,0:0:0:0:
153,146,28268,2,0,L|172:67,1,57.5,8|8,0:0|0:0,0:0:0:0:
266,33,28782,2,0,P|317:18|380:19,1,115,2|2,0:0|0:0,0:0:0:0:
417,61,29297,6,0,B|384:153|384:153|408:179|399:232,1,172.5,4|8,0:0|0:0,0:0:0:0:
309,292,30154,1,0,3:0:0:0:
198,259,30497,1,8,0:0:0:0:
256,192,30840,12,4,32211,0:0:0:0:
283,185,33411,70,0,P|256:235|254:303,1,115
279,343,33925,2,0,L|141:312,1,115,0|8,0:0|0:0,0:0:0:0:
110,304,34440,1,2,0:0:0:0:
37,147,34954,6,0,B|59:70|59:70|44:19,1,115,0|0,0:0|0:0,0:0:0:0:
161,62,35640,2,0,P|211:77|277:73,2,115,8|0|2,0:0|0:0|0:0,0:0:0:0:
123,289,37011,6,0,L|135:354,2,57.5,8|0|0,0:0|0:0|0:0,0:0:0:0:
159,244,37525,1,0,0:0:0:0:
159,244,37697,2,0,B|211:235|211:262|285:247,1,115,2|0,0:0|0:0,0:0:0:0:
379,205,38382,1,8,0:0:0:0:
379,205,38554,2,0,P|385:131|388:84,1,115,2|2,0:0|0:0,0:0:0:0:
274,66,39240,2,0,L|262:6,2,57.5,0|0|0,0:0|0:0|0:0,0:0:0:0:
289,121,39754,1,8,0:0:0:0:
289,121,39925,2,0,P|216:100|154:95,1,115,0|0,0:0|0:0,0:0:0:0:
122,114,40440,6,0,P|101:187|96:249,2,115,2|0|8,0:0|0:0|0:0,0:0:0:0:
176,12,41468,1,0,0:0:0:0:
286,45,41811,1,2,0:0:0:0:
234,148,42154,2,0,L|242:204,2,57.5,0|2|4,0:0|0:0|0:0,0:0:0:0:
346,173,42840,6,0,L|337:229,1,57.5,0|0,0:0|0:0,0:0:0:0:
324,285,43182,2,0,B|406:301|406:301|461:288,2,115,0|0|0,0:0|0:0|0:0,0:0:0:0:
213,253,44211,1,0,0:0:0:0:
118,186,44554,2,0,P|85:225|80:289,1,115,0|0,0:0|0:0,0:0:0:0:
33,321,45068,2,0,L|150:348,1,115,0|0,0:0|0:0,0:0:0:0:
200,361,45582,1,10,0:0:0:0:
311,331,45925,6,0,P|344:292|349:228,1,115,0|0,0:0|0:0,0:0:0:0:
280,137,46611,2,0,P|283:80|318:36,1,115,0|0,0:0|0:0,0:0:0:0:
375,47,47125,2,0,L|438:38,1,57.5,0|0,3:0|0:0,0:0:0:0:
487,140,47640,1,2,0:0:0:0:
487,140,47811,2,0,B|451:188|464:231|464:231|477:265|444:309,1,172.5,0|10,0:0|0:0,0:0:0:0:
346,352,48668,6,0,P|288:340|247:294,1,115,4|0,0:0|0:0,0:0:0:0:
195,199,49354,2,0,P|155:158|99:148,1,115,0|0,0:0|0:0,0:0:0:0:
167,54,50040,2,0,P|206:94|262:104,1,115,4|0,0:0|0:0,0:0:0:0:
307,141,50554,2,0,B|339:119|339:119|434:131,1,115,0|0,0:0|0:0,0:0:0:0:
461,161,51068,1,10,0:0:0:0:
359,219,51411,22,0,P|288:227|214:151,2,172.5,4|0|10,0:0|0:0|0:0,0:0:0:0:
416,120,52782,2,0,P|476:178|472:261,2,172.5,0|0|8,0:0|0:0|0:0,0:0:0:0:
305,101,54154,6,0,P|249:68|213:13,1,115,4|0,0:0|0:0,0:0:0:0:
162,38,54668,2,0,P|117:73|89:123,1,115,4|0,0:0|0:0,0:0:0:0:
75,179,55182,1,10,0:0:0:0:
113,287,55525,2,0,L|237:263,1,115,4|0,0:0|0:0,0:0:0:0:
230,322,56040,2,0,L|354:298,1,115,0|0,0:0|3:2,0:0:0:0:
399,287,56554,1,10,0:0:0:0:
431,176,56897,6,0,B|379:168|340:191|340:191|305:177|305:177|283:188|232:194,2,172.5,4|4|4,2:0|0:2|0:2,0:0:0:0:
300,67,58440,2,0,B|248:75|209:52|209:52|174:66|174:66|152:55|101:49,1,172.5,4|4,0:2|2:0,0:0:0:0:
31,103,59297,1,6,0:2:0:0:
95,198,59640,6,0,P|116:257|119:309,1,115,4|0,0:0|0:0,0:0:0:0:
162,347,60154,2,0,L|278:326,1,115,2|2,0:0|0:0,0:0:0:0:
389,308,60840,1,4,3:2:0:0:
433,63,61868,5,2,0:0:0:0:
433,63,62040,2,0,L|361:82,1,57.5,2|2,0:0|0:0,0:0:0:0:
323,97,62382,2,0,P|296:144|288:209,1,115,4|8,0:0|0:0,0:0:0:0:
326,312,63068,2,0,P|279:285|214:277,1,115,0|8,3:0|0:0,0:0:0:0:
164,293,63582,6,0,P|107:285|57:257,1,115,4|0,0:0|3:0,0:0:0:0:
33,204,64097,1,8,0:0:0:0:
129,140,64440,2,0,L|108:24,1,115,0|8,3:0|0:0,0:0:0:0:
222,41,65125,6,0,L|242:154,1,115,4|8,0:0|0:0,0:0:0:0:
346,205,65811,2,0,P|397:199|453:171,1,115,4|8,0:0|0:0,0:0:0:0:
498,135,66325,2,0,P|467:233|465:313,1,172.5,4|10,0:0|0:0,0:0:0:0:
365,361,67182,2,0,L|304:344,1,57.5,0|4,3:0|0:0,0:0:0:0:
269,304,67525,2,0,L|208:287,1,57.5,10|2,0:0|0:0,0:0:0:0:
157,273,67868,6,0,B|135:190|135:190|145:132,1,115,4|8,0:0|0:0,0:0:0:0:
214,73,68554,2,0,P|247:121|246:189,1,115,0|8,3:0|0:0,0:0:0:0:
280,225,69068,2,0,B|365:244|365:196|462:223,1,172.5,4|8,0:0|0:0,0:0:0:0:
498,115,69925,1,0,3:0:0:0:
408,42,70268,1,12,0:0:0:0:
308,99,70611,6,0,L|248:81,1,57.5,4|2,0:0|0:0,0:0:0:0:
201,107,70954,2,0,P|224:154|229:181,2,57.5,8|2|0,0:0|0:0|3:0,0:0:0:0:
178,53,71468,2,0,P|110:35|59:35,1,115,0|2,3:0|0:0,0:0:0:0:
30,79,71982,2,0,P|48:147|48:198,1,115,0|8,3:0|0:0,0:0:0:0:
27,245,72497,1,4,0:0:0:0:
133,288,72840,1,0,3:0:0:0:
133,288,73011,2,0,B|219:265|219:265|272:277,1,115,8|4,0:0|0:0,0:0:0:0:
353,309,73697,6,0,L|367:250,1,57.5,0|0,0:0|3:0,0:0:0:0:
387,199,74040,2,0,P|371:142|390:85,1,115,8|0,0:0|0:0,0:0:0:0:
411,37,74554,2,0,L|290:65,2,115,0|8|0,3:0|0:0|3:0,0:0:0:0:
467,24,75411,1,8,0:0:0:0:
483,137,75754,1,0,3:0:0:0:
494,251,76097,6,0,P|431:257|390:225,1,115,4|2,3:2|0:0,0:0:0:0:
284,186,76782,2,0,P|252:232|252:297,1,115,12|2,0:0|0:0,0:0:0:0:
233,345,77297,2,0,B|205:333|205:333|173:353|123:347,1,115,4|0,0:0|3:0,0:0:0:0:
18,306,77982,2,0,L|5:364,2,57.5,0|8|2,3:0|0:0|3:2,0:0:0:0:
26,248,78497,5,10,0:0:0:0:
26,248,78668,2,0,B|83:250|110:225|110:225|150:241|208:224,1,172.5,4|10,0:0|0:0,0:0:0:0:
293,173,79525,2,0,P|348:150|404:150,1,115,0|10,3:0|0:2,0:0:0:0:
452,179,80040,2,0,P|429:234|429:290,1,115,4|0,0:0|3:0,0:0:0:0:
472,326,80554,1,10,0:0:0:0:
370,374,80897,2,0,P|287:359|246:351,1,115,0|8,3:0|0:0,0:0:0:0:
208,322,81411,6,0,P|131:300|54:360,1,172.5,4|10,0:0|0:0,0:0:0:0:
17,241,82268,2,0,B|0:167|0:167|19:115,1,115,10|10,0:0|0:0,0:0:0:0:
56,91,82782,2,0,B|99:88|139:100|139:100|169:83|169:83|224:95,1,172.5,2|8,0:0|0:0,0:0:0:0:
335,121,83640,2,0,P|348:65|349:42,2,57.5,0|4|0,3:0|0:0|3:0,0:0:0:0:
301,167,84154,6,0,P|281:227|276:283,1,115,4|2,0:0|3:2,0:0:0:0:
291,333,84668,1,10,0:0:0:0:
400,369,85011,2,0,P|459:358|526:345,1,115,8|8,0:0|0:0,0:0:0:0:
482,298,85525,2,0,P|462:238|457:182,1,115,4|0,0:0|3:0,0:0:0:0:
480,133,86040,1,10,0:0:0:0:
375,85,86382,2,0,P|316:78|265:119,1,115,0|8,3:0|0:0,0:0:0:0:
230,148,86897,6,0,B|173:144|124:168|124:168|90:161|52:140,1,172.5,4|10,0:0|0:0,0:0:0:0:
3,243,87754,2,0,L|21:312,1,57.5,10|2,0:0|3:2,0:0:0:0:
43,350,88097,1,10,0:0:0:0:
43,350,88268,2,0,P|123:369|217:360,1,172.5,2|8,3:2|0:0,0:0:0:0:
319,319,89125,1,8,0:0:0:0:
231,244,89468,2,0,L|215:189,1,57.5,8|8,0:0|0:0,0:0:0:0:
205,131,89811,6,0,P|262:107|330:108,1,115,4|8,0:0|0:0,0:0:0:0:
355,64,90325,2,0,P|404:101|437:160,1,115,2|0,0:0|0:0,0:0:0:0:
448,201,90840,1,10,0:0:0:0:
364,279,91182,2,0,P|307:303|239:302,1,115,2|8,0:0|0:0,0:0:0:0:
205,335,91697,2,0,L|188:219,1,115,4|2,0:0|0:0,0:0:0:0:
183,163,92211,1,12,0:0:0:0:
71,134,92554,6,0,B|41:186|41:186|59:305,2,172.5,4|2|8,0:0|3:2|0:0,0:0:0:0:
161,62,93925,2,0,P|215:40|274:46,1,115,4|8,0:0|0:0,0:0:0:0:
299,94,94440,2,0,L|418:72,1,115,4|2,0:0|3:2,0:0:0:0:
469,68,94954,1,8,0:0:0:0:
509,175,95297,6,0,P|495:264|410:306,1,172.5,4|4,0:0|0:0,0:0:0:0:
319,271,96154,2,0,L|262:260,1,57.5,0|8,0:0|0:0,0:0:0:0:
209,238,96497,2,0,P|148:227|96:268,1,115,4|10,0:0|0:0,0:0:0:0:
76,303,97011,1,10,0:0:0:0:
23,200,97354,2,0,L|41:85,1,115,10|10,0:0|0:0,0:0:0:0:
81,45,97868,6,0,B|140:74|207:47|207:47|247:65|253:88,1,172.5,4|10,0:0|0:0,0:0:0:0:
316,160,98725,2,0,P|375:161|431:138,1,115,2|8,3:2|0:0,0:0:0:0:
456,90,99240,2,0,L|428:278,1,172.5,2|10,3:2|0:0,0:0:0:0:
344,337,100097,1,2,3:2:0:0:
230,319,100440,1,12,0:0:0:0:
116,302,100782,6,0,L|60:312,2,57.5,4|2|10,0:0|0:0|0:0,0:0:0:0:
150,255,101297,2,0,P|161:201|144:139,1,115,2|2,3:2|3:2,0:0:0:0:
131,88,101811,1,8,0:0:0:0:
131,88,101982,2,0,B|192:111|249:95|249:95|296:52,1,172.5,4|10,0:0|0:0,0:0:0:0:
400,37,102840,1,0,3:0:0:0:
364,148,103182,1,10,0:0:0:0:
347,260,103525,6,0,L|357:316,2,57.5,4|2|8,0:0|3:2|0:0,0:0:0:0:
233,238,104211,2,0,L|223:182,1,57.5,12|8,0:0|0:0,0:0:0:0:
206,67,104725,2,0,P|259:37|318:38,1,115,4|2,0:0|3:2,0:0:0:0:
366,57,105240,1,8,0:0:0:0:
472,99,105582,2,0,L|462:155,1,57.5,4|8,0:0|0:0,0:0:0:0:
256,192,106097,12,0,107640,0:0:0:0:
