osu file format v14

[General]
AudioFilename: Ho shi ka ze no ho ros co pe.mp3
AudioLeadIn: 0
PreviewTime: 61697
Countdown: 0
SampleSet: Soft
StackLeniency: 0.3
Mode: 0
LetterboxInBreaks: 0
WidescreenStoryboard: 0

[Editor]
Bookmarks: 107640
DistanceSpacing: 0.5
BeatDivisor: 4
GridSize: 32
TimelineZoom: 1

[Metadata]
Title:Hoshikaze no Horoscope(#12 ver.)
TitleUnicode:星風のホロスコープ(#12 ver.)
Artist:Nakamura Eriko, Shimizu Ai, Aoba Ringo
ArtistUnicode:中村繪里子、清水 愛、青葉りんご
Creator:Momochikun
Version:Insane
Source:星空へ架かる橋
Tags:A Bridge to the Starry Skies character song album Nakatsugawa Ui Hinata Ibuki Koumoto Madoka feng visual novel eroge
BeatmapID:836566
BeatmapSetID:382584

[Difficulty]
HPDrainRate:7
CircleSize:4
OverallDifficulty:7.5
ApproachRate:8.7
SliderMultiplier:1.5
SliderTickRate:1

[Events]
//Background and Video events
0,0,"BG.jpeg",0,0
//Break Periods
//Storyboard Layer 0 (Background)
//Storyboard Layer 1 (Fail)
//Storyboard Layer 2 (Pass)
//Storyboard Layer 3 (Foreground)
//Storyboard Sound Samples

[TimingPoints]
1420,461.538461538462,4,2,1,30,1,0
1420,-111.111111111111,4,2,1,30,0,0
4650,-111.111111111111,4,2,1,20,0,0
5112,-111.111111111111,4,2,1,30,0,0
8112,-111.111111111111,4,2,1,20,0,0
8804,-111.111111111111,4,2,1,30,0,0
13650,-111.111111111111,4,2,1,20,0,0
13881,-111.111111111111,4,2,1,30,0,0
17804,-111.111111111111,4,2,1,20,0,0
17920,-111.111111111111,4,2,1,5,0,0
20343,-111.111111111111,4,2,1,35,0,0
20573,-90.9090909090908,4,2,1,60,0,0
20804,-90.9090909090908,4,2,1,40,0,0
21035,-90.9090909090908,4,2,1,20,0,0
21240,342.857142857143,4,2,1,75,1,1
21325,-100,4,2,1,75,0,0
28954,-100,4,2,1,50,0,0
29125,-100,4,2,1,30,0,0
29297,-111.111111111111,4,2,1,50,0,0
30840,-111.111111111111,4,2,1,5,0,0
32211,-111.111111111111,4,2,2,25,0,0
37182,-111.111111111111,4,2,2,20,0,0
37697,-111.111111111111,4,2,2,25,0,0
39925,-111.111111111111,4,2,2,20,0,0
40440,-111.111111111111,4,2,2,25,0,0
42497,-111.111111111111,4,2,2,35,0,0
42668,-111.111111111111,4,2,2,25,0,0
43182,-111.111111111111,4,1,1,40,0,0
43354,-111.111111111111,4,2,1,40,0,0
44554,-111.111111111111,4,1,1,35,0,0
44725,-111.111111111111,4,2,1,40,0,0
45068,-111.111111111111,4,1,1,35,0,0
45240,-111.111111111111,4,2,1,40,0,0
45925,-111.111111111111,4,1,1,35,0,0
46097,-111.111111111111,4,2,1,40,0,0
46611,-111.111111111111,4,3,2,45,0,0
46632,-111.111111111111,4,2,1,40,0,0
47125,-111.111111111111,4,1,1,30,0,0
47640,-111.111111111111,4,2,1,40,0,0
47811,-111.111111111111,4,1,1,30,0,0
47982,-111.111111111111,4,2,1,40,0,0
50554,-111.111111111111,4,1,1,30,0,0
50897,-111.111111111111,4,2,1,30,0,0
51925,-111.111111111111,4,1,1,30,0,0
52097,-111.111111111111,4,2,1,40,0,0
52440,-111.111111111111,4,2,1,50,0,0
52782,-111.111111111111,4,1,1,30,0,0
53125,-111.111111111111,4,2,1,40,0,0
53297,-111.111111111111,4,1,1,30,0,0
53468,-111.111111111111,4,2,1,40,0,0
53811,-111.111111111111,4,2,1,50,0,0
54154,-111.111111111111,4,2,1,40,0,0
55182,-111.111111111111,4,2,1,50,0,0
56040,-111.111111111111,4,1,1,35,0,0
56211,-111.111111111111,4,2,1,40,0,0
56382,-111.111111111111,4,2,1,50,0,0
56554,-111.111111111111,4,2,1,60,0,0
56897,-100,4,1,1,65,0,0
57068,-100,4,2,1,65,0,0
57411,-100,4,1,1,45,0,0
57582,-100,4,2,1,55,0,0
57925,-100,4,1,1,45,0,0
58097,-100,4,2,1,55,0,0
58440,-100,4,1,1,45,0,0
58611,-100,4,2,1,45,0,0
58954,-100,4,1,1,45,0,0
59125,-100,4,2,1,45,0,0
59297,-100,4,1,1,50,0,0
59468,-100,4,2,1,45,0,0
59640,-111.111111111111,4,2,1,65,0,0
60154,-111.111111111111,4,1,1,50,0,0
60325,-100,4,2,1,55,0,0
60497,-111.111111111111,4,1,1,50,0,0
60668,-100,4,2,1,55,0,0
60840,-200,4,2,1,65,0,0
61697,-200,4,2,1,75,0,0
61868,-100,4,2,1,45,0,0
62040,-100,4,2,1,65,0,0
62211,-100,4,2,1,85,0,0
62382,-100,4,2,1,85,0,1
67354,-100,4,2,1,60,0,1
67868,-100,4,2,1,85,0,1
70268,-100,4,2,1,60,0,1
70611,-100,4,2,1,85,0,1
73097,-100,4,2,1,45,0,1
73354,-111.111111111111,4,2,1,70,0,0
78668,-100,4,2,1,85,0,1
83811,-100,4,2,1,50,0,1
84154,-100,4,2,1,85,0,1
89468,-100,4,2,1,85,0,0
89511,-100,4,2,1,30,0,0
89811,-100,4,2,1,75,0,1
89897,-100,4,2,1,75,0,0
97525,-100,4,2,1,50,0,0
97868,-100,4,2,1,70,0,0
105582,-100,4,2,1,80,0,0
106097,-100,4,2,1,80,0,1
106182,-100,4,2,1,5,0,0

[Colours]
Combo1 : 89,255,172
Combo2 : 255,200,200
Combo3 : 252,167,131
Combo4 : 204,204,255
Combo5 : 255,170,255
Combo6 : 142,142,255

[HitObjects]
421,151,1420,6,0,P|442:204|453:292,2,134.999995880127,2|0|0,0:0|0:0|0:0,0:0:0:0:
393,68,2573,2,0,P|430:56|472:53,2,67.4999979400635,0|0|2,0:0|0:0|0:0,0:0:0:0:
325,124,3266,1,0,0:0:0:0:
239,103,3496,1,0,0:0:0:0:
187,31,3727,1,0,0:0:0:0:
239,103,3958,1,0,0:0:0:0:
153,123,4189,2,0,P|84:118|17:92,1,134.999995880127,2|0,0:0|0:0,0:0:0:0:
22,95,4881,1,0,0:0:0:0:
201,253,5112,6,0,P|208:211|213:178,1,67.4999979400635,2|0,0:0|0:0,0:0:0:0:
88,238,5573,2,0,P|93:271|98:304,1,67.4999979400635
254,358,6035,2,0,B|312:379|326:338|393:365,1,134.999995880127
473,313,6727,2,0,P|488:280|487:248,1,67.4999979400635
355,186,7189,2,0,P|400:177|427:172,1,67.4999979400635,0|2,0:0|0:0,0:0:0:0:
430,170,7650,1,0,0:0:0:0:
430,170,7881,1,2,0:0:0:0:
436,68,8112,2,0,B|398:64|375:78|375:78|352:72|352:72|320:91|294:91,1,134.999995880127
204,168,8804,6,0,P|150:163|72:120,1,134.999995880127,2|0,0:0|0:0,0:0:0:0:
23,64,9496,1,0,0:0:0:0:
23,64,9727,2,0,L|50:221,1,134.999995880127
65,291,10420,1,0,0:0:0:0:
171,177,10650,2,0,P|187:213|187:244,1,67.4999979400635
116,343,11112,2,0,P|60:341|-4:287,1,134.999995880127,2|2,0:0|0:0,0:0:0:0:
322,111,12035,1,2,0:0:0:0:
242,148,12266,1,0,0:0:0:0:
255,61,12496,1,2,0:0:0:0:
255,61,13189,6,0,L|235:212,1,134.999995880127,2|0,0:0|0:0,0:0:0:0:
225,281,13881,1,0,0:0:0:0:
225,281,14343,2,0,P|181:303|87:301,1,134.999995880127,2|0,0:0|0:0,0:0:0:0:
203,140,15035,2,0,P|235:123|289:123,1,67.4999979400635,0|2,0:0|0:0,0:0:0:0:
276,124,15496,1,0,0:0:0:0:
363,183,15727,1,0,0:0:0:0:
363,183,16189,6,0,B|342:88|342:88|362:33,1,134.999995880127,2|0,0:0|0:0,0:0:0:0:
479,25,16881,2,0,P|476:63|459:97,1,67.4999979400635,2|0,0:0|0:0,0:0:0:0:
363,183,17343,2,0,P|307:203|222:201,1,134.999995880127,0|4,0:0|0:0,0:0:0:0:
256,192,17920,12,2,20343,0:0:0:0:
479,144,20573,6,0,L|489:173,1,20.6250006294251,2|0,0:0|0:0,0:0:0:0:
462,123,20689,2,0,L|472:152,1,20.6250006294251
440,110,20804,2,0,L|450:139,1,20.6250006294251
416,103,20920,2,0,L|426:132,1,20.6250006294251,2|0,0:0|0:0,0:0:0:0:
394,110,21035,2,0,L|404:139,1,20.6250006294251
379,128,21150,2,0,L|389:157,1,20.6250006294251
395,194,21240,6,0,P|356:209|318:210,1,75,4|0,0:0|0:0,0:0:0:0:
239,161,21582,1,8,0:0:0:0:
146,192,21754,2,0,P|102:252|99:330,1,150,2|0,3:2|0:0,0:0:0:0:
239,161,22268,1,10,0:0:0:0:
239,161,22611,5,2,3:2:0:0:
388,114,22782,1,2,0:0:0:0:
293,20,22954,1,8,0:0:0:0:
326,188,23125,2,0,P|319:232|311:287,1,75,2|0,3:2|0:0,0:0:0:0:
428,128,23468,1,2,3:2:0:0:
326,188,23640,1,10,0:0:0:0:
482,226,23811,1,2,0:0:0:0:
350,99,23982,6,0,B|307:94|256:119|256:119|222:114|189:95,1,150,2|10,3:2|0:0,0:0:0:0:
419,37,24497,1,2,3:2:0:0:
419,37,24840,1,2,3:2:0:0:
470,169,25011,2,0,P|485:207|485:246,1,75,10|2,0:0|0:0,0:0:0:0:
485,240,25268,1,2,0:0:0:0:
485,240,25354,1,4,0:0:0:0:
351,186,25525,5,2,0:0:0:0:
500,88,25697,1,10,0:0:0:0:
399,281,25868,2,0,P|322:264|238:246,1,150,4|2,0:0|3:2,0:0:0:0:
174,167,26382,1,8,0:0:0:0:
174,167,26725,6,0,P|109:133|29:143,1,150,4|8,0:0|0:0,0:0:0:0:
103,316,27240,2,0,P|168:350|242:342,1,150,4|0,0:0|0:0,0:0:0:0:
346,286,27754,1,10,0:0:0:0:
253,208,27925,1,4,0:0:0:0:
253,208,28268,5,8,0:0:0:0:
457,260,28440,1,8,0:0:0:0:
457,260,28782,1,2,0:0:0:0:
346,286,28954,1,2,0:0:0:0:
389,207,29125,1,2,0:0:0:0:
421,124,29297,38,0,B|373:109|373:109|353:115|353:115|311:101|266:111,1,134.999995880127,4|0,0:0|0:0,0:0:0:0:
202,160,29811,2,0,P|178:111|191:20,1,134.999995880127,8|0,0:0|3:0,0:0:0:0:
290,108,30325,1,0,3:0:0:0:
124,207,30497,1,8,0:0:0:0:
256,192,30840,12,0,31868,0:0:0:0:
490,33,32211,54,0,P|426:62|365:93,1,134.999995880127,4|0,0:0|0:0,0:0:0:0:
282,155,32725,2,0,P|294:190|317:211,1,67.4999979400635,0|8,0:0|0:0,0:0:0:0:
254,56,33068,2,0,P|208:23|130:25,1,134.999995880127,2|0,0:0|0:0,0:0:0:0:
172,118,33582,5,0,0:0:0:0:
350,37,33754,2,0,L|335:110,1,67.4999979400635
339,220,34097,1,0,0:0:0:0:
240,204,34268,1,8,0:0:0:0:
408,149,34440,1,2,0:0:0:0:
408,149,34954,69,0,0:0:0:0:
392,233,35125,1,0,0:0:0:0:
377,319,35297,1,0,0:0:0:0:
458,289,35468,1,0,0:0:0:0:
317,197,35640,2,0,P|270:204|179:219,2,134.999995880127,8|0|2,0:0|0:0|0:0,0:0:0:0:
317,197,37011,21,8,0:0:0:0:
370,61,37182,1,0,0:0:0:0:
260,119,37354,2,0,P|222:133|187:133,1,67.4999979400635
90,222,37697,2,0,B|78:181|78:181|100:80,1,134.999995880127,2|0,0:0|0:0,0:0:0:0:
207,67,38211,2,0,L|195:134,1,67.4999979400635,0|8,0:0|0:0,0:0:0:0:
147,13,38554,1,2,0:0:0:0:
147,13,38897,6,0,P|216:36|295:32,1,134.999995880127,2|0,0:0|0:0,0:0:0:0:
400,20,39411,2,0,P|380:53|374:90,1,67.4999979400635
384,175,39754,1,8,0:0:0:0:
483,277,39925,2,0,P|511:227|504:143,1,134.999995880127
384,175,40440,69,2,0:0:0:0:
437,93,40611,1,0,0:0:0:0:
307,134,40782,2,0,P|267:128|234:123,1,67.4999979400635
292,223,41125,2,0,P|297:256|302:289,1,67.4999979400635,8|2,0:0|0:0,0:0:0:0:
302,289,41468,2,0,P|249:275|171:319,1,134.999995880127,0|2,0:0|0:0,0:0:0:0:
179,307,42154,37,0,0:0:0:0:
179,307,42325,1,2,0:0:0:0:
100,255,42497,1,4,0:0:0:0:
108,161,42668,2,0,P|139:138|176:134,1,67.4999979400635
276,191,43011,1,0,0:0:0:0:
183,130,43182,70,0,P|132:140|44:159,1,134.999995880127
111,50,43697,1,0,0:0:0:0:
224,202,43868,2,0,P|259:153|246:69,1,134.999995880127
328,23,44382,5,0,0:0:0:0:
343,15,44468,1,0,0:0:0:0:
358,7,44554,1,0,0:0:0:0:
410,140,44725,2,0,P|373:137|339:121,1,67.4999979400635
345,125,45068,1,0,0:0:0:0:
232,236,45240,2,0,B|256:236|280:227|280:227|313:253|385:251,1,134.999995880127,0|10,0:0|0:0,0:0:0:0:
487,206,45754,70,0,P|476:257|472:278,1,67.4999979400635
473,272,46097,1,0,0:0:0:0:
393,155,46268,1,0,0:0:0:0:
510,104,46440,1,0,0:0:0:0:
361,250,46611,2,0,B|313:253|280:227|280:227|256:236|232:236,1,134.999995880127
148,267,47125,1,0,3:0:0:0:
168,174,47297,5,0,0:0:0:0:
168,174,47640,1,2,0:0:0:0:
256,98,47811,2,0,B|252:35|209:7|209:7|216:31|208:49,1,134.999995880127
168,174,48325,5,10,0:0:0:0:
168,174,48497,1,0,0:0:0:0:
92,244,48668,2,0,P|55:232|24:230,1,67.4999979400635,4|0,0:0|0:0,0:0:0:0:
186,361,49011,2,0,P|179:321|174:280,1,67.4999979400635
288,330,49354,2,0,P|340:349|424:341,1,134.999995880127
418,343,49868,1,0,0:0:0:0:
342,148,50040,6,0,P|355:216|357:239,1,67.4999979400635,4|0,0:0|0:0,0:0:0:0:
459,167,50382,1,0,0:0:0:0:
226,58,50554,2,0,P|213:126|201:195,1,134.999995880127
326,33,51068,1,10,0:0:0:0:
326,33,51411,5,4,0:0:0:0:
270,109,51582,1,2,0:0:0:0:
177,130,51754,1,0,0:0:0:0:
91,91,51925,2,0,P|61:147|59:230,1,134.999995880127
104,299,52440,1,10,0:0:0:0:
314,173,52782,6,0,P|379:150|452:156,1,134.999995880127
452,160,53297,2,0,P|444:202|440:232,1,67.4999979400635
427,336,53640,1,0,0:0:0:0:
314,173,53811,2,0,P|318:139|332:69,1,101.249996910095,8|0,0:0|0:0,0:0:0:0:
313,44,54154,70,0,P|258:33|187:89,1,134.999995880127,4|0,0:0|0:0,0:0:0:0:
113,236,54668,2,0,P|168:247|239:191,1,134.999995880127,4|0,0:0|0:0,0:0:0:0:
156,148,55182,1,10,0:0:0:0:
52,310,55525,6,0,P|89:327|123:326,1,67.4999979400635,4|2,0:0|0:0,0:0:0:0:
231,206,55868,1,0,0:0:0:0:
231,206,56040,2,0,P|118:234|85:242,1,134.999995880127,0|0,0:0|3:2,0:0:0:0:
90,248,56554,2,0,P|145:262|162:266,1,67.4999979400635,10|2,0:0|0:0,0:0:0:0:
358,332,56897,6,2,L|440:315,1,75,4|0,0:2|0:0,0:0:0:0:
489,225,57240,1,0,0:0:0:0:
269,174,57411,6,2,P|252:209|254:249,1,75,4|0,0:2|0:0,0:0:0:0:
358,332,57754,1,0,0:0:0:0:
327,118,57925,70,2,P|293:98|253:97,1,75,4|0,0:2|0:0,0:0:0:0:
117,145,58268,1,0,0:0:0:0:
214,306,58440,6,2,P|240:279|252:244,1,75,4|0,0:2|0:0,0:0:0:0:
179,79,58782,1,0,0:0:0:0:
62,229,58954,70,2,P|97:250|147:247,1,75,6|2,0:2|0:0,0:0:0:0:
318,44,59297,2,2,L|303:123,1,75,6|2,0:2|0:0,0:0:0:0:
343,254,59640,6,0,P|284:222|217:226,1,134.999995880127,4|0,0:0|0:0,0:0:0:0:
80,334,60154,2,0,P|113:333|145:323,1,67.4999979400635,2|0,0:0|0:0,0:0:0:0:
218,228,60497,2,0,P|228:196|229:163,1,67.4999979400635,2|0,0:0|0:0,0:0:0:0:
70,36,60840,70,0,B|103:34|129:22|129:22|152:31|152:31|201:11|265:18,1,187.5,4|2,3:2|0:0,0:0:0:0:
330,73,61868,21,2,0:0:0:0:
418,89,62040,1,2,0:0:0:0:
500,51,62211,1,2,0:0:0:0:
351,207,62382,2,0,P|340:243|331:282,1,75,4|0,0:0|0:0,0:0:0:0:
246,328,62725,5,8,0:0:0:0:
429,291,62897,1,0,0:0:0:0:
429,291,62982,1,2,0:0:0:0:
429,291,63068,1,0,3:0:0:0:
247,228,63240,1,0,3:0:0:0:
294,142,63411,1,8,0:0:0:0:
413,377,63582,6,0,P|463:370|512:278,1,150,4|0,0:0|3:0,0:0:0:0:
351,207,64097,2,0,P|338:243|331:282,1,75,8|2,0:0|0:0,0:0:0:0:
331,279,64354,1,10,0:0:0:0:
331,279,64440,1,0,3:0:0:0:
467,183,64611,1,0,3:0:0:0:
325,97,64782,2,0,P|277:106|232:118,1,75,8|0,0:0|0:0,0:0:0:0:
103,154,65125,5,4,0:0:0:0:
194,194,65297,1,2,0:0:0:0:
168,59,65468,1,8,0:0:0:0:
34,221,65640,1,2,0:0:0:0:
171,332,65811,2,0,P|203:273|191:188,1,150,4|8,0:0|0:0,0:0:0:0:
15,116,66325,1,4,0:0:0:0:
15,116,66668,5,0,3:0:0:0:
87,207,66840,1,10,0:0:0:0:
175,61,67011,1,0,0:0:0:0:
155,48,67097,1,8,0:0:0:0:
136,36,67182,1,0,3:0:0:0:
193,193,67354,6,0,P|209:228|211:275,1,75,4|10,0:0|0:0,0:0:0:0:
87,207,67697,1,2,0:0:0:0:
289,330,67868,1,4,0:0:0:0:
169,359,68040,5,2,0:0:0:0:
288,225,68211,1,8,0:0:0:0:
169,359,68382,1,2,0:0:0:0:
193,193,68554,2,0,P|200:140|204:112,1,75,0|2,3:0|3:2,0:0:0:0:
288,25,68897,1,8,0:0:0:0:
481,159,69068,6,0,B|434:154|396:174|396:174|375:153|339:140,1,150,4|0,0:0|3:0,0:0:0:0:
181,265,69582,2,0,P|193:230|191:192,1,75,8|2,0:0|0:0,0:0:0:0:
192,192,69840,1,10,0:0:0:0:
192,192,69925,1,0,3:0:0:0:
288,25,70097,2,0,P|275:60|277:97,1,75,0|12,3:0|0:0,0:0:0:0:
310,241,70440,1,2,0:0:0:0:
143,63,70611,5,4,0:0:0:0:
192,192,70782,1,2,0:0:0:0:
277,97,70954,1,8,0:0:0:0:
112,139,71125,5,2,0:0:0:0:
215,237,71296,1,0,3:0:0:0:
249,103,71468,1,0,3:0:0:0:
93,246,71640,2,0,P|56:241|19:237,1,75,8|2,0:0|0:0,0:0:0:0:
249,103,71982,5,0,3:2:0:0:
93,246,72154,1,2,0:0:0:0:
259,291,72325,1,8,0:0:0:0:
171,130,72497,2,0,B|192:210|192:210|172:241|177:292,1,150,4|0,0:0|0:0,0:0:0:0:
393,365,73011,1,8,0:0:0:0:
399,347,73097,1,8,0:0:0:0:
405,329,73182,1,8,0:0:0:0:
412,311,73268,1,8,0:0:0:0:
419,293,73354,6,0,P|371:303|338:311,1,67.4999979400635,4|2,0:0|0:0,0:0:0:0:
191,181,73697,2,0,P|239:191|272:199,1,67.4999979400635,0|0,0:0|3:0,0:0:0:0:
265,199,74040,2,0,P|253:233|247:265,2,67.4999979400635,8|2|0,0:0|0:0|0:0,0:0:0:0:
272,31,74554,6,0,P|214:35|131:77,1,134.999995880127,0|8,3:0|0:0,0:0:0:0:
43,151,75068,1,2,0:0:0:0:
43,151,75240,1,0,3:0:0:0:
201,192,75411,2,0,P|255:226|312:285,1,134.999995880127,8|0,0:0|3:0,0:0:0:0:
410,130,75925,5,2,0:0:0:0:
385,312,76097,2,0,P|340:350|258:346,1,134.999995880127,4|2,3:2|0:0,0:0:0:0:
266,350,76611,1,0,3:0:0:0:
58,200,76782,2,0,B|158:222|158:222|119:235,1,134.999995880127,12|2,0:0|0:0,0:0:0:0:
127,232,77297,6,0,P|138:127|142:85,1,134.999995880127,4|0,0:0|3:0,0:0:0:0:
255,15,77811,2,0,P|251:48|248:82,1,67.4999979400635,0|0,0:0|3:0,0:0:0:0:
332,225,78154,1,8,0:0:0:0:
505,151,78325,5,2,3:2:0:0:
255,15,78497,1,10,0:0:0:0:
446,245,78668,2,0,P|476:295|475:392,1,150,4|2,0:0|3:2,0:0:0:0:
274,154,79182,2,0,P|321:137|345:133,1,75,10|2,0:0|0:0,0:0:0:0:
332,225,79525,1,0,3:0:0:0:
174,129,79697,5,2,3:2:0:0:
352,32,79868,1,10,0:2:0:0:
110,74,80040,2,0,P|94:115|97:153,1,75,4|0,0:0|0:0,0:0:0:0:
158,309,80382,1,0,3:0:0:0:
256,270,80554,5,10,0:0:0:0:
172,206,80725,1,2,0:0:0:0:
97,371,80897,1,0,3:0:0:0:
328,287,81068,2,0,P|285:277|249:268,1,75,2|8,3:2|0:0,0:0:0:0:
420,376,81411,6,0,P|459:319|450:238,1,150,4|0,0:0|3:0,0:0:0:0:
334,45,81925,2,0,P|341:82|348:124,1,75,10|0,0:0|0:0,0:0:0:0:
365,234,82268,1,10,0:0:0:0:
446,97,82440,1,0,3:0:0:0:
512,180,82611,1,10,0:0:0:0:
252,213,82782,6,0,B|201:209|164:228|164:228|131:216|110:177,1,150,2|0,3:2|3:0,0:0:0:0:
35,134,83297,2,0,P|27:92|21:57,1,75,8|0,0:0|3:0,0:0:0:0:
21,60,83555,1,8,0:0:0:0:
21,60,83640,1,0,3:0:0:0:
187,83,83811,5,4,0:0:0:0:
49,311,83982,1,0,3:0:0:0:
205,272,84154,2,0,P|271:245|353:239,1,150,4|2,0:0|3:2,0:0:0:0:
468,187,84668,1,10,0:0:0:0:
357,130,84840,1,2,0:0:0:0:
435,275,85011,1,8,0:0:0:0:
469,65,85182,5,2,0:0:0:0:
348,238,85354,1,8,0:0:0:0:
205,272,85525,2,0,P|156:235|164:148,1,150,4|0,0:0|3:0,0:0:0:0:
367,55,86040,6,0,P|361:92|357:130,1,75,10|0,0:0|0:0,0:0:0:0:
357,129,86297,1,10,0:0:0:0:
357,129,86382,1,0,3:0:0:0:
457,94,86554,1,0,3:0:0:0:
262,121,86725,1,8,0:0:0:0:
392,326,86897,6,0,P|441:288|433:202,1,150,4|0,0:0|3:0,0:0:0:0:
167,20,87411,2,0,P|149:54|149:90,1,75,10|0,0:0|0:0,0:0:0:0:
165,270,87754,1,10,0:0:0:0:
262,121,87925,1,2,3:2:0:0:
90,183,88097,1,10,0:0:0:0:
265,224,88268,6,0,B|335:249|357:214|415:235,1,150,2|0,3:2|3:0,0:0:0:0:
412,234,88782,2,0,P|405:275|399:310,1,75,8|0,0:0|0:0,0:0:0:0:
252,150,89125,2,0,P|259:191|265:226,1,75,8|0,0:0|0:0,0:0:0:0:
400,42,89468,2,0,P|397:53|394:71,6,18.75,8|8|8|8|8|8|8,0:0|0:0|0:0|0:0|0:0|0:0|0:0,0:0:0:0:
388,135,89811,6,0,P|427:137|462:122,1,75,4|0,0:0|0:0,0:0:0:0:
307,33,90154,1,8,0:0:0:0:
264,223,90325,2,0,P|200:233|137:160,1,150,2|0,0:0|0:0,0:0:0:0:
176,19,90840,2,0,P|186:69|192:95,1,75,10|0,0:0|0:0,0:0:0:0:
264,223,91182,5,2,0:0:0:0:
174,258,91354,1,2,0:0:0:0:
109,108,91525,1,8,0:0:0:0:
297,146,91697,2,0,P|361:156|424:83,1,150,4|2,0:0|0:0,0:0:0:0:
333,51,92211,1,12,0:0:0:0:
297,146,92382,1,2,0:0:0:0:
456,219,92554,5,4,0:0:0:0:
456,219,92897,1,8,0:0:0:0:
297,146,93068,2,0,P|257:138|221:133,1,75,2|0,3:2|0:0,0:0:0:0:
341,297,93411,2,0,P|378:302|414:309,1,75,2|8,0:0|0:0,0:0:0:0:
374,190,93754,1,2,0:0:0:0:
162,221,93925,5,4,0:0:0:0:
223,133,94097,1,2,0:0:0:0:
252,290,94268,1,8,0:0:0:0:
362,110,94440,2,0,P|426:70|509:93,1,150,4|2,0:0|3:2,0:0:0:0:
446,170,94954,1,8,0:0:0:0:
240,73,95125,5,2,0:0:0:0:
240,73,95211,1,2,0:0:0:0:
240,73,95297,2,0,P|251:122|257:154,1,75,4|0,0:0|0:0,0:0:0:0:
330,252,95640,1,8,0:0:0:0:
141,229,95811,2,0,P|91:176|100:104,1,150,4|0,0:0|0:0,0:0:0:0:
240,73,96325,1,8,0:0:0:0:
309,265,96497,1,4,0:0:0:0:
309,265,96840,5,10,0:0:0:0:
100,105,97011,1,10,0:0:0:0:
100,105,97354,1,10,0:0:0:0:
80,192,97525,1,2,0:0:0:0:
80,192,97611,1,8,0:0:0:0:
80,192,97697,1,10,0:0:0:0:
48,276,97868,6,0,P|104:316|184:307,1,150,4|0,0:0|3:0,0:0:0:0:
290,214,98382,2,0,P|252:204|216:196,1,75,10|0,0:0|0:0,0:0:0:0:
268,334,98725,2,0,P|304:342|340:351,1,75,2|0,3:2|3:0,0:0:0:0:
434,302,99068,1,8,0:0:0:0:
364,150,99240,6,0,B|318:129|318:129|265:160|292:220,1,150,2|0,3:2|3:0,0:0:0:0:
423,374,99754,2,0,P|435:336|432:294,1,75,10|0,0:0|0:0,0:0:0:0:
374,77,100097,2,0,P|362:115|365:157,1,75,2|0,3:2|3:0,0:0:0:0:
484,54,100440,2,0,P|406:70|357:80,1,112.5,12|2,0:0|0:0,0:0:0:0:
295,94,100782,5,4,0:0:0:0:
137,205,100954,1,2,0:0:0:0:
157,76,101125,1,10,0:0:0:0:
200,288,101297,2,0,B|220:275|251:272|251:272|262:224|225:182,1,150,2|2,3:2|3:2,0:0:0:0:
157,76,101811,1,8,0:0:0:0:
325,168,101982,6,0,P|386:177|451:114,1,150,4|0,0:0|3:0,0:0:0:0:
448,121,102497,2,0,P|437:170|430:202,1,75,10|0,0:0|0:0,0:0:0:0:
478,258,102754,1,8,0:0:0:0:
478,258,102840,2,0,P|466:306|459:338,1,75,0|0,3:0|0:0,0:0:0:0:
327,312,103182,2,0,P|284:297|241:300,1,75,10|0,0:0|0:0,0:0:0:0:
63,369,103525,5,4,0:0:0:0:
168,212,103697,1,2,3:2:0:0:
26,249,103868,1,8,0:0:0:0:
186,64,104040,5,2,3:2:0:0:
67,134,104211,1,12,0:0:0:0:
272,165,104382,1,8,0:0:0:0:
272,165,104725,6,0,B|309:161|340:147|340:147|363:158|363:158|396:142|440:139,1,150,4|2,0:0|3:2,0:0:0:0:
279,55,105240,1,8,0:0:0:0:
149,210,105411,1,2,3:2:0:0:
272,165,105582,5,4,0:0:0:0:
66,17,105754,1,8,0:0:0:0:
356,345,106097,1,4,0:0:0:0:
256,192,106182,12,0,107640,0:0:0:0:
