osu file format v14

[General]
AudioFilename: Ho shi ka ze no ho ros co pe.mp3
AudioLeadIn: 0
PreviewTime: 61697
Countdown: 0
SampleSet: Soft
StackLeniency: 0.3
Mode: 0
LetterboxInBreaks: 0
WidescreenStoryboard: 0

[Editor]
Bookmarks: 21754,107640
DistanceSpacing: 1
BeatDivisor: 2
GridSize: 32
TimelineZoom: 1

[Metadata]
Title:Hoshikaze no Horoscope(#12 ver.)
TitleUnicode:星風のホロスコープ(#12 ver.)
Artist:Nakamura Eriko, Shimizu Ai, Aoba Ringo
ArtistUnicode:中村繪里子、清水 愛、青葉りんご
Creator:Momochikun
Version:Easy
Source:星空へ架かる橋
Tags:A Bridge to the Starry Skies character song album Nakatsugawa Ui Hinata Ibuki Koumoto Madoka feng visual novel eroge
BeatmapID:836564
BeatmapSetID:382584

[Difficulty]
HPDrainRate:2
CircleSize:3
OverallDifficulty:2
ApproachRate:3
SliderMultiplier:0.95
SliderTickRate:1

[Events]
//Background and Video events
0,0,"BG.jpeg",0,0
//Break Periods
2,18004,19800
//Storyboard Layer 0 (Background)
//Storyboard Layer 1 (Fail)
//Storyboard Layer 2 (Pass)
//Storyboard Layer 3 (Foreground)
//Storyboard Sound Samples

[TimingPoints]
1420,461.538461538462,4,2,1,30,1,0
4650,-100,4,2,1,20,0,0
5112,-100,4,2,1,30,0,0
8112,-100,4,2,1,20,0,0
8804,-100,4,2,1,30,0,0
13650,-100,4,2,1,20,0,0
13881,-100,4,2,1,30,0,0
17804,-100,4,2,1,25,0,0
17920,-100,4,2,1,5,0,0
20573,-100,4,2,1,35,0,0
21240,342.857142857143,4,2,1,75,1,1
21325,-100,4,2,1,75,0,0
28954,-100,4,2,1,50,0,0
29125,-100,4,2,1,30,0,0
29297,-100,4,2,1,50,0,0
30840,-100,4,2,1,5,0,0
32211,-100,4,2,2,25,0,0
37182,-100,4,2,2,20,0,0
37697,-100,4,2,2,25,0,0
39925,-100,4,2,2,20,0,0
40440,-100,4,2,2,25,0,0
42497,-100,4,2,2,35,0,0
42668,-100,4,2,2,25,0,0
43182,-100,4,1,1,40,0,0
43354,-100,4,2,1,40,0,0
44554,-100,4,1,1,35,0,0
44725,-100,4,2,1,40,0,0
45068,-100,4,1,1,35,0,0
45240,-100,4,2,1,40,0,0
45925,-100,4,1,1,35,0,0
46097,-100,4,2,1,40,0,0
46611,-100,4,3,2,45,0,0
46632,-100,4,2,1,40,0,0
47125,-100,4,1,1,30,0,0
47640,-100,4,2,1,40,0,0
47811,-100,4,1,1,30,0,0
47982,-100,4,2,1,40,0,0
50554,-100,4,1,1,30,0,0
50897,-100,4,2,1,30,0,0
51925,-100,4,1,1,30,0,0
52097,-100,4,2,1,40,0,0
52440,-100,4,2,1,50,0,0
52782,-100,4,1,1,30,0,0
53125,-100,4,2,1,40,0,0
53297,-100,4,1,1,30,0,0
53468,-100,4,2,1,40,0,0
53811,-100,4,2,1,50,0,0
54154,-100,4,2,1,40,0,0
55182,-100,4,2,1,50,0,0
56040,-100,4,1,1,35,0,0
56211,-100,4,2,1,40,0,0
56382,-100,4,2,1,50,0,0
56554,-100,4,2,1,60,0,0
56897,-100,4,1,1,65,0,0
57240,-100,4,2,1,65,0,0
57411,-100,4,1,1,45,0,0
57582,-100,4,2,1,55,0,0
57754,-100,4,2,1,55,0,0
57925,-100,4,1,1,45,0,0
58097,-100,4,2,1,55,0,0
58440,-100,4,1,1,45,0,0
58611,-100,4,2,1,45,0,0
58782,-100,4,2,1,45,0,0
58954,-100,4,1,1,45,0,0
59125,-100,4,2,1,45,0,0
59297,-100,4,1,1,50,0,0
59468,-100,4,2,1,45,0,0
59640,-100,4,2,1,65,0,0
60154,-100,4,1,1,50,0,0
60325,-100,4,2,1,55,0,0
60497,-100,4,1,1,50,0,0
60668,-100,4,2,1,55,0,0
60840,-100,4,2,1,65,0,0
61697,-100,4,2,1,75,0,0
61868,-100,4,2,1,50,0,0
62211,-100,4,2,1,65,0,0
62382,-100,4,2,1,85,0,1
67354,-100,4,2,1,60,0,1
67868,-100,4,2,1,85,0,1
70268,-100,4,2,1,60,0,1
70611,-100,4,2,1,85,0,1
73097,-100,4,2,1,45,0,1
73354,-100,4,2,1,70,0,0
78668,-100,4,2,1,85,0,1
83811,-100,4,2,1,50,0,1
84154,-100,4,2,1,85,0,1
89468,-100,4,2,1,85,0,0
89511,-100,4,2,1,30,0,0
89811,-100,4,2,1,75,0,1
89897,-100,4,2,1,75,0,0
97525,-100,4,2,1,50,0,0
97868,-100,4,2,1,70,0,0
105582,-100,4,2,1,80,0,0
106097,-100,4,2,1,80,0,1
106182,-100,4,2,1,5,0,0

[Colours]
Combo1 : 89,255,172
Combo2 : 255,200,200
Combo3 : 252,167,131
Combo4 : 204,204,255
Combo5 : 255,170,255
Combo6 : 142,142,255

[HitObjects]
255,276,1420,6,0,P|184:298|86:216,1,190,2|0,0:0|0:0,0:0:0:0:
118,145,2804,1,0,0:0:0:0:
186,78,3266,2,0,L|381:102,1,190,0|2,0:0|0:0,0:0:0:0:
450,158,4650,1,0,0:0:0:0:
365,201,5112,6,0,P|356:248|348:303,1,95,2|0,0:0|0:0,0:0:0:0:
266,341,6035,2,0,B|216:351|216:351|187:341|187:341|123:355,2,142.5,0|0|2,0:0|0:0|0:0,0:0:0:0:
232,252,7881,2,0,P|217:204|226:146,1,95,2|0,0:0|0:0,0:0:0:0:
283,88,8804,5,2,0:0:0:0:
101,33,9727,2,0,P|116:81|107:139,1,95,0|0,0:0|0:0,0:0:0:0:
72,211,10650,2,0,P|57:259|66:317,2,95,0|2|2,0:0|0:0|0:0,0:0:0:0:
163,236,12035,2,0,L|261:219,1,95,2|2,0:0|0:0,0:0:0:0:
333,99,13189,6,0,L|191:123,1,142.5,2|0,0:0|0:0,0:0:0:0:
104,158,14343,2,0,P|77:114|95:10,2,142.5,2|2|0,0:0|0:0|0:0,0:0:0:0:
183,210,16189,2,0,P|210:254|192:358,1,142.5,2|2,0:0|0:0,0:0:0:0:
112,373,17343,1,0,0:0:0:0:
19,352,17804,1,4,0:0:0:0:
197,154,21240,6,0,P|126:143|48:132,2,142.5,4|2|10,0:0|3:2|0:0,0:0:0:0:
275,208,22611,2,0,P|281:260|242:343,2,142.5,2|2|10,3:2|3:2|0:0,0:0:0:0:
354,156,23982,6,0,P|320:94|323:23,2,142.5,2|2|10,3:2|3:2|0:0,0:0:0:0:
448,164,25354,2,0,P|481:225|478:296,2,142.5,4|4|8,0:0|0:0|0:0,0:0:0:0:
371,220,26725,6,0,L|225:202,1,142.5,4|4,0:0|0:0,0:0:0:0:
143,162,27582,2,0,L|131:110,2,47.5,0|10|4,0:0|0:0|0:0,0:0:0:0:
89,240,28268,2,0,L|78:286,1,47.5,8|8,0:0|0:0,0:0:0:0:
148,350,28782,2,0,P|219:370|298:361,1,142.5,2|4,0:0|0:0,0:0:0:0:
401,279,29811,6,0,L|423:177,1,95,8|0,0:0|3:0,0:0:0:0:
361,111,30497,1,8,0:0:0:0:
256,192,30840,12,4,32211,0:0:0:0:
445,97,33582,70,0,P|376:79|267:145,1,190,0|8,0:0|0:0,0:0:0:0:
164,286,34954,2,0,L|72:265,2,95,2|0|8,0:0|0:0|0:0,0:0:0:0:
256,305,35982,1,0,0:0:0:0:
338,258,36325,1,2,0:0:0:0:
289,74,37011,22,0,P|243:48|194:47,1,95,8|0,0:0|0:0,0:0:0:0:
121,96,37697,2,0,L|101:245,1,142.5,2|0,0:0|0:0,0:0:0:0:
83,330,38554,1,2,0:0:0:0:
174,356,38897,2,0,B|247:371|244:331|344:356,1,142.5,2|0,0:0|0:0,0:0:0:0:
391,293,39754,2,0,P|403:249|395:200,1,95,8|0,0:0|0:0,0:0:0:0:
341,122,40440,6,0,L|438:99,1,95,2|0,0:0|0:0,0:0:0:0:
368,30,41125,2,0,L|275:51,1,95,8|0,0:0|0:0,0:0:0:0:
197,105,41811,2,0,B|140:110|89:149|89:149|62:124|15:116,1,190,2|4,0:0|0:0,0:0:0:0:
22,213,42840,5,0,0:0:0:0:
3,305,43182,2,0,P|87:337|196:329,1,190,0|0,0:0|0:0,0:0:0:0:
263,277,44211,1,0,0:0:0:0:
351,235,44554,2,0,P|388:293|392:373,2,142.5,0|0|10,0:0|0:0|0:0,0:0:0:0:
281,170,45925,6,0,L|295:70,1,95,0|0,0:0|0:0,0:0:0:0:
202,50,46611,2,0,L|188:144,1,95,0|0,0:0|0:0,0:0:0:0:
157,234,47297,2,0,P|85:215|15:205,2,142.5,0|0|10,0:0|0:0|0:0,0:0:0:0:
241,277,48668,6,0,P|290:263|322:227,1,95,4|0,0:0|0:0,0:0:0:0:
324,136,49354,2,0,P|290:102|245:90,1,95
164,140,50040,2,0,B|69:151|69:151|21:139,2,142.5,4|0|10,0:0|0:0|0:0,0:0:0:0:
229,205,51411,22,0,P|197:277|203:356,2,142.5,4|0|10,0:0|0:0|0:0,0:0:0:0:
321,225,52782,2,0,P|320:295|290:359,2,142.5,0|0|8,0:0|0:0|0:0,0:0:0:0:
350,134,54154,6,0,P|436:123|498:117,1,142.5,4|4,0:0|0:0,0:0:0:0:
386,21,55182,1,10,0:0:0:0:
295,51,55525,2,0,P|209:40|147:34,1,142.5,4|0,0:0|0:0,0:0:0:0:
76,90,56382,2,0,L|57:144,1,47.5,0|10,3:2|0:0,0:0:0:0:
45,229,56897,6,0,B|92:248|138:230|138:230|177:248|196:263,1,142.5,4|4,2:0|0:2,0:0:0:0:
260,369,57925,2,0,B|213:350|167:368|167:368|128:350|109:335,2,142.5,4|4|4,0:2|0:2|2:0,0:0:0:0:
349,336,59297,1,6,0:2:0:0:
399,255,59640,6,0,P|419:199|408:109,1,142.5,4|2,0:0|0:0,0:0:0:0:
344,49,60497,1,2,0:0:0:0:
293,129,60840,1,4,3:2:0:0:
75,328,61868,6,0,L|68:281,1,47.5,2|2,0:0|0:0,0:0:0:0:
101,191,62382,2,0,P|146:167|218:173,1,95,4|8,0:0|0:0,0:0:0:0:
277,200,63068,2,0,P|340:208|414:156,2,142.5,0|4|8,3:0|0:0|0:0,0:0:0:0:
261,106,64440,2,0,L|275:9,1,95,0|8,3:0|0:0,0:0:0:0:
184,41,65125,6,0,L|87:55,1,95,4|8,0:0|0:0,0:0:0:0:
28,127,65811,2,0,P|5:184|4:266,2,142.5,4|4|10,0:0|0:0|0:0,0:0:0:0:
116,160,67182,2,0,P|112:212|97:253,1,95,0|10,3:0|0:0,0:0:0:0:
148,332,67868,6,0,P|199:319|253:315,1,95,4|8,0:0|0:0,0:0:0:0:
334,334,68554,2,0,B|361:233|361:233|349:182,2,142.5,0|4|8,3:0|0:0|0:0,0:0:0:0:
241,315,69925,1,0,3:0:0:0:
148,294,70268,1,12,0:0:0:0:
212,224,70611,6,0,P|218:174|208:124,1,95,4|8,0:0|0:0,0:0:0:0:
284,70,71297,2,0,P|330:75|374:93,1,95,0|8,3:0|0:0,0:0:0:0:
414,179,71982,2,0,L|444:39,2,142.5,0|4|8,3:0|0:0|0:0,0:0:0:0:
408,274,73354,6,0,B|375:264|375:264|306:275,1,95,4|0,0:0|0:0,0:0:0:0:
222,295,74040,2,0,B|150:279|156:315|73:292,1,142.5,8|0,0:0|3:0,0:0:0:0:
20,220,74897,2,0,P|39:152|16:81,1,142.5,8|8,0:0|0:0,0:0:0:0:
106,48,75754,1,0,3:0:0:0:
163,123,76097,6,0,P|226:115|262:110,1,95,4|2,3:2|0:0,0:0:0:0:
238,203,76782,2,0,P|301:195|383:184,2,142.5,12|4|0,0:0|0:0|0:0,0:0:0:0:
177,276,78154,6,0,P|146:224|164:143,2,142.5,8|4|10,0:0|0:0|0:0,0:0:0:0:
237,203,79525,2,0,P|269:264|252:332,2,142.5,0|4|10,3:0|0:0|0:0,0:0:0:0:
293,126,80897,2,0,B|388:108|388:108|436:120,1,142.5,0|4,3:0|0:0,0:0:0:0:
483,251,81925,5,10,0:0:0:0:
391,276,82268,2,0,B|296:294|296:294|248:282,1,142.5,10|2,0:0|0:0,0:0:0:0:
120,227,83297,1,8,0:0:0:0:
181,154,83640,6,0,P|197:106|174:13,2,142.5,0|4|10,3:0|0:0|0:0,0:0:0:0:
120,227,85011,2,0,P|104:275|127:368,2,142.5,8|4|10,0:0|0:0|0:0,0:0:0:0:
213,241,86382,2,0,P|281:258|348:237,1,142.5,0|4,3:0|0:0,0:0:0:0:
470,163,87411,5,10,0:0:0:0:
427,77,87754,2,0,L|274:105,1,142.5,10|2,0:0|3:2,0:0:0:0:
150,143,88782,2,0,L|49:123,2,95,8|8|8,0:0|0:0|0:0,0:0:0:0:
212,215,89811,6,0,P|237:272|242:356,2,142.5,4|2|10,0:0|0:0|0:0,0:0:0:0:
282,151,91182,2,0,P|285:80|312:14,1,142.5,2|4,0:0|0:0,0:0:0:0:
396,60,92040,2,0,L|450:46,1,47.5,2|12,0:0|0:0,0:0:0:0:
505,118,92554,6,0,P|501:188|474:254,1,142.5,4|2,0:0|3:2,0:0:0:0:
359,338,93582,1,8,0:0:0:0:
272,298,93925,2,0,B|203:286|206:316|118:296,2,142.5,4|4|8,0:0|0:0|0:0,0:0:0:0:
330,222,95297,6,0,L|342:75,1,142.5,4|4,0:0|0:0,0:0:0:0:
248,61,96154,2,0,L|252:13,2,47.5,0|8|4,0:0|0:0|0:0,0:0:0:0:
167,112,96840,2,0,L|173:172,1,47.5,10|10,0:0|0:0,0:0:0:0:
178,255,97354,6,0,P|108:265|48:228,2,142.5,10|4|8,0:0|0:0|0:0,0:0:0:0:
270,224,98725,2,0,P|280:293|249:356,2,142.5,2|2|10,3:2|3:2|0:0,0:0:0:0:
199,159,100097,2,0,P|213:110|247:77,1,95,2|12,3:2|0:0,0:0:0:0:
334,54,100782,6,0,P|396:68|465:123,1,142.5,4|2,0:0|3:2,0:0:0:0:
441,208,101640,1,2,3:2:0:0:
349,230,101982,2,0,B|292:242|292:242|249:227|198:235,1,142.5,4|10,0:0|0:0,0:0:0:0:
126,281,102840,1,0,3:0:0:0:
48,226,103182,1,10,0:0:0:0:
118,162,103525,6,0,L|102:58,1,95,4|8,0:0|0:0,0:0:0:0:
193,36,104211,2,0,P|260:13|355:30,2,142.5,12|4|8,0:0|0:0|0:0,0:0:0:0:
203,130,105582,2,0,L|207:181,1,47.5,4|8,0:0|0:0,0:0:0:0:
256,192,106097,12,0,107640,0:0:0:0:
