osu file format v14

[General]
AudioFilename: audio.mp3
AudioLeadIn: 0
PreviewTime: 66595
Countdown: 0
SampleSet: Soft
StackLeniency: 0.7
Mode: 3
LetterboxInBreaks: 0
SpecialStyle: 0
WidescreenStoryboard: 1

[Editor]
DistanceSpacing: 0.8
BeatDivisor: 2
GridSize: 4
TimelineZoom: 1.4

[Metadata]
Title:Ego Ego Atakushi
TitleUnicode:エゴエゴアタクシ
Artist:Nakamura Eriko #1
ArtistUnicode:中村繪里子#1
Creator:MarioUniverseZ
Version:Hard
Source:太鼓の達人
Tags:taiko no tatsujin tnt 中川浩二 kouji nakagawa nbgi 自私大小姐 村上正信 murakami masanobu オリジナルサウンドトラック「サントラ2008」 original soundtrack [santora 2008] COCX-34933-4 video game electronic japanese track 14 egoego
BeatmapID:4207729
BeatmapSetID:2020475

[Difficulty]
HPDrainRate:7.5
CircleSize:7
OverallDifficulty:7.8
ApproachRate:5
SliderMultiplier:1.4
SliderTickRate:1

[Events]
//Background and Video events
0,0,"DDhgM_SXsAUeDtN.jpg",0,0
//Break Periods
2,107736,111983
//Storyboard Layer 0 (Background)
//Storyboard Layer 1 (Fail)
//Storyboard Layer 2 (Pass)
//Storyboard Layer 3 (Foreground)
//Storyboard Layer 4 (Overlay)
//Storyboard Sound Samples

[TimingPoints]
1654,352.941176470588,4,2,1,50,1,0
66595,-100,4,2,1,50,0,1
107536,-100,4,2,1,50,0,0
113183,-100,4,2,1,50,0,1
121653,-100,4,2,1,50,0,0

[HitObjects]
256,192,1654,5,0,0:0:0:0:
475,192,1654,1,0,0:0:0:0:
402,192,1654,1,0,0:0:0:0:
109,192,1830,1,0,0:0:0:0:
182,192,1830,1,0,0:0:0:0:
402,192,1918,1,0,0:0:0:0:
329,192,1918,1,0,0:0:0:0:
109,192,2006,1,0,0:0:0:0:
182,192,2006,1,0,0:0:0:0:
402,192,2183,1,0,0:0:0:0:
329,192,2183,1,0,0:0:0:0:
109,192,2271,1,0,0:0:0:0:
182,192,2271,1,0,0:0:0:0:
402,192,2359,1,0,0:0:0:0:
329,192,2359,1,0,0:0:0:0:
182,192,2536,1,0,0:0:0:0:
256,192,2536,1,0,0:0:0:0:
36,192,2712,1,0,0:0:0:0:
109,192,2712,1,0,0:0:0:0:
256,192,2889,1,0,0:0:0:0:
475,192,2889,1,0,0:0:0:0:
402,192,2977,1,0,0:0:0:0:
36,192,3065,1,0,0:0:0:0:
182,192,3065,1,0,0:0:0:0:
329,192,3065,1,0,0:0:0:0:
256,192,3242,1,0,0:0:0:0:
182,192,3330,1,0,0:0:0:0:
402,192,3418,1,0,0:0:0:0:
109,192,3418,1,0,0:0:0:0:
329,192,3595,1,0,0:0:0:0:
256,192,3683,1,0,0:0:0:0:
475,192,3771,1,0,0:0:0:0:
182,192,3771,1,0,0:0:0:0:
402,192,3948,1,0,0:0:0:0:
329,192,4036,1,0,0:0:0:0:
36,192,4124,1,0,0:0:0:0:
256,192,4124,1,0,0:0:0:0:
329,192,4301,1,0,0:0:0:0:
182,192,4301,1,0,0:0:0:0:
109,192,4477,1,0,0:0:0:0:
36,192,4477,1,0,0:0:0:0:
475,192,4477,1,0,0:0:0:0:
182,192,4653,1,0,0:0:0:0:
256,192,4742,1,0,0:0:0:0:
475,192,4830,1,0,0:0:0:0:
329,192,4830,1,0,0:0:0:0:
109,192,5006,1,0,0:0:0:0:
182,192,5095,1,0,0:0:0:0:
402,192,5183,1,0,0:0:0:0:
256,192,5183,1,0,0:0:0:0:
36,192,5359,1,0,0:0:0:0:
109,192,5448,1,0,0:0:0:0:
329,192,5536,1,0,0:0:0:0:
182,192,5536,1,0,0:0:0:0:
402,192,5712,1,0,0:0:0:0:
256,192,5712,1,0,0:0:0:0:
475,192,5889,1,0,0:0:0:0:
36,192,5889,1,0,0:0:0:0:
109,192,5889,1,0,0:0:0:0:
402,192,6065,1,0,0:0:0:0:
329,192,6153,1,0,0:0:0:0:
109,192,6242,1,0,0:0:0:0:
256,192,6242,1,0,0:0:0:0:
36,192,6418,1,0,0:0:0:0:
402,192,6595,1,0,0:0:0:0:
36,192,6595,1,0,0:0:0:0:
182,192,6771,1,0,0:0:0:0:
329,192,6948,1,0,0:0:0:0:
182,192,6948,1,0,0:0:0:0:
402,192,7124,1,0,0:0:0:0:
475,192,7124,1,0,0:0:0:0:
329,192,7212,1,0,0:0:0:0:
182,192,7301,1,0,0:0:0:0:
36,192,7301,1,0,0:0:0:0:
182,192,7477,1,0,0:0:0:0:
36,192,7477,1,0,0:0:0:0:
402,192,7653,1,0,0:0:0:0:
475,192,7653,1,0,0:0:0:0:
475,192,7830,1,0,0:0:0:0:
402,192,7830,1,0,0:0:0:0:
36,192,8006,1,0,0:0:0:0:
109,192,8006,1,0,0:0:0:0:
109,192,8183,1,0,0:0:0:0:
36,192,8183,1,0,0:0:0:0:
475,192,8359,1,0,0:0:0:0:
329,192,8359,1,0,0:0:0:0:
329,192,8536,1,0,0:0:0:0:
475,192,8536,1,0,0:0:0:0:
402,192,10124,1,0,0:0:0:0:
109,192,10124,1,0,0:0:0:0:
109,192,10477,1,0,0:0:0:0:
402,192,10477,1,0,0:0:0:0:
402,192,10830,1,0,0:0:0:0:
109,192,10830,1,0,0:0:0:0:
182,192,10918,1,0,0:0:0:0:
256,192,11006,1,0,0:0:0:0:
329,192,11095,1,0,0:0:0:0:
109,192,11183,1,0,0:0:0:0:
402,192,11183,1,0,0:0:0:0:
182,192,11271,1,0,0:0:0:0:
256,192,11359,1,0,0:0:0:0:
329,192,11448,1,0,0:0:0:0:
36,192,11536,1,0,0:0:0:0:
475,192,11536,1,0,0:0:0:0:
402,192,11536,1,0,0:0:0:0:
109,192,11712,1,0,0:0:0:0:
329,192,11889,1,0,0:0:0:0:
182,192,11889,1,0,0:0:0:0:
109,192,12065,1,0,0:0:0:0:
475,192,12242,1,0,0:0:0:0:
256,192,12242,1,0,0:0:0:0:
182,192,12418,1,0,0:0:0:0:
329,192,12595,1,0,0:0:0:0:
36,192,12595,1,0,0:0:0:0:
256,192,12771,1,0,0:0:0:0:
402,192,12948,1,0,0:0:0:0:
109,192,12948,1,0,0:0:0:0:
182,192,13124,1,0,0:0:0:0:
475,192,13301,1,0,0:0:0:0:
256,192,13301,1,0,0:0:0:0:
109,192,13477,1,0,0:0:0:0:
329,192,13653,1,0,0:0:0:0:
182,192,13653,1,0,0:0:0:0:
475,192,13830,1,0,0:0:0:0:
36,192,13830,1,0,0:0:0:0:
182,192,14006,1,0,0:0:0:0:
329,192,14006,1,0,0:0:0:0:
475,192,14359,1,0,0:0:0:0:
256,192,14359,1,0,0:0:0:0:
182,192,14536,1,0,0:0:0:0:
402,192,14712,1,0,0:0:0:0:
109,192,14712,1,0,0:0:0:0:
329,192,14889,1,0,0:0:0:0:
36,192,15065,1,0,0:0:0:0:
256,192,15065,1,0,0:0:0:0:
475,192,15242,1,0,0:0:0:0:
402,192,15418,1,0,0:0:0:0:
182,192,15418,1,0,0:0:0:0:
109,192,15595,1,0,0:0:0:0:
329,192,15771,1,0,0:0:0:0:
36,192,15771,1,0,0:0:0:0:
182,192,15948,1,0,0:0:0:0:
402,192,16124,1,0,0:0:0:0:
109,192,16124,1,0,0:0:0:0:
256,192,16301,1,0,0:0:0:0:
475,192,16477,1,0,0:0:0:0:
182,192,16477,1,0,0:0:0:0:
256,192,16830,1,0,0:0:0:0:
36,192,16830,1,0,0:0:0:0:
329,192,16918,1,0,0:0:0:0:
402,192,17006,1,0,0:0:0:0:
475,192,17095,1,0,0:0:0:0:
109,192,17183,1,0,0:0:0:0:
256,192,17183,1,0,0:0:0:0:
36,192,17359,1,0,0:0:0:0:
475,192,17536,1,0,0:0:0:0:
182,192,17536,1,0,0:0:0:0:
402,192,17712,1,0,0:0:0:0:
329,192,17889,1,0,0:0:0:0:
109,192,17889,1,0,0:0:0:0:
402,192,18065,1,0,0:0:0:0:
475,192,18242,1,0,0:0:0:0:
182,192,18242,1,0,0:0:0:0:
256,192,18418,1,0,0:0:0:0:
329,192,18595,1,0,0:0:0:0:
36,192,18595,1,0,0:0:0:0:
109,192,18771,1,0,0:0:0:0:
402,192,18948,1,0,0:0:0:0:
182,192,18948,1,0,0:0:0:0:
475,192,19124,1,0,0:0:0:0:
109,192,19301,1,0,0:0:0:0:
256,192,19301,1,0,0:0:0:0:
475,192,19653,1,0,0:0:0:0:
329,192,19653,1,0,0:0:0:0:
36,192,20006,1,0,0:0:0:0:
182,192,20006,1,0,0:0:0:0:
256,192,20183,1,0,0:0:0:0:
475,192,20359,1,0,0:0:0:0:
329,192,20359,1,0,0:0:0:0:
109,192,20536,1,0,0:0:0:0:
402,192,20712,1,0,0:0:0:0:
182,192,20712,1,0,0:0:0:0:
329,192,20889,1,0,0:0:0:0:
36,192,21065,1,0,0:0:0:0:
256,192,21065,1,0,0:0:0:0:
475,192,21242,1,0,0:0:0:0:
109,192,21418,1,0,0:0:0:0:
329,192,21418,1,0,0:0:0:0:
36,192,21595,1,0,0:0:0:0:
402,192,21771,1,0,0:0:0:0:
182,192,21771,1,0,0:0:0:0:
109,192,21948,1,0,0:0:0:0:
475,192,22124,1,0,0:0:0:0:
256,192,22124,1,0,0:0:0:0:
329,192,22477,1,0,0:0:0:0:
182,192,22477,1,0,0:0:0:0:
36,192,22830,1,0,0:0:0:0:
109,192,22830,1,0,0:0:0:0:
256,192,22830,1,0,0:0:0:0:
256,192,23183,1,0,0:0:0:0:
109,192,23183,1,0,0:0:0:0:
36,192,23183,1,0,0:0:0:0:
329,192,23359,1,0,0:0:0:0:
475,192,23536,1,0,0:0:0:0:
402,192,23536,1,0,0:0:0:0:
182,192,23536,1,0,0:0:0:0:
182,192,23889,1,0,0:0:0:0:
402,192,23889,1,0,0:0:0:0:
475,192,23889,1,0,0:0:0:0:
329,192,24065,1,0,0:0:0:0:
256,192,24242,1,0,0:0:0:0:
36,192,24242,1,0,0:0:0:0:
109,192,24242,1,0,0:0:0:0:
402,192,24418,1,0,0:0:0:0:
109,192,24595,1,0,0:0:0:0:
329,192,24595,1,0,0:0:0:0:
182,192,24595,1,0,0:0:0:0:
475,192,24771,1,0,0:0:0:0:
36,192,24948,1,0,0:0:0:0:
182,192,24948,1,0,0:0:0:0:
256,192,24948,1,0,0:0:0:0:
329,192,25124,1,0,0:0:0:0:
402,192,25124,1,0,0:0:0:0:
256,192,25301,1,0,0:0:0:0:
182,192,25301,1,0,0:0:0:0:
36,192,25301,1,0,0:0:0:0:
475,192,25653,1,0,0:0:0:0:
402,192,25653,1,0,0:0:0:0:
329,192,25653,1,0,0:0:0:0:
256,192,25830,1,0,0:0:0:0:
402,192,26006,1,0,0:0:0:0:
109,192,26006,1,0,0:0:0:0:
182,192,26006,1,0,0:0:0:0:
329,192,26183,1,0,0:0:0:0:
182,192,26359,1,0,0:0:0:0:
109,192,26359,1,0,0:0:0:0:
36,192,26359,1,0,0:0:0:0:
256,192,26536,1,0,0:0:0:0:
402,192,26712,1,0,0:0:0:0:
329,192,26712,1,0,0:0:0:0:
109,192,26712,1,0,0:0:0:0:
475,192,26889,1,0,0:0:0:0:
182,192,27065,1,0,0:0:0:0:
36,192,27065,1,0,0:0:0:0:
109,192,27065,1,0,0:0:0:0:
256,192,27242,1,0,0:0:0:0:
402,192,27418,1,0,0:0:0:0:
475,192,27418,1,0,0:0:0:0:
329,192,27418,1,0,0:0:0:0:
182,192,27595,1,0,0:0:0:0:
109,192,27595,1,0,0:0:0:0:
402,192,27683,1,0,0:0:0:0:
329,192,27683,1,0,0:0:0:0:
109,192,27771,1,0,0:0:0:0:
182,192,27771,1,0,0:0:0:0:
475,192,27948,1,0,0:0:0:0:
402,192,27948,1,0,0:0:0:0:
256,192,28124,1,0,0:0:0:0:
182,192,28124,1,0,0:0:0:0:
36,192,28124,1,0,0:0:0:0:
475,192,28477,1,0,0:0:0:0:
402,192,28477,1,0,0:0:0:0:
256,192,28477,1,0,0:0:0:0:
109,192,28653,1,0,0:0:0:0:
256,192,28830,1,0,0:0:0:0:
402,192,28830,1,0,0:0:0:0:
475,192,28830,1,0,0:0:0:0:
182,192,29006,1,0,0:0:0:0:
36,192,29183,1,0,0:0:0:0:
109,192,29183,1,0,0:0:0:0:
329,192,29183,1,0,0:0:0:0:
329,192,29536,1,0,0:0:0:0:
109,192,29536,1,0,0:0:0:0:
36,192,29536,1,0,0:0:0:0:
182,192,29712,1,0,0:0:0:0:
256,192,29889,1,0,0:0:0:0:
475,192,29889,1,0,0:0:0:0:
402,192,29889,1,0,0:0:0:0:
109,192,30065,1,0,0:0:0:0:
402,192,30242,1,0,0:0:0:0:
182,192,30242,1,0,0:0:0:0:
329,192,30242,1,0,0:0:0:0:
36,192,30418,1,0,0:0:0:0:
475,192,30595,1,0,0:0:0:0:
329,192,30595,1,0,0:0:0:0:
256,192,30595,1,0,0:0:0:0:
182,192,30771,1,0,0:0:0:0:
109,192,30771,1,0,0:0:0:0:
256,192,30948,1,0,0:0:0:0:
329,192,30948,1,0,0:0:0:0:
475,192,30948,1,0,0:0:0:0:
36,192,31301,1,0,0:0:0:0:
109,192,31301,1,0,0:0:0:0:
182,192,31301,1,0,0:0:0:0:
256,192,31477,1,0,0:0:0:0:
109,192,31653,1,0,0:0:0:0:
402,192,31653,1,0,0:0:0:0:
329,192,31653,1,0,0:0:0:0:
182,192,31830,1,0,0:0:0:0:
329,192,32006,1,0,0:0:0:0:
402,192,32006,1,0,0:0:0:0:
475,192,32006,1,0,0:0:0:0:
256,192,32183,1,0,0:0:0:0:
109,192,32359,1,0,0:0:0:0:
182,192,32359,1,0,0:0:0:0:
402,192,32359,1,0,0:0:0:0:
36,192,32536,1,0,0:0:0:0:
329,192,32712,1,0,0:0:0:0:
475,192,32712,1,0,0:0:0:0:
402,192,32712,1,0,0:0:0:0:
256,192,32889,1,0,0:0:0:0:
109,192,33065,1,0,0:0:0:0:
36,192,33065,1,0,0:0:0:0:
182,192,33065,1,0,0:0:0:0:
329,192,33242,1,0,0:0:0:0:
402,192,33242,1,0,0:0:0:0:
109,192,33330,1,0,0:0:0:0:
182,192,33330,1,0,0:0:0:0:
402,192,33418,1,0,0:0:0:0:
329,192,33418,1,0,0:0:0:0:
36,192,33595,1,0,0:0:0:0:
109,192,33595,1,0,0:0:0:0:
256,192,33771,1,0,0:0:0:0:
329,192,33771,1,0,0:0:0:0:
475,192,33771,1,0,0:0:0:0:
402,192,34124,1,0,0:0:0:0:
36,192,34124,1,0,0:0:0:0:
182,192,34124,1,0,0:0:0:0:
402,192,34301,1,0,0:0:0:0:
329,192,34477,1,0,0:0:0:0:
256,192,34477,1,0,0:0:0:0:
109,192,34477,1,0,0:0:0:0:
182,192,34653,1,0,0:0:0:0:
256,192,34742,1,0,0:0:0:0:
36,192,34830,1,0,0:0:0:0:
475,192,34830,1,0,0:0:0:0:
329,192,34830,1,0,0:0:0:0:
109,192,34918,1,0,0:0:0:0:
182,192,35006,1,0,0:0:0:0:
402,192,35183,1,0,0:0:0:0:
36,192,35183,1,0,0:0:0:0:
256,192,35183,1,0,0:0:0:0:
329,192,35359,1,0,0:0:0:0:
256,192,35448,1,0,0:0:0:0:
475,192,35536,1,0,0:0:0:0:
109,192,35536,1,0,0:0:0:0:
182,192,35536,1,0,0:0:0:0:
402,192,35624,1,0,0:0:0:0:
329,192,35712,1,0,0:0:0:0:
36,192,35889,1,0,0:0:0:0:
109,192,35889,1,0,0:0:0:0:
256,192,35889,1,0,0:0:0:0:
256,192,36065,1,0,0:0:0:0:
475,192,36242,1,0,0:0:0:0:
329,192,36242,1,0,0:0:0:0:
182,192,36242,1,0,0:0:0:0:
36,192,36418,1,0,0:0:0:0:
109,192,36506,1,0,0:0:0:0:
475,192,36595,1,0,0:0:0:0:
402,192,36595,1,0,0:0:0:0:
182,192,36595,1,0,0:0:0:0:
329,192,36683,1,0,0:0:0:0:
256,192,36859,1,0,0:0:0:0:
475,192,36948,1,0,0:0:0:0:
109,192,36948,1,0,0:0:0:0:
182,192,36948,1,0,0:0:0:0:
402,192,37036,1,0,0:0:0:0:
36,192,37212,1,0,0:0:0:0:
256,192,37301,1,0,0:0:0:0:
329,192,37301,1,0,0:0:0:0:
182,192,37301,1,0,0:0:0:0:
475,192,37389,1,0,0:0:0:0:
109,192,37565,1,0,0:0:0:0:
402,192,37653,1,0,0:0:0:0:
329,192,37653,1,0,0:0:0:0:
256,192,37653,1,0,0:0:0:0:
182,192,37742,1,0,0:0:0:0:
109,192,37830,1,0,0:0:0:0:
475,192,38006,1,0,0:0:0:0:
402,192,38006,1,0,0:0:0:0:
329,192,38006,1,0,0:0:0:0:
256,192,38183,1,0,0:0:0:0:
402,192,38271,1,0,0:0:0:0:
36,192,38359,1,0,0:0:0:0:
109,192,38359,1,0,0:0:0:0:
182,192,38359,1,0,0:0:0:0:
329,192,38448,1,0,0:0:0:0:
182,192,38536,1,0,0:0:0:0:
329,192,38624,1,0,0:0:0:0:
182,192,38712,1,0,0:0:0:0:
109,192,38712,1,0,0:0:0:0:
36,192,38712,1,0,0:0:0:0:
329,192,39065,1,0,0:0:0:0:
475,192,39065,1,0,0:0:0:0:
402,192,39065,1,0,0:0:0:0:
182,192,39153,1,0,0:0:0:0:
329,192,39242,1,0,0:0:0:0:
182,192,39330,1,0,0:0:0:0:
329,192,39418,1,0,0:0:0:0:
402,192,39418,1,0,0:0:0:0:
475,192,39418,1,0,0:0:0:0:
256,192,39771,1,0,0:0:0:0:
109,192,39771,1,0,0:0:0:0:
36,192,39771,1,0,0:0:0:0:
329,192,39859,1,0,0:0:0:0:
402,192,39948,1,0,0:0:0:0:
475,192,40124,1,0,0:0:0:0:
109,192,40124,1,0,0:0:0:0:
182,192,40124,1,0,0:0:0:0:
256,192,40212,1,0,0:0:0:0:
329,192,40301,1,0,0:0:0:0:
109,192,40477,1,0,0:0:0:0:
36,192,40477,1,0,0:0:0:0:
402,192,40477,1,0,0:0:0:0:
182,192,40565,1,0,0:0:0:0:
475,192,40742,1,0,0:0:0:0:
256,192,40830,1,0,0:0:0:0:
109,192,40830,1,0,0:0:0:0:
402,192,40830,1,0,0:0:0:0:
329,192,40918,1,0,0:0:0:0:
182,192,41095,1,0,0:0:0:0:
475,192,41183,1,0,0:0:0:0:
109,192,41183,1,0,0:0:0:0:
36,192,41183,1,0,0:0:0:0:
329,192,41271,1,0,0:0:0:0:
256,192,41359,1,0,0:0:0:0:
402,192,41536,1,0,0:0:0:0:
109,192,41536,1,0,0:0:0:0:
182,192,41536,1,0,0:0:0:0:
402,192,41712,1,0,0:0:0:0:
329,192,41889,1,0,0:0:0:0:
109,192,41889,1,0,0:0:0:0:
36,192,41889,1,0,0:0:0:0:
36,192,42065,1,0,0:0:0:0:
109,192,42065,1,0,0:0:0:0:
329,192,42065,1,0,0:0:0:0:
256,192,42242,1,0,0:0:0:0:
475,192,42418,1,0,0:0:0:0:
402,192,42418,1,0,0:0:0:0:
182,192,42418,1,0,0:0:0:0:
475,192,42595,1,0,0:0:0:0:
402,192,42595,1,0,0:0:0:0:
182,192,42595,1,0,0:0:0:0:
329,192,42771,1,0,0:0:0:0:
256,192,42948,1,0,0:0:0:0:
36,192,42948,1,0,0:0:0:0:
109,192,42948,1,0,0:0:0:0:
256,192,43124,1,0,0:0:0:0:
109,192,43124,1,0,0:0:0:0:
36,192,43124,1,0,0:0:0:0:
475,192,43301,1,0,0:0:0:0:
182,192,43477,1,0,0:0:0:0:
329,192,43565,1,0,0:0:0:0:
402,192,43653,1,0,0:0:0:0:
36,192,43653,1,0,0:0:0:0:
109,192,43653,1,0,0:0:0:0:
182,192,43830,1,0,0:0:0:0:
256,192,43918,1,0,0:0:0:0:
475,192,44006,1,0,0:0:0:0:
402,192,44006,1,0,0:0:0:0:
329,192,44006,1,0,0:0:0:0:
109,192,44095,1,0,0:0:0:0:
329,192,44183,1,0,0:0:0:0:
109,192,44271,1,0,0:0:0:0:
475,192,44359,1,0,0:0:0:0:
402,192,44359,1,0,0:0:0:0:
329,192,44359,1,0,0:0:0:0:
109,192,44712,1,0,0:0:0:0:
36,192,44712,1,0,0:0:0:0:
182,192,44712,1,0,0:0:0:0:
402,192,44801,1,0,0:0:0:0:
182,192,44889,1,0,0:0:0:0:
402,192,44977,1,0,0:0:0:0:
36,192,45065,1,0,0:0:0:0:
182,192,45065,1,0,0:0:0:0:
109,192,45065,1,0,0:0:0:0:
475,192,45418,1,0,0:0:0:0:
329,192,45418,1,0,0:0:0:0:
256,192,45418,1,0,0:0:0:0:
256,192,45595,1,0,0:0:0:0:
329,192,45595,1,0,0:0:0:0:
475,192,45595,1,0,0:0:0:0:
36,192,45771,1,0,0:0:0:0:
182,192,45771,1,0,0:0:0:0:
109,192,45771,1,0,0:0:0:0:
402,192,45859,1,0,0:0:0:0:
329,192,45948,1,0,0:0:0:0:
475,192,46124,1,0,0:0:0:0:
256,192,46124,1,0,0:0:0:0:
36,192,46124,1,0,0:0:0:0:
109,192,46212,1,0,0:0:0:0:
329,192,46389,1,0,0:0:0:0:
36,192,46477,1,0,0:0:0:0:
109,192,46477,1,0,0:0:0:0:
402,192,46477,1,0,0:0:0:0:
182,192,46565,1,0,0:0:0:0:
256,192,46653,1,0,0:0:0:0:
475,192,46830,1,0,0:0:0:0:
402,192,46830,1,0,0:0:0:0:
109,192,46830,1,0,0:0:0:0:
256,192,47006,1,0,0:0:0:0:
182,192,47095,1,0,0:0:0:0:
36,192,47183,1,0,0:0:0:0:
109,192,47183,1,0,0:0:0:0:
329,192,47183,1,0,0:0:0:0:
329,192,47359,1,0,0:0:0:0:
109,192,47359,1,0,0:0:0:0:
36,192,47359,1,0,0:0:0:0:
182,192,47624,1,0,0:0:0:0:
475,192,47712,1,0,0:0:0:0:
402,192,47712,1,0,0:0:0:0:
329,192,47712,1,0,0:0:0:0:
182,192,47801,1,0,0:0:0:0:
329,192,47889,1,0,0:0:0:0:
256,192,48065,1,0,0:0:0:0:
109,192,48065,1,0,0:0:0:0:
36,192,48065,1,0,0:0:0:0:
36,192,48242,1,0,0:0:0:0:
109,192,48242,1,0,0:0:0:0:
256,192,48242,1,0,0:0:0:0:
182,192,48418,1,0,0:0:0:0:
329,192,48506,1,0,0:0:0:0:
109,192,48595,1,0,0:0:0:0:
475,192,48595,1,0,0:0:0:0:
402,192,48595,1,0,0:0:0:0:
329,192,48771,1,0,0:0:0:0:
256,192,48859,1,0,0:0:0:0:
182,192,48948,1,0,0:0:0:0:
36,192,48948,1,0,0:0:0:0:
109,192,48948,1,0,0:0:0:0:
256,192,49124,1,0,0:0:0:0:
475,192,49212,1,0,0:0:0:0:
402,192,49212,1,0,0:0:0:0:
329,192,49212,1,0,0:0:0:0:
256,192,49301,1,0,0:0:0:0:
36,192,49477,1,0,0:0:0:0:
109,192,49477,1,0,0:0:0:0:
182,192,49477,1,0,0:0:0:0:
475,192,49653,1,0,0:0:0:0:
402,192,49653,1,0,0:0:0:0:
329,192,49653,1,0,0:0:0:0:
36,192,49742,1,0,0:0:0:0:
329,192,49830,1,0,0:0:0:0:
36,192,49918,1,0,0:0:0:0:
475,192,50006,1,0,0:0:0:0:
402,192,50006,1,0,0:0:0:0:
329,192,50006,1,0,0:0:0:0:
182,192,50359,1,0,0:0:0:0:
36,192,50359,1,0,0:0:0:0:
109,192,50359,1,0,0:0:0:0:
475,192,50448,1,0,0:0:0:0:
182,192,50536,1,0,0:0:0:0:
475,192,50624,1,0,0:0:0:0:
36,192,50712,1,0,0:0:0:0:
109,192,50712,1,0,0:0:0:0:
182,192,50712,1,0,0:0:0:0:
475,192,51065,1,0,0:0:0:0:
402,192,51065,1,0,0:0:0:0:
256,192,51065,1,0,0:0:0:0:
109,192,51153,1,0,0:0:0:0:
402,192,51242,1,0,0:0:0:0:
109,192,51330,1,0,0:0:0:0:
475,192,51418,1,0,0:0:0:0:
402,192,51418,1,0,0:0:0:0:
256,192,51418,1,0,0:0:0:0:
256,192,51771,1,0,0:0:0:0:
36,192,51771,1,0,0:0:0:0:
109,192,51771,1,0,0:0:0:0:
402,192,51859,1,0,0:0:0:0:
109,192,51948,1,0,0:0:0:0:
402,192,52036,1,0,0:0:0:0:
36,192,52124,1,0,0:0:0:0:
109,192,52124,1,0,0:0:0:0:
256,192,52124,1,0,0:0:0:0:
475,192,52477,1,0,0:0:0:0:
329,192,52477,1,0,0:0:0:0:
182,192,52477,1,0,0:0:0:0:
109,192,52565,1,0,0:0:0:0:
329,192,52653,1,0,0:0:0:0:
109,192,52742,1,0,0:0:0:0:
475,192,52830,1,0,0:0:0:0:
329,192,52830,1,0,0:0:0:0:
182,192,52830,1,0,0:0:0:0:
182,192,53183,1,0,0:0:0:0:
36,192,53183,1,0,0:0:0:0:
329,192,53183,1,0,0:0:0:0:
402,192,53271,1,0,0:0:0:0:
182,192,53359,1,0,0:0:0:0:
402,192,53448,1,0,0:0:0:0:
36,192,53536,1,0,0:0:0:0:
329,192,53536,1,0,0:0:0:0:
182,192,53536,1,0,0:0:0:0:
475,192,53889,1,0,0:0:0:0:
402,192,53889,1,0,0:0:0:0:
256,192,53889,1,0,0:0:0:0:
36,192,53977,1,0,0:0:0:0:
329,192,54065,1,0,0:0:0:0:
109,192,54153,1,0,0:0:0:0:
475,192,54242,1,0,0:0:0:0:
402,192,54242,1,0,0:0:0:0:
256,192,54242,1,0,0:0:0:0:
256,192,54595,1,0,0:0:0:0:
109,192,54595,1,0,0:0:0:0:
36,192,54595,1,0,0:0:0:0:
475,192,54683,1,0,0:0:0:0:
182,192,54771,1,0,0:0:0:0:
402,192,54859,1,0,0:0:0:0:
109,192,54948,1,0,0:0:0:0:
36,192,54948,1,0,0:0:0:0:
256,192,54948,1,0,0:0:0:0:
475,192,55301,1,0,0:0:0:0:
329,192,55301,1,0,0:0:0:0:
182,192,55301,1,0,0:0:0:0:
36,192,55389,1,0,0:0:0:0:
256,192,55477,1,0,0:0:0:0:
109,192,55565,1,0,0:0:0:0:
475,192,55653,1,0,0:0:0:0:
329,192,55653,1,0,0:0:0:0:
182,192,55653,1,0,0:0:0:0:
329,192,56006,1,0,0:0:0:0:
36,192,56006,1,0,0:0:0:0:
182,192,56006,1,0,0:0:0:0:
475,192,56095,1,0,0:0:0:0:
256,192,56183,1,0,0:0:0:0:
402,192,56271,1,0,0:0:0:0:
36,192,56359,1,0,0:0:0:0:
182,192,56359,1,0,0:0:0:0:
329,192,56359,1,0,0:0:0:0:
475,192,56712,1,0,0:0:0:0:
402,192,56712,1,0,0:0:0:0:
256,192,56712,1,0,0:0:0:0:
109,192,56889,1,0,0:0:0:0:
36,192,56889,1,0,0:0:0:0:
475,192,57065,1,0,0:0:0:0:
329,192,57065,1,0,0:0:0:0:
256,192,57065,1,0,0:0:0:0:
182,192,57242,1,0,0:0:0:0:
109,192,57242,1,0,0:0:0:0:
402,192,57418,1,0,0:0:0:0:
329,192,57418,1,0,0:0:0:0:
36,192,57418,1,0,0:0:0:0:
256,192,57595,1,0,0:0:0:0:
182,192,57595,1,0,0:0:0:0:
109,192,57771,1,0,0:0:0:0:
475,192,57771,1,0,0:0:0:0:
402,192,57771,1,0,0:0:0:0:
329,192,57948,1,0,0:0:0:0:
256,192,57948,1,0,0:0:0:0:
36,192,58124,1,0,0:0:0:0:
109,192,58124,1,0,0:0:0:0:
182,192,58124,1,0,0:0:0:0:
475,192,58301,1,0,0:0:0:0:
402,192,58389,1,0,0:0:0:0:
36,192,58477,1,0,0:0:0:0:
256,192,58477,1,0,0:0:0:0:
329,192,58477,1,0,0:0:0:0:
182,192,58653,1,0,0:0:0:0:
256,192,58742,1,0,0:0:0:0:
109,192,58830,1,0,0:0:0:0:
475,192,58830,1,0,0:0:0:0:
329,192,58830,1,0,0:0:0:0:
182,192,59006,1,0,0:0:0:0:
109,192,59095,1,0,0:0:0:0:
402,192,59183,1,0,0:0:0:0:
256,192,59183,1,0,0:0:0:0:
36,192,59183,1,0,0:0:0:0:
329,192,59359,1,0,0:0:0:0:
402,192,59448,1,0,0:0:0:0:
109,192,59536,1,0,0:0:0:0:
256,192,59536,1,0,0:0:0:0:
475,192,59536,1,0,0:0:0:0:
329,192,59712,1,0,0:0:0:0:
256,192,59801,1,0,0:0:0:0:
402,192,59889,1,0,0:0:0:0:
36,192,59889,1,0,0:0:0:0:
182,192,59889,1,0,0:0:0:0:
109,192,60065,1,0,0:0:0:0:
182,192,60153,1,0,0:0:0:0:
36,192,60242,1,0,0:0:0:0:
475,192,60242,1,0,0:0:0:0:
256,192,60242,1,0,0:0:0:0:
402,192,60418,1,0,0:0:0:0:
329,192,60506,1,0,0:0:0:0:
36,192,60595,1,0,0:0:0:0:
109,192,60595,1,0,0:0:0:0:
256,192,60595,1,0,0:0:0:0:
475,192,60771,1,0,0:0:0:0:
402,192,60859,1,0,0:0:0:0:
109,192,60948,1,0,0:0:0:0:
182,192,60948,1,0,0:0:0:0:
329,192,61036,1,0,0:0:0:0:
109,192,61124,1,0,0:0:0:0:
182,192,61124,1,0,0:0:0:0:
329,192,61212,1,0,0:0:0:0:
402,192,61653,1,0,0:0:0:0:
329,192,61653,1,0,0:0:0:0:
182,192,61742,1,0,0:0:0:0:
402,192,61830,1,0,0:0:0:0:
329,192,61830,1,0,0:0:0:0:
182,192,61918,1,0,0:0:0:0:
182,192,62359,1,0,0:0:0:0:
109,192,62359,1,0,0:0:0:0:
475,192,62448,1,0,0:0:0:0:
182,192,62536,1,0,0:0:0:0:
256,192,62624,1,0,0:0:0:0:
402,192,62712,1,0,0:0:0:0:
329,192,62712,1,0,0:0:0:0:
36,192,62801,1,0,0:0:0:0:
329,192,62889,1,0,0:0:0:0:
256,192,62977,1,0,0:0:0:0:
182,192,63065,1,0,0:0:0:0:
329,192,63153,1,0,0:0:0:0:
182,192,63242,1,0,0:0:0:0:
329,192,63330,1,0,0:0:0:0:
182,192,63418,1,0,0:0:0:0:
329,192,63506,1,0,0:0:0:0:
182,192,63595,1,0,0:0:0:0:
329,192,63683,1,0,0:0:0:0:
402,192,63771,1,0,0:0:0:0:
475,192,63771,1,0,0:0:0:0:
109,192,63771,1,0,0:0:0:0:
36,192,63771,1,0,0:0:0:0:
475,192,65183,1,0,0:0:0:0:
329,192,65183,1,0,0:0:0:0:
256,192,65271,1,0,0:0:0:0:
182,192,65359,1,0,0:0:0:0:
109,192,65448,1,0,0:0:0:0:
402,192,65536,1,0,0:0:0:0:
36,192,65536,1,0,0:0:0:0:
329,192,65624,1,0,0:0:0:0:
256,192,65712,1,0,0:0:0:0:
182,192,65801,1,0,0:0:0:0:
475,192,65889,1,0,0:0:0:0:
109,192,65889,1,0,0:0:0:0:
402,192,65977,1,0,0:0:0:0:
329,192,66065,1,0,0:0:0:0:
256,192,66153,1,0,0:0:0:0:
36,192,66242,1,0,0:0:0:0:
182,192,66242,1,0,0:0:0:0:
475,192,66330,1,0,0:0:0:0:
402,192,66418,1,0,0:0:0:0:
329,192,66506,1,0,0:0:0:0:
36,192,66595,1,0,0:0:0:0:
109,192,66595,1,0,0:0:0:0:
256,192,66595,1,0,0:0:0:0:
475,192,66771,1,0,0:0:0:0:
329,192,66771,1,0,0:0:0:0:
109,192,66948,1,0,0:0:0:0:
182,192,66948,1,0,0:0:0:0:
475,192,67124,1,0,0:0:0:0:
402,192,67124,1,0,0:0:0:0:
36,192,67301,1,0,0:0:0:0:
256,192,67301,1,0,0:0:0:0:
329,192,67477,1,0,0:0:0:0:
182,192,67653,1,0,0:0:0:0:
109,192,67653,1,0,0:0:0:0:
475,192,67830,1,0,0:0:0:0:
329,192,67830,1,0,0:0:0:0:
36,192,68006,1,0,0:0:0:0:
109,192,68006,1,0,0:0:0:0:
402,192,68183,1,0,0:0:0:0:
256,192,68183,1,0,0:0:0:0:
182,192,68359,1,0,0:0:0:0:
36,192,68359,1,0,0:0:0:0:
329,192,68536,1,0,0:0:0:0:
402,192,68712,1,0,0:0:0:0:
475,192,68712,1,0,0:0:0:0:
36,192,68889,1,0,0:0:0:0:
109,192,68889,1,0,0:0:0:0:
329,192,69065,1,0,0:0:0:0:
182,192,69065,1,0,0:0:0:0:
475,192,69242,1,0,0:0:0:0:
402,192,69242,1,0,0:0:0:0:
256,192,69330,1,0,0:0:0:0:
182,192,69418,1,0,0:0:0:0:
36,192,69418,1,0,0:0:0:0:
329,192,69595,1,0,0:0:0:0:
475,192,69771,1,0,0:0:0:0:
402,192,69771,1,0,0:0:0:0:
36,192,69948,1,0,0:0:0:0:
182,192,69948,1,0,0:0:0:0:
402,192,70124,1,0,0:0:0:0:
256,192,70124,1,0,0:0:0:0:
109,192,70301,1,0,0:0:0:0:
36,192,70301,1,0,0:0:0:0:
475,192,70477,1,0,0:0:0:0:
329,192,70477,1,0,0:0:0:0:
182,192,70653,1,0,0:0:0:0:
475,192,70830,1,0,0:0:0:0:
402,192,70830,1,0,0:0:0:0:
182,192,71006,1,0,0:0:0:0:
329,192,71006,1,0,0:0:0:0:
36,192,71183,1,0,0:0:0:0:
109,192,71183,1,0,0:0:0:0:
329,192,71359,1,0,0:0:0:0:
475,192,71359,1,0,0:0:0:0:
36,192,71536,1,0,0:0:0:0:
182,192,71536,1,0,0:0:0:0:
402,192,71712,1,0,0:0:0:0:
256,192,71712,1,0,0:0:0:0:
36,192,71889,1,0,0:0:0:0:
109,192,71889,1,0,0:0:0:0:
475,192,72065,1,0,0:0:0:0:
329,192,72065,1,0,0:0:0:0:
256,192,72153,1,0,0:0:0:0:
109,192,72242,1,0,0:0:0:0:
182,192,72242,1,0,0:0:0:0:
402,192,72330,1,0,0:0:0:0:
329,192,72418,1,0,0:0:0:0:
36,192,72595,1,0,0:0:0:0:
256,192,72595,1,0,0:0:0:0:
329,192,72683,1,0,0:0:0:0:
402,192,72771,1,0,0:0:0:0:
475,192,72948,1,0,0:0:0:0:
109,192,72948,1,0,0:0:0:0:
182,192,73036,1,0,0:0:0:0:
256,192,73124,1,0,0:0:0:0:
402,192,73301,1,0,0:0:0:0:
329,192,73301,1,0,0:0:0:0:
182,192,73389,1,0,0:0:0:0:
36,192,73477,1,0,0:0:0:0:
329,192,73653,1,0,0:0:0:0:
475,192,73653,1,0,0:0:0:0:
256,192,73742,1,0,0:0:0:0:
182,192,73830,1,0,0:0:0:0:
36,192,74006,1,0,0:0:0:0:
402,192,74006,1,0,0:0:0:0:
256,192,74095,1,0,0:0:0:0:
109,192,74183,1,0,0:0:0:0:
182,192,74359,1,0,0:0:0:0:
329,192,74359,1,0,0:0:0:0:
402,192,74448,1,0,0:0:0:0:
475,192,74536,1,0,0:0:0:0:
256,192,74712,1,0,0:0:0:0:
109,192,74712,1,0,0:0:0:0:
36,192,74889,1,0,0:0:0:0:
182,192,74977,1,0,0:0:0:0:
475,192,75065,1,0,0:0:0:0:
329,192,75065,1,0,0:0:0:0:
256,192,75153,1,0,0:0:0:0:
182,192,75242,1,0,0:0:0:0:
109,192,75330,1,0,0:0:0:0:
36,192,75418,1,0,0:0:0:0:
402,192,75418,1,0,0:0:0:0:
182,192,75595,1,0,0:0:0:0:
256,192,75683,1,0,0:0:0:0:
475,192,75771,1,0,0:0:0:0:
329,192,75771,1,0,0:0:0:0:
36,192,75948,1,0,0:0:0:0:
182,192,75948,1,0,0:0:0:0:
475,192,76124,1,0,0:0:0:0:
329,192,76124,1,0,0:0:0:0:
256,192,76301,1,0,0:0:0:0:
402,192,76477,1,0,0:0:0:0:
109,192,76477,1,0,0:0:0:0:
329,192,76565,1,0,0:0:0:0:
256,192,76653,1,0,0:0:0:0:
182,192,76742,1,0,0:0:0:0:
475,192,76830,1,0,0:0:0:0:
36,192,76830,1,0,0:0:0:0:
402,192,76918,1,0,0:0:0:0:
329,192,77006,1,0,0:0:0:0:
256,192,77095,1,0,0:0:0:0:
36,192,77183,1,0,0:0:0:0:
182,192,77183,1,0,0:0:0:0:
256,192,77271,1,0,0:0:0:0:
329,192,77359,1,0,0:0:0:0:
402,192,77448,1,0,0:0:0:0:
475,192,77536,1,0,0:0:0:0:
109,192,77536,1,0,0:0:0:0:
182,192,77624,1,0,0:0:0:0:
256,192,77712,1,0,0:0:0:0:
329,192,77801,1,0,0:0:0:0:
475,192,77889,1,0,0:0:0:0:
402,192,77889,1,0,0:0:0:0:
36,192,77889,1,0,0:0:0:0:
256,192,78065,1,0,0:0:0:0:
109,192,78065,1,0,0:0:0:0:
475,192,78242,1,0,0:0:0:0:
329,192,78242,1,0,0:0:0:0:
36,192,78418,1,0,0:0:0:0:
182,192,78418,1,0,0:0:0:0:
475,192,78595,1,0,0:0:0:0:
402,192,78595,1,0,0:0:0:0:
256,192,78771,1,0,0:0:0:0:
36,192,78948,1,0,0:0:0:0:
109,192,78948,1,0,0:0:0:0:
329,192,79124,1,0,0:0:0:0:
475,192,79124,1,0,0:0:0:0:
109,192,79301,1,0,0:0:0:0:
256,192,79301,1,0,0:0:0:0:
475,192,79477,1,0,0:0:0:0:
402,192,79477,1,0,0:0:0:0:
329,192,79653,1,0,0:0:0:0:
182,192,79653,1,0,0:0:0:0:
36,192,79830,1,0,0:0:0:0:
256,192,80006,1,0,0:0:0:0:
109,192,80006,1,0,0:0:0:0:
475,192,80183,1,0,0:0:0:0:
329,192,80183,1,0,0:0:0:0:
36,192,80359,1,0,0:0:0:0:
182,192,80359,1,0,0:0:0:0:
475,192,80536,1,0,0:0:0:0:
402,192,80536,1,0,0:0:0:0:
329,192,80624,1,0,0:0:0:0:
256,192,80712,1,0,0:0:0:0:
109,192,80712,1,0,0:0:0:0:
329,192,80889,1,0,0:0:0:0:
182,192,81065,1,0,0:0:0:0:
36,192,81065,1,0,0:0:0:0:
475,192,81242,1,0,0:0:0:0:
402,192,81242,1,0,0:0:0:0:
256,192,81418,1,0,0:0:0:0:
36,192,81418,1,0,0:0:0:0:
475,192,81595,1,0,0:0:0:0:
329,192,81595,1,0,0:0:0:0:
109,192,81771,1,0,0:0:0:0:
182,192,81771,1,0,0:0:0:0:
402,192,81948,1,0,0:0:0:0:
329,192,82124,1,0,0:0:0:0:
182,192,82124,1,0,0:0:0:0:
402,192,82301,1,0,0:0:0:0:
475,192,82301,1,0,0:0:0:0:
256,192,82477,1,0,0:0:0:0:
109,192,82477,1,0,0:0:0:0:
182,192,82653,1,0,0:0:0:0:
36,192,82653,1,0,0:0:0:0:
402,192,82830,1,0,0:0:0:0:
475,192,82830,1,0,0:0:0:0:
109,192,83006,1,0,0:0:0:0:
36,192,83006,1,0,0:0:0:0:
402,192,83183,1,0,0:0:0:0:
329,192,83183,1,0,0:0:0:0:
109,192,83359,1,0,0:0:0:0:
182,192,83359,1,0,0:0:0:0:
256,192,83448,1,0,0:0:0:0:
329,192,83536,1,0,0:0:0:0:
475,192,83536,1,0,0:0:0:0:
36,192,83624,1,0,0:0:0:0:
182,192,83712,1,0,0:0:0:0:
402,192,83889,1,0,0:0:0:0:
256,192,83889,1,0,0:0:0:0:
182,192,83977,1,0,0:0:0:0:
109,192,84065,1,0,0:0:0:0:
329,192,84242,1,0,0:0:0:0:
36,192,84242,1,0,0:0:0:0:
256,192,84330,1,0,0:0:0:0:
182,192,84418,1,0,0:0:0:0:
475,192,84595,1,0,0:0:0:0:
329,192,84595,1,0,0:0:0:0:
182,192,84683,1,0,0:0:0:0:
36,192,84771,1,0,0:0:0:0:
402,192,84948,1,0,0:0:0:0:
109,192,84948,1,0,0:0:0:0:
182,192,85036,1,0,0:0:0:0:
256,192,85124,1,0,0:0:0:0:
329,192,85301,1,0,0:0:0:0:
36,192,85301,1,0,0:0:0:0:
402,192,85389,1,0,0:0:0:0:
475,192,85477,1,0,0:0:0:0:
182,192,85653,1,0,0:0:0:0:
109,192,85653,1,0,0:0:0:0:
329,192,85742,1,0,0:0:0:0:
475,192,85830,1,0,0:0:0:0:
36,192,86006,1,0,0:0:0:0:
109,192,86006,1,0,0:0:0:0:
475,192,86183,1,0,0:0:0:0:
329,192,86271,1,0,0:0:0:0:
36,192,86359,1,0,0:0:0:0:
182,192,86359,1,0,0:0:0:0:
402,192,86536,1,0,0:0:0:0:
256,192,86624,1,0,0:0:0:0:
475,192,86712,1,0,0:0:0:0:
109,192,86712,1,0,0:0:0:0:
329,192,86889,1,0,0:0:0:0:
182,192,86977,1,0,0:0:0:0:
475,192,87065,1,0,0:0:0:0:
36,192,87065,1,0,0:0:0:0:
256,192,87242,1,0,0:0:0:0:
109,192,87330,1,0,0:0:0:0:
475,192,87418,1,0,0:0:0:0:
329,192,87418,1,0,0:0:0:0:
182,192,87595,1,0,0:0:0:0:
36,192,87683,1,0,0:0:0:0:
402,192,87771,1,0,0:0:0:0:
256,192,87771,1,0,0:0:0:0:
182,192,87859,1,0,0:0:0:0:
109,192,87948,1,0,0:0:0:0:
36,192,88036,1,0,0:0:0:0:
475,192,88124,1,0,0:0:0:0:
329,192,88124,1,0,0:0:0:0:
256,192,88212,1,0,0:0:0:0:
182,192,88301,1,0,0:0:0:0:
109,192,88389,1,0,0:0:0:0:
402,192,88477,1,0,0:0:0:0:
36,192,88477,1,0,0:0:0:0:
329,192,88565,1,0,0:0:0:0:
256,192,88653,1,0,0:0:0:0:
182,192,88742,1,0,0:0:0:0:
475,192,88830,1,0,0:0:0:0:
109,192,88830,1,0,0:0:0:0:
402,192,88918,1,0,0:0:0:0:
329,192,89006,1,0,0:0:0:0:
256,192,89095,1,0,0:0:0:0:
475,192,89183,1,0,0:0:0:0:
36,192,89183,1,0,0:0:0:0:
182,192,89183,1,0,0:0:0:0:
402,192,89359,1,0,0:0:0:0:
109,192,89359,1,0,0:0:0:0:
329,192,89536,1,0,0:0:0:0:
182,192,89536,1,0,0:0:0:0:
402,192,89712,1,0,0:0:0:0:
109,192,89712,1,0,0:0:0:0:
36,192,89889,1,0,0:0:0:0:
475,192,89889,1,0,0:0:0:0:
256,192,90065,1,0,0:0:0:0:
402,192,90242,1,0,0:0:0:0:
109,192,90242,1,0,0:0:0:0:
36,192,90418,1,0,0:0:0:0:
329,192,90418,1,0,0:0:0:0:
402,192,90595,1,0,0:0:0:0:
109,192,90595,1,0,0:0:0:0:
475,192,90771,1,0,0:0:0:0:
182,192,90771,1,0,0:0:0:0:
36,192,90948,1,0,0:0:0:0:
256,192,90948,1,0,0:0:0:0:
475,192,91124,1,0,0:0:0:0:
109,192,91301,1,0,0:0:0:0:
402,192,91301,1,0,0:0:0:0:
182,192,91477,1,0,0:0:0:0:
329,192,91477,1,0,0:0:0:0:
109,192,91653,1,0,0:0:0:0:
402,192,91653,1,0,0:0:0:0:
256,192,91830,1,0,0:0:0:0:
36,192,91830,1,0,0:0:0:0:
329,192,91918,1,0,0:0:0:0:
182,192,92006,1,0,0:0:0:0:
475,192,92006,1,0,0:0:0:0:
109,192,92183,1,0,0:0:0:0:
475,192,92359,1,0,0:0:0:0:
256,192,92359,1,0,0:0:0:0:
182,192,92536,1,0,0:0:0:0:
402,192,92536,1,0,0:0:0:0:
36,192,92712,1,0,0:0:0:0:
256,192,92712,1,0,0:0:0:0:
109,192,92889,1,0,0:0:0:0:
329,192,92889,1,0,0:0:0:0:
182,192,93065,1,0,0:0:0:0:
475,192,93065,1,0,0:0:0:0:
256,192,93242,1,0,0:0:0:0:
329,192,93418,1,0,0:0:0:0:
182,192,93418,1,0,0:0:0:0:
402,192,93595,1,0,0:0:0:0:
109,192,93595,1,0,0:0:0:0:
36,192,93771,1,0,0:0:0:0:
256,192,93771,1,0,0:0:0:0:
475,192,93948,1,0,0:0:0:0:
329,192,93948,1,0,0:0:0:0:
36,192,94124,1,0,0:0:0:0:
182,192,94124,1,0,0:0:0:0:
256,192,94301,1,0,0:0:0:0:
402,192,94301,1,0,0:0:0:0:
109,192,94477,1,0,0:0:0:0:
329,192,94477,1,0,0:0:0:0:
475,192,94653,1,0,0:0:0:0:
182,192,94653,1,0,0:0:0:0:
402,192,94742,1,0,0:0:0:0:
329,192,94830,1,0,0:0:0:0:
36,192,94830,1,0,0:0:0:0:
109,192,94918,1,0,0:0:0:0:
182,192,95006,1,0,0:0:0:0:
402,192,95183,1,0,0:0:0:0:
256,192,95183,1,0,0:0:0:0:
182,192,95271,1,0,0:0:0:0:
109,192,95359,1,0,0:0:0:0:
329,192,95536,1,0,0:0:0:0:
36,192,95536,1,0,0:0:0:0:
402,192,95624,1,0,0:0:0:0:
475,192,95712,1,0,0:0:0:0:
256,192,95889,1,0,0:0:0:0:
109,192,95889,1,0,0:0:0:0:
329,192,95977,1,0,0:0:0:0:
402,192,96065,1,0,0:0:0:0:
36,192,96242,1,0,0:0:0:0:
182,192,96242,1,0,0:0:0:0:
329,192,96330,1,0,0:0:0:0:
475,192,96418,1,0,0:0:0:0:
402,192,96595,1,0,0:0:0:0:
109,192,96595,1,0,0:0:0:0:
329,192,96683,1,0,0:0:0:0:
256,192,96771,1,0,0:0:0:0:
36,192,96948,1,0,0:0:0:0:
182,192,96948,1,0,0:0:0:0:
475,192,97036,1,0,0:0:0:0:
329,192,97124,1,0,0:0:0:0:
109,192,97301,1,0,0:0:0:0:
402,192,97301,1,0,0:0:0:0:
329,192,97477,1,0,0:0:0:0:
182,192,97477,1,0,0:0:0:0:
402,192,97565,1,0,0:0:0:0:
475,192,97653,1,0,0:0:0:0:
36,192,97653,1,0,0:0:0:0:
256,192,97830,1,0,0:0:0:0:
402,192,98006,1,0,0:0:0:0:
109,192,98006,1,0,0:0:0:0:
182,192,98183,1,0,0:0:0:0:
329,192,98183,1,0,0:0:0:0:
402,192,98359,1,0,0:0:0:0:
109,192,98359,1,0,0:0:0:0:
256,192,98536,1,0,0:0:0:0:
182,192,98624,1,0,0:0:0:0:
329,192,98712,1,0,0:0:0:0:
36,192,98712,1,0,0:0:0:0:
256,192,98889,1,0,0:0:0:0:
109,192,98889,1,0,0:0:0:0:
402,192,99065,1,0,0:0:0:0:
36,192,99065,1,0,0:0:0:0:
256,192,99242,1,0,0:0:0:0:
329,192,99330,1,0,0:0:0:0:
475,192,99418,1,0,0:0:0:0:
182,192,99418,1,0,0:0:0:0:
402,192,99595,1,0,0:0:0:0:
256,192,99595,1,0,0:0:0:0:
475,192,99771,1,0,0:0:0:0:
109,192,99771,1,0,0:0:0:0:
182,192,99948,1,0,0:0:0:0:
329,192,100036,1,0,0:0:0:0:
402,192,100124,1,0,0:0:0:0:
36,192,100124,1,0,0:0:0:0:
109,192,100301,1,0,0:0:0:0:
182,192,100389,1,0,0:0:0:0:
475,192,100477,1,0,0:0:0:0:
402,192,100477,1,0,0:0:0:0:
256,192,100477,1,0,0:0:0:0:
36,192,100653,1,0,0:0:0:0:
109,192,100653,1,0,0:0:0:0:
329,192,100830,1,0,0:0:0:0:
256,192,100830,1,0,0:0:0:0:
36,192,101006,1,0,0:0:0:0:
109,192,101006,1,0,0:0:0:0:
402,192,101183,1,0,0:0:0:0:
329,192,101183,1,0,0:0:0:0:
109,192,101359,1,0,0:0:0:0:
182,192,101359,1,0,0:0:0:0:
402,192,101536,1,0,0:0:0:0:
329,192,101536,1,0,0:0:0:0:
256,192,101712,1,0,0:0:0:0:
182,192,101712,1,0,0:0:0:0:
475,192,101889,1,0,0:0:0:0:
402,192,101889,1,0,0:0:0:0:
182,192,102065,1,0,0:0:0:0:
256,192,102065,1,0,0:0:0:0:
402,192,102242,1,0,0:0:0:0:
329,192,102242,1,0,0:0:0:0:
109,192,102418,1,0,0:0:0:0:
182,192,102418,1,0,0:0:0:0:
402,192,102595,1,0,0:0:0:0:
329,192,102595,1,0,0:0:0:0:
36,192,102771,1,0,0:0:0:0:
109,192,102771,1,0,0:0:0:0:
329,192,102948,1,0,0:0:0:0:
256,192,102948,1,0,0:0:0:0:
36,192,103124,1,0,0:0:0:0:
109,192,103124,1,0,0:0:0:0:
256,192,103212,1,0,0:0:0:0:
475,192,103301,1,0,0:0:0:0:
402,192,103301,1,0,0:0:0:0:
182,192,103477,1,0,0:0:0:0:
256,192,103477,1,0,0:0:0:0:
475,192,103653,1,0,0:0:0:0:
402,192,103653,1,0,0:0:0:0:
182,192,103830,1,0,0:0:0:0:
109,192,103830,1,0,0:0:0:0:
402,192,104006,1,0,0:0:0:0:
329,192,104006,1,0,0:0:0:0:
109,192,104183,1,0,0:0:0:0:
182,192,104183,1,0,0:0:0:0:
329,192,104359,1,0,0:0:0:0:
256,192,104359,1,0,0:0:0:0:
36,192,104536,1,0,0:0:0:0:
109,192,104536,1,0,0:0:0:0:
329,192,104712,1,0,0:0:0:0:
256,192,104712,1,0,0:0:0:0:
475,192,104889,1,0,0:0:0:0:
402,192,104889,1,0,0:0:0:0:
256,192,105065,1,0,0:0:0:0:
182,192,105065,1,0,0:0:0:0:
402,192,105242,1,0,0:0:0:0:
329,192,105242,1,0,0:0:0:0:
182,192,105418,1,0,0:0:0:0:
109,192,105418,1,0,0:0:0:0:
329,192,105595,1,0,0:0:0:0:
256,192,105595,1,0,0:0:0:0:
36,192,105771,1,0,0:0:0:0:
109,192,105771,1,0,0:0:0:0:
256,192,105948,1,0,0:0:0:0:
182,192,105948,1,0,0:0:0:0:
329,192,106036,1,0,0:0:0:0:
36,192,106124,1,0,0:0:0:0:
402,192,106124,1,0,0:0:0:0:
109,192,106212,1,0,0:0:0:0:
182,192,106301,1,0,0:0:0:0:
475,192,106477,1,0,0:0:0:0:
256,192,106477,1,0,0:0:0:0:
402,192,106565,1,0,0:0:0:0:
329,192,106653,1,0,0:0:0:0:
36,192,106830,1,0,0:0:0:0:
182,192,106830,1,0,0:0:0:0:
256,192,106918,1,0,0:0:0:0:
329,192,107006,1,0,0:0:0:0:
402,192,107183,1,0,0:0:0:0:
109,192,107183,1,0,0:0:0:0:
182,192,107271,1,0,0:0:0:0:
256,192,107359,1,0,0:0:0:0:
329,192,107448,1,0,0:0:0:0:
36,192,107536,1,0,0:0:0:0:
182,192,107536,1,0,0:0:0:0:
475,192,107536,1,0,0:0:0:0:
36,192,113183,5,0,0:0:0:0:
182,192,113271,1,0,0:0:0:0:
329,192,113359,1,0,0:0:0:0:
475,192,113448,1,0,0:0:0:0:
36,192,113536,1,0,0:0:0:0:
182,192,113624,1,0,0:0:0:0:
475,192,113712,1,0,0:0:0:0:
329,192,113801,1,0,0:0:0:0:
182,192,113889,1,0,0:0:0:0:
36,192,113977,1,0,0:0:0:0:
475,192,114065,1,0,0:0:0:0:
329,192,114153,1,0,0:0:0:0:
36,192,114242,1,0,0:0:0:0:
182,192,114330,1,0,0:0:0:0:
329,192,114418,1,0,0:0:0:0:
475,192,114506,1,0,0:0:0:0:
256,192,114595,1,0,0:0:0:0:
109,192,114595,1,0,0:0:0:0:
329,192,114683,1,0,0:0:0:0:
402,192,114771,1,0,0:0:0:0:
475,192,114859,1,0,0:0:0:0:
36,192,114948,1,0,0:0:0:0:
182,192,114948,1,0,0:0:0:0:
256,192,115036,1,0,0:0:0:0:
329,192,115124,1,0,0:0:0:0:
402,192,115212,1,0,0:0:0:0:
475,192,115301,1,0,0:0:0:0:
109,192,115301,1,0,0:0:0:0:
182,192,115389,1,0,0:0:0:0:
256,192,115477,1,0,0:0:0:0:
329,192,115565,1,0,0:0:0:0:
402,192,115653,1,0,0:0:0:0:
36,192,115653,1,0,0:0:0:0:
109,192,115742,1,0,0:0:0:0:
182,192,115830,1,0,0:0:0:0:
256,192,115918,1,0,0:0:0:0:
475,192,116006,1,0,0:0:0:0:
329,192,116006,1,0,0:0:0:0:
36,192,116006,1,0,0:0:0:0:
109,192,116095,1,0,0:0:0:0:
182,192,116183,1,0,0:0:0:0:
36,192,116359,1,0,0:0:0:0:
475,192,116359,1,0,0:0:0:0:
402,192,116448,1,0,0:0:0:0:
329,192,116536,1,0,0:0:0:0:
36,192,116712,1,0,0:0:0:0:
182,192,116712,1,0,0:0:0:0:
256,192,116712,128,0,119712:0:0:0:0:
329,192,116801,1,0,0:0:0:0:
402,192,116889,1,0,0:0:0:0:
475,192,117065,1,0,0:0:0:0:
109,192,117065,1,0,0:0:0:0:
182,192,117153,1,0,0:0:0:0:
329,192,117242,1,0,0:0:0:0:
402,192,117418,1,0,0:0:0:0:
36,192,117418,1,0,0:0:0:0:
109,192,117506,1,0,0:0:0:0:
182,192,117595,1,0,0:0:0:0:
475,192,117771,1,0,0:0:0:0:
329,192,117771,1,0,0:0:0:0:
182,192,117859,1,0,0:0:0:0:
109,192,117948,1,0,0:0:0:0:
402,192,118124,1,0,0:0:0:0:
36,192,118124,1,0,0:0:0:0:
329,192,118212,1,0,0:0:0:0:
182,192,118301,1,0,0:0:0:0:
475,192,118477,1,0,0:0:0:0:
109,192,118477,1,0,0:0:0:0:
402,192,118565,1,0,0:0:0:0:
329,192,118653,1,0,0:0:0:0:
36,192,118830,1,0,0:0:0:0:
182,192,118830,1,0,0:0:0:0:
329,192,118918,1,0,0:0:0:0:
402,192,119006,1,0,0:0:0:0:
475,192,119183,1,0,0:0:0:0:
109,192,119183,1,0,0:0:0:0:
182,192,119271,1,0,0:0:0:0:
329,192,119359,1,0,0:0:0:0:
402,192,119536,1,0,0:0:0:0:
36,192,119536,1,0,0:0:0:0:
109,192,119624,1,0,0:0:0:0:
182,192,119712,1,0,0:0:0:0:
475,192,119889,1,0,0:0:0:0:
329,192,119889,1,0,0:0:0:0:
256,192,119977,1,0,0:0:0:0:
182,192,120065,1,0,0:0:0:0:
402,192,120242,1,0,0:0:0:0:
109,192,120242,1,0,0:0:0:0:
329,192,120330,1,0,0:0:0:0:
256,192,120418,1,0,0:0:0:0:
36,192,120595,1,0,0:0:0:0:
182,192,120595,1,0,0:0:0:0:
475,192,120683,1,0,0:0:0:0:
329,192,120771,1,0,0:0:0:0:
256,192,120948,1,0,0:0:0:0:
109,192,120948,1,0,0:0:0:0:
329,192,121036,1,0,0:0:0:0:
402,192,121124,1,0,0:0:0:0:
475,192,121301,1,0,0:0:0:0:
182,192,121301,1,0,0:0:0:0:
256,192,121389,1,0,0:0:0:0:
329,192,121477,1,0,0:0:0:0:
402,192,121653,1,0,0:0:0:0:
109,192,121653,1,0,0:0:0:0:
256,192,121830,1,0,0:0:0:0:
329,192,122006,1,0,0:0:0:0:
36,192,122006,1,0,0:0:0:0:
182,192,122183,1,0,0:0:0:0:
475,192,122359,1,0,0:0:0:0:
256,192,122359,1,0,0:0:0:0:
109,192,122536,1,0,0:0:0:0:
402,192,122712,1,0,0:0:0:0:
182,192,122712,1,0,0:0:0:0:
36,192,122889,1,0,0:0:0:0:
329,192,123065,1,0,0:0:0:0:
109,192,123065,1,0,0:0:0:0:
475,192,123242,1,0,0:0:0:0:
256,192,123418,1,0,0:0:0:0:
36,192,123418,1,0,0:0:0:0:
402,192,123595,1,0,0:0:0:0:
475,192,123771,1,0,0:0:0:0:
182,192,123771,1,0,0:0:0:0:
329,192,123948,1,0,0:0:0:0:
402,192,124124,1,0,0:0:0:0:
109,192,124124,1,0,0:0:0:0:
256,192,124301,1,0,0:0:0:0:
36,192,124477,1,0,0:0:0:0:
329,192,124653,1,0,0:0:0:0:
109,192,124830,1,0,0:0:0:0:
402,192,125006,1,0,0:0:0:0:
182,192,125183,1,0,0:0:0:0:
475,192,125359,1,0,0:0:0:0:
256,192,125536,1,0,0:0:0:0:
36,192,125712,1,0,0:0:0:0:
475,192,125889,1,0,0:0:0:0:
329,192,125889,1,0,0:0:0:0:
182,192,126242,1,0,0:0:0:0:
329,192,126595,1,0,0:0:0:0:
182,192,126948,1,0,0:0:0:0:
256,192,127301,1,0,0:0:0:0:
