osu file format v14

[General]
AudioFilename: MiddleIsland - Imperial.mp3
AudioLeadIn: 0
PreviewTime: 43552
Countdown: 1
SampleSet: None
StackLeniency: 0.7
Mode: 1
LetterboxInBreaks: 1
WidescreenStoryboard: 0

[Editor]
DistanceSpacing: 0.8
BeatDivisor: 4
GridSize: 8
TimelineZoom: 1

[Metadata]
Title:Imperial
TitleUnicode:Imperial
Artist:Nakajima Misaki
ArtistUnicode:Nakajima Misaki
Creator:-[ ix Ishida xi ]-
Version:-[ ix IshidaTaikonari xi ]-
Source:
Tags:
BeatmapID:1713204
BeatmapSetID:816983

[Difficulty]
HPDrainRate:5
CircleSize:5
OverallDifficulty:5
ApproachRate:5
SliderMultiplier:1.4
SliderTickRate:1

[Events]
//Background and Video events
0,0,"735568.jpg",0,0
//Break Periods
//Storyboard Layer 0 (Background)
//Storyboard Layer 1 (Fail)
//Storyboard Layer 2 (Pass)
//Storyboard Layer 3 (Foreground)
//Storyboard Sound Samples

[TimingPoints]
2695,352.941176470588,4,1,0,40,1,0
13989,-100,4,1,0,60,0,0
25636,-133.333333333333,4,1,0,20,0,0
26165,-133.333333333333,4,1,0,25,0,0
26518,-133.333333333333,4,1,0,35,0,0
26694,-117.647058823529,4,1,0,35,0,0
28106,-105.263157894737,4,1,0,35,0,0
29518,-95.2380952380952,4,1,0,35,0,0
30224,-83.3333333333333,4,1,0,55,0,1
30268,-83.3333333333333,4,1,0,55,0,0
30459,-83.3333333333333,4,1,0,55,0,1
30518,-83.3333333333333,4,1,0,55,0,0
30694,-83.3333333333333,4,1,0,55,0,1
30753,-83.3333333333333,4,1,0,55,0,0
30930,-83.3333333333333,4,1,0,55,0,1
30989,-133.333333333333,4,1,0,35,0,0
36577,-100,4,1,0,45,0,0
42753,-83.3333333333333,4,1,0,30,0,0
43636,-83.3333333333333,4,1,0,45,0,1
65474,-83.3333333333333,4,1,0,45,0,0
65518,-83.3333333333333,4,1,0,45,0,1
65562,-83.3333333333333,4,1,0,45,0,0
65871,-83.3333333333333,4,1,0,45,0,1
65915,-83.3333333333333,4,1,0,45,0,0
66224,-83.3333333333333,4,1,0,45,0,1
66268,-100,4,1,0,45,0,0
76459,-100,4,1,0,55,0,1
76503,-100,4,1,0,55,0,0
88812,-83.3333333333333,4,1,0,55,0,1
100106,-71.4285714285714,4,1,0,55,0,0
101518,-71.4285714285714,4,1,0,55,0,1
111356,-62.5,4,1,0,55,0,0
111400,-62.5,4,1,0,55,0,1
111444,-62.5,4,1,0,25,0,0
117047,-100,4,1,0,40,0,0
124106,-83.3333333333333,4,1,0,55,0,0
126930,-83.3333333333333,4,1,0,55,0,1
146694,-71.4285714285714,4,1,0,55,0,1
174930,-83.3333333333333,4,1,0,55,0,0

[HitObjects]
368,160,2518,5,0,0:0:0:0:
256,192,2606,1,0,0:0:0:0:
280,184,2695,1,2,0:0:0:0:
328,208,2959,1,2,0:0:0:0:
352,224,3047,1,2,0:0:0:0:
400,200,3224,1,0,0:0:0:0:
400,200,3489,1,0,0:0:0:0:
440,160,3577,1,2,0:0:0:0:
496,144,3930,1,2,0:0:0:0:
472,160,4019,1,0,0:0:0:0:
472,160,4107,1,2,0:0:0:0:
416,176,4283,1,0,0:0:0:0:
392,192,4371,1,0,0:0:0:0:
472,160,4459,1,2,0:0:0:0:
440,160,4636,1,0,0:0:0:0:
440,160,4724,1,0,0:0:0:0:
496,144,4900,1,2,0:0:0:0:
472,160,4989,1,0,0:0:0:0:
440,160,5077,1,0,0:0:0:0:
448,184,5165,1,2,0:0:0:0:
392,192,5342,1,2,0:0:0:0:
392,192,5430,1,2,0:0:0:0:
448,184,5518,1,0,0:0:0:0:
408,224,5694,1,2,0:0:0:0:
448,184,5783,1,0,0:0:0:0:
424,200,5871,1,0,0:0:0:0:
376,224,6047,1,0,0:0:0:0:
472,160,6224,1,2,0:0:0:0:
464,136,6312,1,2,0:0:0:0:
472,160,6400,1,0,0:0:0:0:
496,112,6577,1,2,0:0:0:0:
448,184,7106,1,2,0:0:0:0:
448,184,7459,1,2,0:0:0:0:
392,192,7636,1,0,0:0:0:0:
392,192,7724,1,0,0:0:0:0:
384,216,7812,1,0,0:0:0:0:
384,216,7900,1,0,0:0:0:0:
392,192,7989,1,0,0:0:0:0:
432,192,8077,1,2,0:0:0:0:
416,200,8165,1,0,0:0:0:0:
392,200,8253,1,0,0:0:0:0:
416,184,8342,1,2,0:0:0:0:
448,184,8518,1,2,0:0:0:0:
416,184,8606,1,2,0:0:0:0:
448,184,8694,1,2,0:0:0:0:
472,136,8871,1,0,0:0:0:0:
424,168,9047,1,0,0:0:0:0:
432,192,9136,1,0,0:0:0:0:
416,200,9224,1,0,0:0:0:0:
416,200,9400,1,0,0:0:0:0:
464,176,9577,1,2,0:0:0:0:
464,176,9665,1,0,0:0:0:0:
464,176,9753,1,0,0:0:0:0:
416,184,9930,1,0,0:0:0:0:
408,168,9989,1,0,0:0:0:0:
392,176,10047,1,0,0:0:0:0:
448,184,10106,1,2,0:0:0:0:
464,176,10459,1,2,0:0:0:0:
392,264,10812,1,0,0:0:0:0:
464,176,10989,1,0,0:0:0:0:
464,200,11077,1,0,0:0:0:0:
448,184,11165,1,2,0:0:0:0:
408,168,11430,1,0,0:0:0:0:
384,280,11518,1,6,0:0:0:0:
400,224,11694,1,0,0:0:0:0:
376,208,11783,1,0,0:0:0:0:
400,208,11871,1,6,0:0:0:0:
400,208,12106,1,6,0:0:0:0:
376,208,12342,1,6,0:0:0:0:
448,200,12577,1,4,0:0:0:0:
464,144,12753,1,2,0:0:0:0:
448,168,12842,1,2,0:0:0:0:
464,144,12930,1,0,0:0:0:0:
456,168,13018,1,0,0:0:0:0:
480,160,13106,1,2,0:0:0:0:
480,160,13194,1,0,0:0:0:0:
448,168,13283,1,2,0:0:0:0:
376,208,13459,1,2,0:0:0:0:
376,208,13547,1,2,0:0:0:0:
448,168,13636,1,0,0:0:0:0:
464,144,13694,1,2,0:0:0:0:
448,152,13753,1,2,0:0:0:0:
448,168,13812,1,0,0:0:0:0:
472,224,13989,1,4,0:0:0:0:
424,200,14165,1,2,0:0:0:0:
408,216,14253,1,2,0:0:0:0:
464,144,14342,1,0,0:0:0:0:
424,200,14430,1,0,0:0:0:0:
480,160,14518,1,2,0:0:0:0:
448,168,14606,1,0,0:0:0:0:
448,168,14694,1,0,0:0:0:0:
464,224,14871,1,2,0:0:0:0:
464,144,14959,1,0,0:0:0:0:
424,200,15047,1,0,0:0:0:0:
424,200,15136,1,0,0:0:0:0:
448,200,15224,1,2,0:0:0:0:
456,224,15312,1,2,0:0:0:0:
448,168,15400,1,0,0:0:0:0:
408,216,15489,1,0,0:0:0:0:
480,160,15577,1,2,0:0:0:0:
480,160,15665,1,0,0:0:0:0:
480,160,15753,1,2,0:0:0:0:
448,168,15842,1,2,0:0:0:0:
480,160,15930,1,0,0:0:0:0:
424,200,16106,1,0,0:0:0:0:
424,200,16283,1,0,0:0:0:0:
424,200,16371,1,0,0:0:0:0:
336,384,16459,1,2,0:0:0:0:
368,312,16694,1,2,0:0:0:0:
480,160,16812,1,0,0:0:0:0:
464,168,16856,1,2,0:0:0:0:
448,168,16989,1,0,0:0:0:0:
424,200,17077,1,0,0:0:0:0:
408,224,17165,1,0,0:0:0:0:
448,168,17342,1,2,0:0:0:0:
392,176,17518,1,0,0:0:0:0:
384,200,17606,1,0,0:0:0:0:
384,200,17694,1,0,0:0:0:0:
376,224,17783,1,0,0:0:0:0:
480,160,17871,1,0,0:0:0:0:
480,160,18047,1,2,0:0:0:0:
480,160,18224,1,0,0:0:0:0:
464,168,18312,1,2,0:0:0:0:
424,200,18400,1,2,0:0:0:0:
472,176,18577,1,0,0:0:0:0:
424,200,18665,1,0,0:0:0:0:
456,168,18753,1,2,0:0:0:0:
416,208,18930,1,0,0:0:0:0:
392,224,19018,1,0,0:0:0:0:
472,176,19106,1,2,0:0:0:0:
448,176,19194,1,0,0:0:0:0:
384,200,19283,1,0,0:0:0:0:
360,208,19371,1,0,0:0:0:0:
464,168,19459,1,2,0:0:0:0:
440,176,19547,1,2,0:0:0:0:
480,160,19636,1,0,0:0:0:0:
480,160,19812,1,2,0:0:0:0:
480,160,19900,1,0,0:0:0:0:
424,200,19989,1,0,0:0:0:0:
472,176,20165,1,2,0:0:0:0:
456,168,20342,1,0,0:0:0:0:
472,176,20518,1,2,0:0:0:0:
464,168,20606,1,0,0:0:0:0:
440,176,20694,1,0,0:0:0:0:
416,184,20783,1,0,0:0:0:0:
464,168,20871,1,2,0:0:0:0:
464,168,20959,1,2,0:0:0:0:
464,168,21047,1,0,0:0:0:0:
408,152,21224,1,0,0:0:0:0:
416,184,21312,1,0,0:0:0:0:
472,176,21400,1,2,0:0:0:0:
440,176,21577,1,2,0:0:0:0:
464,168,21665,1,0,0:0:0:0:
440,184,21753,1,0,0:0:0:0:
392,208,21930,1,0,0:0:0:0:
432,168,22106,1,0,0:0:0:0:
440,176,22283,1,2,0:0:0:0:
464,168,22459,1,0,0:0:0:0:
440,184,22636,1,0,0:0:0:0:
400,224,22724,1,0,0:0:0:0:
440,176,22812,1,2,0:0:0:0:
392,208,22989,1,2,0:0:0:0:
416,208,23077,1,0,0:0:0:0:
464,168,23165,1,2,0:0:0:0:
440,184,23253,1,2,0:0:0:0:
464,176,23342,1,0,0:0:0:0:
464,168,23430,1,0,0:0:0:0:
488,136,23518,1,2,0:0:0:0:
432,168,23606,1,2,0:0:0:0:
416,208,23694,1,2,0:0:0:0:
400,232,23783,1,2,0:0:0:0:
464,168,23871,1,0,0:0:0:0:
440,184,23959,1,0,0:0:0:0:
464,184,24047,1,2,0:0:0:0:
480,160,24136,1,0,0:0:0:0:
440,184,24224,1,0,0:0:0:0:
440,176,24312,1,0,0:0:0:0:
480,160,24400,1,2,0:0:0:0:
488,136,24489,1,0,0:0:0:0:
440,184,24577,1,0,0:0:0:0:
424,192,24636,1,0,0:0:0:0:
408,200,24694,1,0,0:0:0:0:
440,184,24753,1,2,0:0:0:0:
464,168,24842,1,0,0:0:0:0:
440,176,24930,1,0,0:0:0:0:
424,184,24989,1,0,0:0:0:0:
408,200,25047,1,0,0:0:0:0:
440,184,25106,1,2,0:0:0:0:
440,176,25194,1,0,0:0:0:0:
440,208,25283,1,4,0:0:0:0:
360,232,25636,1,0,0:0:0:0:
360,232,25724,1,0,0:0:0:0:
376,224,25812,1,2,0:0:0:0:
400,216,25900,1,0,0:0:0:0:
480,160,25989,1,2,0:0:0:0:
440,208,26077,1,0,0:0:0:0:
400,216,26165,1,0,0:0:0:0:
392,232,26253,1,0,0:0:0:0:
384,248,26342,1,0,0:0:0:0:
464,168,26430,1,2,0:0:0:0:
480,160,26518,1,0,0:0:0:0:
440,184,26606,1,0,0:0:0:0:
408,200,26694,1,0,0:0:0:0:
440,176,26783,1,0,0:0:0:0:
480,160,26871,1,2,0:0:0:0:
440,184,26959,1,0,0:0:0:0:
440,184,27047,1,0,0:0:0:0:
408,200,27136,1,0,0:0:0:0:
496,144,27224,1,2,0:0:0:0:
496,144,27312,1,0,0:0:0:0:
464,168,27400,1,2,0:0:0:0:
400,216,27489,1,2,0:0:0:0:
384,224,27577,1,2,0:0:0:0:
464,168,27665,1,0,0:0:0:0:
448,184,27753,1,2,0:0:0:0:
384,248,27842,1,2,0:0:0:0:
376,272,27930,1,2,0:0:0:0:
464,168,28018,1,0,0:0:0:0:
448,152,28106,1,2,0:0:0:0:
480,160,28194,1,2,0:0:0:0:
408,200,28283,1,2,0:0:0:0:
384,224,28371,1,2,0:0:0:0:
496,144,28459,1,0,0:0:0:0:
400,216,28547,1,0,0:0:0:0:
440,184,28636,1,2,0:0:0:0:
384,248,28724,1,2,0:0:0:0:
376,272,28812,1,2,0:0:0:0:
408,200,28900,1,2,0:0:0:0:
480,160,28989,1,0,0:0:0:0:
464,168,29077,1,2,0:0:0:0:
464,168,29165,1,0,0:0:0:0:
440,184,29253,1,0,0:0:0:0:
448,184,29342,1,2,0:0:0:0:
432,200,29430,1,0,0:0:0:0:
440,184,29518,1,4,0:0:0:0:
408,168,29606,1,0,0:0:0:0:
464,168,29694,1,2,0:0:0:0:
464,168,29783,1,0,0:0:0:0:
480,160,29871,1,2,0:0:0:0:
480,160,29959,1,0,0:0:0:0:
496,144,30047,1,2,0:0:0:0:
480,160,30136,1,0,0:0:0:0:
472,176,30224,1,4,0:0:0:0:
448,264,30459,1,4,0:0:0:0:
368,224,30694,1,6,0:0:0:0:
440,184,30930,1,6,0:0:0:0:
376,184,31194,1,0,0:0:0:0:
424,192,31283,1,0,0:0:0:0:
440,184,31459,1,2,0:0:0:0:
424,192,31547,1,2,0:0:0:0:
448,200,31636,1,2,0:0:0:0:
472,176,31724,1,0,0:0:0:0:
456,184,31812,1,0,0:0:0:0:
448,168,31900,1,2,0:0:0:0:
440,184,31989,1,0,0:0:0:0:
448,200,32077,1,2,0:0:0:0:
432,216,32165,1,2,0:0:0:0:
448,200,32253,1,0,0:0:0:0:
456,176,32342,1,2,0:0:0:0:
464,160,32430,1,2,0:0:0:0:
448,200,32606,1,2,0:0:0:0:
440,216,32694,1,2,0:0:0:0:
464,160,32871,1,0,0:0:0:0:
448,176,32959,1,0,0:0:0:0:
416,208,33136,1,0,0:0:0:0:
472,176,33224,1,2,0:0:0:0:
448,184,33312,1,2,0:0:0:0:
432,176,33400,1,2,0:0:0:0:
416,184,33489,1,2,0:0:0:0:
392,184,33577,1,0,0:0:0:0:
408,176,33665,1,2,0:0:0:0:
464,160,33753,1,0,0:0:0:0:
416,208,33930,1,0,0:0:0:0:
416,208,34018,1,0,0:0:0:0:
448,200,34106,1,2,0:0:0:0:
440,216,34194,1,2,0:0:0:0:
456,200,34283,1,0,0:0:0:0:
472,176,34371,1,2,0:0:0:0:
416,184,34547,1,0,0:0:0:0:
416,208,34636,1,0,0:0:0:0:
408,224,34724,1,0,0:0:0:0:
432,176,34812,1,2,0:0:0:0:
416,192,34900,1,2,0:0:0:0:
400,208,34989,1,2,0:0:0:0:
464,160,35077,1,0,0:0:0:0:
416,208,35165,1,2,0:0:0:0:
464,160,35342,1,0,0:0:0:0:
432,176,35518,1,0,0:0:0:0:
416,208,35606,1,0,0:0:0:0:
416,208,35694,1,0,0:0:0:0:
432,192,35783,1,0,0:0:0:0:
464,160,35871,1,2,0:0:0:0:
456,168,35930,1,2,0:0:0:0:
448,176,35989,1,2,0:0:0:0:
464,160,36047,1,0,0:0:0:0:
448,168,36136,1,0,0:0:0:0:
416,192,36224,1,0,0:0:0:0:
432,184,36312,1,2,0:0:0:0:
432,208,36400,1,4,0:0:0:0:
424,176,36577,1,6,0:0:0:0:
448,176,36665,1,2,0:0:0:0:
488,136,36842,1,0,0:0:0:0:
416,208,36930,1,0,0:0:0:0:
416,232,37018,1,0,0:0:0:0:
464,160,37106,1,2,0:0:0:0:
456,168,37194,1,2,0:0:0:0:
432,192,37283,1,2,0:0:0:0:
456,168,37371,1,0,0:0:0:0:
432,184,37459,1,0,0:0:0:0:
448,176,37547,1,2,0:0:0:0:
416,192,37636,1,0,0:0:0:0:
400,216,37724,1,0,0:0:0:0:
424,200,37812,1,2,0:0:0:0:
464,160,37900,1,0,0:0:0:0:
432,208,37989,1,6,0:0:0:0:
448,176,38077,1,2,0:0:0:0:
400,216,38165,1,2,0:0:0:0:
448,176,38253,1,0,0:0:0:0:
488,136,38342,1,2,0:0:0:0:
432,192,38430,1,2,0:0:0:0:
464,160,38518,1,0,0:0:0:0:
432,192,38606,1,0,0:0:0:0:
456,184,38694,1,2,0:0:0:0:
464,160,38783,1,0,0:0:0:0:
488,136,38871,1,2,0:0:0:0:
456,168,38959,1,2,0:0:0:0:
480,160,39047,1,0,0:0:0:0:
488,136,39136,1,2,0:0:0:0:
464,160,39224,1,2,0:0:0:0:
464,160,39312,1,0,0:0:0:0:
448,200,39400,1,4,0:0:0:0:
432,176,39489,1,0,0:0:0:0:
456,176,39577,1,2,0:0:0:0:
480,176,39665,1,0,0:0:0:0:
480,160,39753,1,2,0:0:0:0:
432,192,39842,1,2,0:0:0:0:
480,176,39930,1,0,0:0:0:0:
464,160,40018,1,2,0:0:0:0:
440,168,40106,1,6,0:0:0:0:
464,160,40194,1,0,0:0:0:0:
456,184,40283,1,0,0:0:0:0:
456,168,40371,1,2,0:0:0:0:
440,192,40459,1,2,0:0:0:0:
424,216,40547,1,2,0:0:0:0:
480,176,40636,1,0,0:0:0:0:
464,160,40724,1,2,0:0:0:0:
432,176,40812,1,4,0:0:0:0:
424,200,40900,1,0,0:0:0:0:
456,200,40989,1,2,0:0:0:0:
456,176,41077,1,0,0:0:0:0:
432,192,41165,1,0,0:0:0:0:
408,208,41253,1,0,0:0:0:0:
440,168,41342,1,2,0:0:0:0:
408,208,41430,1,0,0:0:0:0:
432,224,41518,1,4,0:0:0:0:
440,192,41606,1,2,0:0:0:0:
440,192,41694,1,2,0:0:0:0:
464,160,41783,1,0,0:0:0:0:
440,192,41871,1,0,0:0:0:0:
424,200,41959,1,0,0:0:0:0:
464,160,42047,1,2,0:0:0:0:
432,176,42136,1,2,0:0:0:0:
408,184,42224,1,6,0:0:0:0:
480,184,42753,1,2,0:0:0:0:
440,192,42842,1,0,0:0:0:0:
424,168,42930,1,2,0:0:0:0:
408,160,42989,1,2,0:0:0:0:
392,176,43047,1,2,0:0:0:0:
408,184,43106,1,0,0:0:0:0:
400,208,43194,1,0,0:0:0:0:
408,160,43283,1,0,0:0:0:0:
408,160,43342,1,0,0:0:0:0:
424,160,43400,1,2,0:0:0:0:
440,160,43459,1,0,0:0:0:0:
408,184,43547,1,2,0:0:0:0:
424,208,43636,1,6,0:0:0:0:
408,184,43724,1,2,0:0:0:0:
424,208,43871,1,0,0:0:0:0:
384,192,44165,1,2,0:0:0:0:
424,208,44253,1,2,0:0:0:0:
440,192,44342,1,2,0:0:0:0:
440,192,44430,1,0,0:0:0:0:
400,208,44518,1,0,0:0:0:0:
432,200,44606,1,2,0:0:0:0:
456,176,44694,1,0,0:0:0:0:
400,208,44783,1,0,0:0:0:0:
496,160,44871,1,2,0:0:0:0:
496,160,44959,1,0,0:0:0:0:
496,160,45047,1,6,0:0:0:0:
480,192,45136,1,2,0:0:0:0:
480,160,45224,1,0,0:0:0:0:
480,128,45312,1,2,0:0:0:0:
464,160,45400,1,2,0:0:0:0:
400,208,45489,1,2,0:0:0:0:
464,160,45577,1,0,0:0:0:0:
432,168,45665,1,0,0:0:0:0:
448,200,45753,1,4,0:0:0:0:
448,200,45842,1,0,0:0:0:0:
464,160,45930,1,2,0:0:0:0:
432,176,46018,1,2,0:0:0:0:
400,176,46106,1,2,0:0:0:0:
368,192,46194,1,2,0:0:0:0:
480,160,46283,1,0,0:0:0:0:
448,160,46371,1,2,0:0:0:0:
448,200,46459,1,4,0:0:0:0:
384,224,46636,1,2,0:0:0:0:
416,216,46724,1,2,0:0:0:0:
408,248,46812,1,2,0:0:0:0:
432,176,46900,1,0,0:0:0:0:
400,208,46989,1,0,0:0:0:0:
432,192,47077,1,2,0:0:0:0:
448,200,47253,1,0,0:0:0:0:
416,216,47342,1,0,0:0:0:0:
480,160,47430,1,2,0:0:0:0:
432,192,47518,1,2,0:0:0:0:
416,216,47606,1,2,0:0:0:0:
416,216,47694,1,2,0:0:0:0:
480,160,47783,1,0,0:0:0:0:
448,200,47871,1,6,0:0:0:0:
432,176,48047,1,0,0:0:0:0:
400,160,48136,1,0,0:0:0:0:
400,192,48224,1,0,0:0:0:0:
432,176,48312,1,0,0:0:0:0:
432,192,48400,1,0,0:0:0:0:
480,160,48489,1,2,0:0:0:0:
416,216,48577,1,2,0:0:0:0:
448,200,48665,1,0,0:0:0:0:
448,200,48753,1,2,0:0:0:0:
464,168,48842,1,0,0:0:0:0:
448,200,48930,1,6,0:0:0:0:
480,184,49018,1,2,0:0:0:0:
464,152,49106,1,0,0:0:0:0:
432,160,49194,1,0,0:0:0:0:
448,200,49283,1,2,0:0:0:0:
416,216,49371,1,2,0:0:0:0:
480,160,49459,1,2,0:0:0:0:
464,168,49547,1,0,0:0:0:0:
400,192,49636,1,0,0:0:0:0:
368,192,49724,1,0,0:0:0:0:
464,152,49812,1,2,0:0:0:0:
400,192,49900,1,2,0:0:0:0:
464,168,49989,1,0,0:0:0:0:
464,136,50077,1,2,0:0:0:0:
432,160,50165,1,2,0:0:0:0:
464,168,50253,1,0,0:0:0:0:
464,168,50342,1,2,0:0:0:0:
464,152,50430,1,0,0:0:0:0:
432,160,50518,1,0,0:0:0:0:
464,152,50606,1,2,0:0:0:0:
400,192,50694,1,2,0:0:0:0:
416,216,50871,1,2,0:0:0:0:
440,200,50959,1,0,0:0:0:0:
464,136,51047,1,2,0:0:0:0:
464,152,51136,1,2,0:0:0:0:
464,152,51224,1,2,0:0:0:0:
464,152,51312,1,0,0:0:0:0:
440,176,51400,1,0,0:0:0:0:
416,200,51489,1,0,0:0:0:0:
392,224,51577,1,0,0:0:0:0:
400,192,51665,1,2,0:0:0:0:
432,160,51753,1,2,0:0:0:0:
472,216,51930,1,2,0:0:0:0:
472,184,52018,1,0,0:0:0:0:
464,136,52106,1,0,0:0:0:0:
400,136,52283,1,0,0:0:0:0:
368,152,52371,1,0,0:0:0:0:
400,144,52459,1,2,0:0:0:0:
432,160,52547,1,2,0:0:0:0:
464,160,52636,1,0,0:0:0:0:
488,136,52724,1,2,0:0:0:0:
464,152,52900,1,0,0:0:0:0:
392,224,52989,1,0,0:0:0:0:
368,248,53077,1,0,0:0:0:0:
464,136,53165,1,2,0:0:0:0:
440,160,53253,1,2,0:0:0:0:
408,144,53342,1,0,0:0:0:0:
384,168,53430,1,2,0:0:0:0:
384,200,53518,1,6,0:0:0:0:
416,200,53606,1,2,0:0:0:0:
432,160,53694,1,2,0:0:0:0:
464,160,53783,1,0,0:0:0:0:
432,176,53872,1,0,0:0:0:0:
416,200,53960,1,0,0:0:0:0:
464,160,54048,1,2,0:0:0:0:
432,176,54136,1,2,0:0:0:0:
432,176,54224,1,6,0:0:0:0:
424,216,54400,1,2,0:0:0:0:
440,160,54489,1,0,0:0:0:0:
440,128,54577,1,2,0:0:0:0:
384,168,54665,1,2,0:0:0:0:
440,184,54753,1,2,0:0:0:0:
464,160,54842,1,0,0:0:0:0:
456,192,54930,1,4,0:0:0:0:
432,176,55106,1,0,0:0:0:0:
432,176,55194,1,0,0:0:0:0:
432,176,55283,1,2,0:0:0:0:
424,216,55371,1,2,0:0:0:0:
400,240,55459,1,2,0:0:0:0:
432,176,55547,1,0,0:0:0:0:
408,200,55636,1,0,0:0:0:0:
408,200,55724,1,0,0:0:0:0:
464,160,55812,1,2,0:0:0:0:
440,160,55900,1,0,0:0:0:0:
440,160,55989,1,2,0:0:0:0:
424,216,56077,1,2,0:0:0:0:
440,184,56165,1,0,0:0:0:0:
408,200,56253,1,0,0:0:0:0:
464,160,56342,1,2,0:0:0:0:
464,160,56430,1,0,0:0:0:0:
432,176,56518,1,0,0:0:0:0:
408,200,56606,1,0,0:0:0:0:
464,160,56694,1,2,0:0:0:0:
472,128,56783,1,2,0:0:0:0:
472,128,56871,1,0,0:0:0:0:
440,160,56959,1,0,0:0:0:0:
440,184,57047,1,0,0:0:0:0:
424,216,57136,1,0,0:0:0:0:
440,160,57224,1,2,0:0:0:0:
424,192,57312,1,0,0:0:0:0:
408,200,57400,1,0,0:0:0:0:
392,168,57489,1,0,0:0:0:0:
472,128,57577,1,2,0:0:0:0:
440,136,57665,1,2,0:0:0:0:
464,160,57753,1,0,0:0:0:0:
400,160,57930,1,0,0:0:0:0:
368,160,58018,1,0,0:0:0:0:
464,160,58106,1,2,0:0:0:0:
440,184,58194,1,2,0:0:0:0:
416,208,58283,1,0,0:0:0:0:
392,224,58371,1,0,0:0:0:0:
424,192,58459,1,0,0:0:0:0:
424,216,58547,1,0,0:0:0:0:
464,160,58636,1,2,0:0:0:0:
496,152,58724,1,0,0:0:0:0:
440,160,58812,1,2,0:0:0:0:
440,184,58900,1,2,0:0:0:0:
472,128,58989,1,0,0:0:0:0:
440,160,59077,1,0,0:0:0:0:
424,136,59165,1,0,0:0:0:0:
424,136,59253,1,0,0:0:0:0:
464,160,59342,1,2,0:0:0:0:
464,160,59430,1,0,0:0:0:0:
392,224,59518,1,6,0:0:0:0:
440,184,59694,1,0,0:0:0:0:
416,208,59783,1,0,0:0:0:0:
424,216,59871,1,6,0:0:0:0:
352,264,60106,1,6,0:0:0:0:
392,224,60342,1,6,0:0:0:0:
440,160,60577,1,4,0:0:0:0:
432,192,60665,1,0,0:0:0:0:
464,160,60753,1,2,0:0:0:0:
496,144,60842,1,0,0:0:0:0:
432,192,60930,1,2,0:0:0:0:
416,208,61018,1,2,0:0:0:0:
464,160,61106,1,0,0:0:0:0:
432,176,61194,1,0,0:0:0:0:
392,224,61283,1,0,0:0:0:0:
416,208,61371,1,0,0:0:0:0:
440,160,61459,1,2,0:0:0:0:
496,144,61547,1,0,0:0:0:0:
416,208,61636,1,2,0:0:0:0:
432,192,61724,1,2,0:0:0:0:
448,160,61812,1,0,0:0:0:0:
432,176,61900,1,0,0:0:0:0:
416,208,61989,1,0,0:0:0:0:
416,208,62077,1,0,0:0:0:0:
464,160,62165,1,2,0:0:0:0:
464,160,62253,1,0,0:0:0:0:
472,128,62342,1,2,0:0:0:0:
440,160,62430,1,0,0:0:0:0:
472,144,62518,1,2,0:0:0:0:
448,160,62606,1,0,0:0:0:0:
464,160,62694,1,0,0:0:0:0:
464,160,62783,1,0,0:0:0:0:
472,144,62871,1,2,0:0:0:0:
464,160,62959,1,0,0:0:0:0:
496,144,63047,1,2,0:0:0:0:
496,144,63136,1,0,0:0:0:0:
472,144,63224,1,2,0:0:0:0:
448,160,63312,1,2,0:0:0:0:
432,176,63400,1,0,0:0:0:0:
400,176,63489,1,0,0:0:0:0:
432,176,63577,1,2,0:0:0:0:
496,144,63665,1,0,0:0:0:0:
472,168,63753,1,6,0:0:0:0:
472,168,63930,1,2,0:0:0:0:
472,144,64018,1,0,0:0:0:0:
448,160,64106,1,0,0:0:0:0:
440,192,64194,1,0,0:0:0:0:
496,144,64283,1,2,0:0:0:0:
464,160,64371,1,0,0:0:0:0:
472,144,64459,1,2,0:0:0:0:
464,160,64547,1,0,0:0:0:0:
472,144,64636,1,2,0:0:0:0:
496,144,64724,1,0,0:0:0:0:
472,168,64812,1,0,0:0:0:0:
448,192,64900,1,0,0:0:0:0:
472,168,64989,1,2,0:0:0:0:
472,168,65077,1,0,0:0:0:0:
432,176,65165,1,0,0:0:0:0:
416,208,65253,1,0,0:0:0:0:
496,144,65342,1,2,0:0:0:0:
472,168,65430,1,0,0:0:0:0:
464,184,65474,1,0,0:0:0:0:
448,184,65518,1,4,0:0:0:0:
416,208,65871,1,6,0:0:0:0:
432,176,66047,1,0,0:0:0:0:
416,208,66136,1,0,0:0:0:0:
448,192,66224,1,6,0:0:0:0:
384,232,66489,1,2,0:0:0:0:
448,184,66753,1,0,0:0:0:0:
360,184,67018,1,0,0:0:0:0:
384,176,67106,1,2,0:0:0:0:
408,160,67194,1,0,0:0:0:0:
408,160,67283,1,0,0:0:0:0:
432,160,67371,1,2,0:0:0:0:
384,200,67459,1,0,0:0:0:0:
368,216,67547,1,0,0:0:0:0:
472,136,67636,1,2,0:0:0:0:
448,192,67900,1,2,0:0:0:0:
448,184,68165,1,0,0:0:0:0:
448,272,68430,1,0,0:0:0:0:
456,248,68518,1,2,0:0:0:0:
464,224,68606,1,0,0:0:0:0:
472,136,68694,1,2,0:0:0:0:
472,136,68871,1,0,0:0:0:0:
432,160,68959,1,0,0:0:0:0:
456,168,69047,1,2,0:0:0:0:
456,168,69224,1,2,0:0:0:0:
456,168,69312,1,0,0:0:0:0:
384,216,69577,1,2,0:0:0:0:
456,168,69842,1,2,0:0:0:0:
456,168,70018,1,2,0:0:0:0:
432,184,70106,1,2,0:0:0:0:
448,184,70194,1,0,0:0:0:0:
472,168,70283,1,2,0:0:0:0:
456,168,70371,1,0,0:0:0:0:
456,168,70459,1,0,0:0:0:0:
456,168,70636,1,0,0:0:0:0:
496,128,70812,1,2,0:0:0:0:
496,128,70900,1,0,0:0:0:0:
472,136,70989,1,0,0:0:0:0:
472,136,71077,1,2,0:0:0:0:
456,168,71165,1,2,0:0:0:0:
472,136,71253,1,0,0:0:0:0:
432,184,71342,1,0,0:0:0:0:
408,192,71430,1,0,0:0:0:0:
416,216,71518,1,2,0:0:0:0:
456,168,71606,1,0,0:0:0:0:
432,184,71694,1,0,0:0:0:0:
432,152,71783,1,2,0:0:0:0:
408,168,71871,1,2,0:0:0:0:
432,184,72047,1,0,0:0:0:0:
416,216,72136,1,2,0:0:0:0:
464,192,72312,1,0,0:0:0:0:
432,152,72400,1,2,0:0:0:0:
424,232,72489,1,0,0:0:0:0:
432,208,72577,1,0,0:0:0:0:
432,184,72753,1,2,0:0:0:0:
456,176,72842,1,0,0:0:0:0:
432,152,72930,1,0,0:0:0:0:
432,184,73106,1,2,0:0:0:0:
408,176,73194,1,0,0:0:0:0:
480,144,73283,1,0,0:0:0:0:
480,144,73459,1,2,0:0:0:0:
456,176,73547,1,0,0:0:0:0:
424,232,73636,1,0,0:0:0:0:
440,208,73724,1,0,0:0:0:0:
432,176,73812,1,2,0:0:0:0:
456,176,73900,1,2,0:0:0:0:
480,144,73989,1,0,0:0:0:0:
480,144,74077,1,2,0:0:0:0:
480,144,74165,1,0,0:0:0:0:
480,144,74254,1,0,0:0:0:0:
456,176,74342,1,2,0:0:0:0:
432,176,74518,1,0,0:0:0:0:
432,184,74606,1,0,0:0:0:0:
432,184,74694,1,2,0:0:0:0:
440,208,74871,1,2,0:0:0:0:
432,176,75047,1,0,0:0:0:0:
408,192,75136,1,0,0:0:0:0:
432,176,75224,1,2,0:0:0:0:
480,144,75400,1,0,0:0:0:0:
456,176,75489,1,2,0:0:0:0:
472,152,75577,1,0,0:0:0:0:
432,176,75665,1,0,0:0:0:0:
456,168,75753,1,2,0:0:0:0:
480,144,75842,1,0,0:0:0:0:
432,176,75930,1,0,0:0:0:0:
432,184,76018,1,2,0:0:0:0:
432,184,76106,1,2,0:0:0:0:
456,168,76283,1,0,0:0:0:0:
456,168,76371,1,0,0:0:0:0:
456,176,76459,1,6,0:0:0:0:
440,232,76636,1,0,0:0:0:0:
432,256,76724,1,0,0:0:0:0:
432,184,76812,1,2,0:0:0:0:
408,168,76900,1,2,0:0:0:0:
432,176,76989,1,0,0:0:0:0:
408,192,77077,1,0,0:0:0:0:
472,152,77165,1,2,0:0:0:0:
480,144,77253,1,0,0:0:0:0:
456,168,77342,1,2,0:0:0:0:
456,168,77430,1,0,0:0:0:0:
440,192,77518,1,6,0:0:0:0:
456,168,77694,1,0,0:0:0:0:
440,192,77783,1,0,0:0:0:0:
368,240,78047,1,0,0:0:0:0:
472,152,78224,1,0,0:0:0:0:
456,168,78312,1,2,0:0:0:0:
472,152,78400,1,0,0:0:0:0:
448,160,78489,1,0,0:0:0:0:
472,152,78577,1,2,0:0:0:0:
480,144,78665,1,0,0:0:0:0:
472,152,78753,1,0,0:0:0:0:
440,152,78842,1,0,0:0:0:0:
456,168,78930,1,2,0:0:0:0:
456,168,79106,1,0,0:0:0:0:
472,152,79194,1,2,0:0:0:0:
424,184,79371,1,2,0:0:0:0:
472,152,79459,1,0,0:0:0:0:
440,200,79636,1,2,0:0:0:0:
416,216,79724,1,2,0:0:0:0:
440,200,79812,1,0,0:0:0:0:
448,160,79989,1,2,0:0:0:0:
448,160,80077,1,0,0:0:0:0:
424,160,80165,1,0,0:0:0:0:
400,168,80253,1,0,0:0:0:0:
440,152,80342,1,2,0:0:0:0:
456,168,80606,1,0,0:0:0:0:
472,152,80871,1,2,0:0:0:0:
440,232,81136,1,2,0:0:0:0:
424,256,81224,1,2,0:0:0:0:
472,152,81312,1,0,0:0:0:0:
440,152,81400,1,2,0:0:0:0:
424,160,81489,1,2,0:0:0:0:
400,168,81577,1,2,0:0:0:0:
424,160,81665,1,0,0:0:0:0:
416,184,81753,1,0,0:0:0:0:
496,216,82018,1,0,0:0:0:0:
456,168,82106,1,2,0:0:0:0:
448,192,82194,1,0,0:0:0:0:
424,200,82283,1,0,0:0:0:0:
400,216,82371,1,0,0:0:0:0:
472,152,82459,1,2,0:0:0:0:
448,192,82547,1,0,0:0:0:0:
448,192,82636,1,0,0:0:0:0:
424,200,82724,1,0,0:0:0:0:
440,176,82812,1,2,0:0:0:0:
424,200,82900,1,2,0:0:0:0:
400,216,82989,1,0,0:0:0:0:
368,224,83077,1,0,0:0:0:0:
416,184,83165,1,2,0:0:0:0:
424,200,83430,1,2,0:0:0:0:
456,168,83694,1,0,0:0:0:0:
440,176,83871,1,0,0:0:0:0:
472,152,83959,1,2,0:0:0:0:
448,192,84047,1,0,0:0:0:0:
424,200,84224,1,2,0:0:0:0:
424,200,84312,1,2,0:0:0:0:
456,168,84400,1,0,0:0:0:0:
440,176,84489,1,0,0:0:0:0:
464,160,84577,1,2,0:0:0:0:
416,184,84753,1,2,0:0:0:0:
440,240,84842,1,2,0:0:0:0:
448,192,85106,1,0,0:0:0:0:
440,240,85283,1,0,0:0:0:0:
472,152,85371,1,2,0:0:0:0:
456,168,85459,1,0,0:0:0:0:
424,200,85547,1,0,0:0:0:0:
456,168,85636,1,2,0:0:0:0:
456,168,85724,1,0,0:0:0:0:
440,176,85812,1,0,0:0:0:0:
456,168,85900,1,2,0:0:0:0:
440,176,85989,1,2,0:0:0:0:
440,176,86165,1,0,0:0:0:0:
432,144,86253,1,2,0:0:0:0:
384,184,86342,1,0,0:0:0:0:
384,184,86430,1,0,0:0:0:0:
472,152,86518,1,2,0:0:0:0:
456,168,86606,1,0,0:0:0:0:
472,152,86694,1,2,0:0:0:0:
472,152,86783,1,0,0:0:0:0:
384,184,86871,1,0,0:0:0:0:
384,200,86930,1,0,0:0:0:0:
384,200,86989,1,0,0:0:0:0:
456,168,87047,1,2,0:0:0:0:
424,168,87136,1,0,0:0:0:0:
432,144,87224,1,2,0:0:0:0:
416,144,87268,1,2,0:0:0:0:
408,152,87312,1,2,0:0:0:0:
384,184,87356,1,2,0:0:0:0:
400,184,87400,1,4,0:0:0:0:
400,256,87636,1,4,0:0:0:0:
408,184,87871,1,4,0:0:0:0:
456,168,88106,1,4,0:0:0:0:
360,224,88459,1,4,0:0:0:0:
400,192,88636,1,6,0:0:0:0:
408,184,88812,1,6,0:0:0:0:
408,184,88900,1,2,0:0:0:0:
464,144,89077,1,0,0:0:0:0:
440,168,89165,1,0,0:0:0:0:
464,144,89342,1,2,0:0:0:0:
408,184,89430,1,2,0:0:0:0:
408,184,89606,1,0,0:0:0:0:
400,192,89695,1,0,0:0:0:0:
432,176,89783,1,2,0:0:0:0:
456,160,89871,1,0,0:0:0:0:
440,168,89959,1,0,0:0:0:0:
456,200,90048,1,2,0:0:0:0:
464,168,90136,1,0,0:0:0:0:
440,168,90224,1,2,0:0:0:0:
400,192,90312,1,2,0:0:0:0:
456,160,90489,1,0,0:0:0:0:
440,168,90577,1,2,0:0:0:0:
440,168,90753,1,0,0:0:0:0:
400,192,90842,1,0,0:0:0:0:
432,176,91018,1,0,0:0:0:0:
456,160,91106,1,2,0:0:0:0:
472,128,91194,1,0,0:0:0:0:
472,128,91283,1,2,0:0:0:0:
432,176,91371,1,2,0:0:0:0:
432,208,91459,1,0,0:0:0:0:
432,208,91547,1,0,0:0:0:0:
432,176,91636,1,0,0:0:0:0:
440,168,91812,1,2,0:0:0:0:
416,184,91900,1,2,0:0:0:0:
392,208,91989,1,2,0:0:0:0:
472,128,92077,1,2,0:0:0:0:
496,152,92165,1,0,0:0:0:0:
472,168,92253,1,2,0:0:0:0:
432,176,92342,1,0,0:0:0:0:
392,208,92430,1,0,0:0:0:0:
368,232,92518,1,0,0:0:0:0:
456,160,92606,1,2,0:0:0:0:
416,184,92694,1,2,0:0:0:0:
400,216,92783,1,2,0:0:0:0:
432,208,92871,1,2,0:0:0:0:
456,184,92959,1,0,0:0:0:0:
432,208,93047,1,6,0:0:0:0:
392,208,93224,1,0,0:0:0:0:
376,240,93312,1,0,0:0:0:0:
368,232,93400,1,0,0:0:0:0:
368,232,93489,1,0,0:0:0:0:
392,208,93577,1,0,0:0:0:0:
456,160,93665,1,2,0:0:0:0:
432,176,93753,1,2,0:0:0:0:
432,176,93842,1,0,0:0:0:0:
456,160,93930,1,2,0:0:0:0:
488,152,94018,1,0,0:0:0:0:
464,128,94106,1,2,0:0:0:0:
464,128,94194,1,0,0:0:0:0:
432,136,94283,1,0,0:0:0:0:
432,176,94371,1,2,0:0:0:0:
456,184,94459,1,2,0:0:0:0:
424,168,94547,1,2,0:0:0:0:
432,176,94724,1,0,0:0:0:0:
408,200,94812,1,0,0:0:0:0:
432,176,94989,1,2,0:0:0:0:
408,200,95077,1,2,0:0:0:0:
432,176,95253,1,0,0:0:0:0:
400,192,95342,1,0,0:0:0:0:
456,160,95430,1,2,0:0:0:0:
456,160,95518,1,0,0:0:0:0:
432,176,95606,1,0,0:0:0:0:
456,160,95694,1,2,0:0:0:0:
456,184,95783,1,0,0:0:0:0:
432,176,95871,1,2,0:0:0:0:
432,176,95959,1,2,0:0:0:0:
456,160,96136,1,0,0:0:0:0:
456,160,96224,1,2,0:0:0:0:
496,104,96400,1,0,0:0:0:0:
432,176,96489,1,0,0:0:0:0:
440,208,96577,1,0,0:0:0:0:
424,240,96665,1,0,0:0:0:0:
440,216,96753,1,2,0:0:0:0:
440,208,96842,1,2,0:0:0:0:
440,208,96930,1,2,0:0:0:0:
424,240,97018,1,2,0:0:0:0:
456,160,97106,1,0,0:0:0:0:
432,176,97194,1,0,0:0:0:0:
424,208,97283,1,0,0:0:0:0:
424,240,97371,1,0,0:0:0:0:
432,176,97459,1,2,0:0:0:0:
408,200,97547,1,2,0:0:0:0:
432,176,97636,1,2,0:0:0:0:
464,160,97724,1,0,0:0:0:0:
432,176,97812,1,0,0:0:0:0:
464,160,97900,1,2,0:0:0:0:
432,176,98077,1,0,0:0:0:0:
400,184,98165,1,0,0:0:0:0:
424,208,98253,1,0,0:0:0:0:
424,208,98342,1,2,0:0:0:0:
432,176,98430,1,0,0:0:0:0:
408,200,98518,1,0,0:0:0:0:
440,184,98606,1,2,0:0:0:0:
432,176,98694,1,0,0:0:0:0:
432,176,98871,1,0,0:0:0:0:
408,200,98959,1,0,0:0:0:0:
432,176,99047,1,2,0:0:0:0:
432,176,99224,1,2,0:0:0:0:
400,184,99312,1,2,0:0:0:0:
432,168,99400,1,0,0:0:0:0:
424,200,99489,1,0,0:0:0:0:
456,208,99577,1,2,0:0:0:0:
408,200,99665,1,0,0:0:0:0:
424,176,99753,1,2,0:0:0:0:
400,184,99842,1,2,0:0:0:0:
376,200,99930,1,2,0:0:0:0:
408,192,100018,1,0,0:0:0:0:
456,208,100106,1,6,0:0:0:0:
432,176,100283,1,0,0:0:0:0:
512,168,100459,1,6,0:0:0:0:
432,184,100636,1,0,0:0:0:0:
472,176,100724,1,0,0:0:0:0:
432,176,100812,1,0,0:0:0:0:
432,176,100989,1,6,0:0:0:0:
352,176,101165,1,0,0:0:0:0:
312,184,101253,1,0,0:0:0:0:
352,176,101342,1,2,0:0:0:0:
392,160,101430,1,0,0:0:0:0:
432,176,101518,1,6,0:0:0:0:
400,160,101606,1,2,0:0:0:0:
472,128,101783,1,2,0:0:0:0:
392,160,101871,1,2,0:0:0:0:
392,144,102047,1,0,0:0:0:0:
400,184,102136,1,0,0:0:0:0:
400,264,102312,1,0,0:0:0:0:
432,176,102400,1,2,0:0:0:0:
400,184,102489,1,2,0:0:0:0:
432,200,102577,1,0,0:0:0:0:
432,176,102665,1,2,0:0:0:0:
464,152,102753,1,0,0:0:0:0:
432,176,102842,1,0,0:0:0:0:
472,168,102930,1,0,0:0:0:0:
400,208,103106,1,2,0:0:0:0:
400,208,103194,1,2,0:0:0:0:
392,248,103283,1,2,0:0:0:0:
464,152,103371,1,2,0:0:0:0:
464,152,103459,1,0,0:0:0:0:
464,152,103547,1,2,0:0:0:0:
432,176,103724,1,0,0:0:0:0:
400,184,103812,1,0,0:0:0:0:
432,168,103900,1,2,0:0:0:0:
432,176,103989,1,2,0:0:0:0:
432,176,104077,1,2,0:0:0:0:
432,176,104165,1,2,0:0:0:0:
432,176,104253,1,0,0:0:0:0:
464,152,104342,1,2,0:0:0:0:
464,152,104518,1,0,0:0:0:0:
400,184,104606,1,0,0:0:0:0:
376,216,104694,1,0,0:0:0:0:
376,216,104783,1,0,0:0:0:0:
408,200,104871,1,0,0:0:0:0:
432,176,104959,1,2,0:0:0:0:
400,192,105047,1,2,0:0:0:0:
440,120,105224,1,2,0:0:0:0:
400,184,105400,1,2,0:0:0:0:
480,168,105577,1,0,0:0:0:0:
448,240,105753,1,6,0:0:0:0:
464,200,105842,1,2,0:0:0:0:
464,152,106018,1,0,0:0:0:0:
440,184,106106,1,0,0:0:0:0:
512,144,106283,1,2,0:0:0:0:
432,176,106371,1,2,0:0:0:0:
432,176,106547,1,2,0:0:0:0:
408,208,106636,1,2,0:0:0:0:
384,240,106724,1,2,0:0:0:0:
384,240,106812,1,2,0:0:0:0:
464,152,106900,1,0,0:0:0:0:
400,184,106989,1,0,0:0:0:0:
464,152,107077,1,2,0:0:0:0:
432,176,107165,1,2,0:0:0:0:
408,208,107342,1,2,0:0:0:0:
384,240,107430,1,2,0:0:0:0:
384,240,107518,1,2,0:0:0:0:
400,184,107606,1,2,0:0:0:0:
440,184,107694,1,2,0:0:0:0:
464,152,107783,1,0,0:0:0:0:
440,184,107871,1,0,0:0:0:0:
408,208,107959,1,0,0:0:0:0:
384,240,108047,1,0,0:0:0:0:
416,216,108136,1,0,0:0:0:0:
464,152,108224,1,2,0:0:0:0:
464,152,108400,1,0,0:0:0:0:
464,232,108577,1,4,0:0:0:0:
464,152,108753,1,2,0:0:0:0:
440,184,108842,1,2,0:0:0:0:
408,208,108930,1,2,0:0:0:0:
384,240,109018,1,2,0:0:0:0:
464,152,109106,1,0,0:0:0:0:
440,184,109194,1,2,0:0:0:0:
464,152,109371,1,0,0:0:0:0:
424,160,109459,1,0,0:0:0:0:
392,184,109547,1,0,0:0:0:0:
424,168,109636,1,2,0:0:0:0:
424,168,109724,1,2,0:0:0:0:
384,176,109812,1,0,0:0:0:0:
408,208,109900,1,2,0:0:0:0:
424,160,109989,1,0,0:0:0:0:
392,184,110077,1,0,0:0:0:0:
312,200,110253,1,0,0:0:0:0:
352,200,110342,1,0,0:0:0:0:
432,192,110518,1,2,0:0:0:0:
408,208,110606,1,0,0:0:0:0:
440,184,110694,1,0,0:0:0:0:
440,184,110783,1,2,0:0:0:0:
408,208,110871,1,2,0:0:0:0:
440,184,110959,1,0,0:0:0:0:
464,152,111047,1,2,0:0:0:0:
424,168,111136,1,2,0:0:0:0:
400,200,111224,1,2,0:0:0:0:
464,152,111312,1,0,0:0:0:0:
472,192,111400,1,4,0:0:0:0:
472,192,111577,1,2,0:0:0:0:
504,112,111753,1,0,0:0:0:0:
448,184,111930,1,0,0:0:0:0:
480,160,112106,1,2,0:0:0:0:
496,128,112636,1,2,0:0:0:0:
408,112,112812,1,0,0:0:0:0:
480,160,112989,1,2,0:0:0:0:
480,160,113165,1,0,0:0:0:0:
392,160,113342,1,2,0:0:0:0:
480,208,113518,1,2,0:0:0:0:
480,160,113694,1,0,0:0:0:0:
480,160,113871,1,2,0:0:0:0:
480,160,114047,1,0,0:0:0:0:
416,96,114224,1,2,0:0:0:0:
456,152,114577,1,0,0:0:0:0:
392,216,114753,1,0,0:0:0:0:
368,256,114842,1,0,0:0:0:0:
392,216,114930,1,0,0:0:0:0:
456,152,115283,1,2,0:0:0:0:
384,312,115636,1,0,0:0:0:0:
488,160,116165,1,2,0:0:0:0:
504,128,116253,1,0,0:0:0:0:
472,160,116342,1,2,0:0:0:0:
312,240,116694,1,0,0:0:0:0:
480,184,117047,1,4,0:0:0:0:
456,200,117136,1,0,0:0:0:0:
432,208,117224,1,2,0:0:0:0:
472,160,117312,1,0,0:0:0:0:
448,168,117400,1,0,0:0:0:0:
448,168,117489,1,2,0:0:0:0:
448,168,117577,1,2,0:0:0:0:
448,176,117665,1,0,0:0:0:0:
432,208,117753,1,2,0:0:0:0:
448,168,117842,1,0,0:0:0:0:
472,160,117930,1,2,0:0:0:0:
448,168,118018,1,0,0:0:0:0:
432,184,118106,1,0,0:0:0:0:
456,200,118194,1,2,0:0:0:0:
440,224,118283,1,0,0:0:0:0:
448,176,118371,1,2,0:0:0:0:
432,208,118459,1,0,0:0:0:0:
408,200,118547,1,0,0:0:0:0:
472,160,118636,1,2,0:0:0:0:
472,160,118724,1,0,0:0:0:0:
472,160,118812,1,2,0:0:0:0:
448,168,118900,1,0,0:0:0:0:
408,200,118989,1,0,0:0:0:0:
472,160,119077,1,2,0:0:0:0:
432,208,119165,1,2,0:0:0:0:
456,192,119253,1,0,0:0:0:0:
456,200,119342,1,2,0:0:0:0:
472,160,119430,1,0,0:0:0:0:
432,184,119518,1,0,0:0:0:0:
408,200,119606,1,0,0:0:0:0:
416,224,119694,1,6,0:0:0:0:
472,160,119871,1,4,0:0:0:0:
448,168,120047,1,2,0:0:0:0:
408,200,120136,1,0,0:0:0:0:
384,192,120224,1,0,0:0:0:0:
432,184,120312,1,0,0:0:0:0:
448,168,120400,1,2,0:0:0:0:
416,168,120489,1,0,0:0:0:0:
448,168,120577,1,2,0:0:0:0:
424,176,120665,1,2,0:0:0:0:
400,184,120753,1,2,0:0:0:0:
424,168,120842,1,0,0:0:0:0:
400,160,120930,1,0,0:0:0:0:
400,160,121018,1,0,0:0:0:0:
416,168,121106,1,0,0:0:0:0:
448,168,121194,1,2,0:0:0:0:
416,168,121283,1,2,0:0:0:0:
448,200,121989,1,4,0:0:0:0:
424,176,122165,1,2,0:0:0:0:
416,200,122253,1,0,0:0:0:0:
392,208,122342,1,0,0:0:0:0:
384,152,122518,1,0,0:0:0:0:
448,200,122694,1,6,0:0:0:0:
448,200,122871,1,2,0:0:0:0:
448,200,123047,1,6,0:0:0:0:
448,200,123224,1,2,0:0:0:0:
448,200,123400,1,4,0:0:0:0:
456,160,123518,1,6,0:0:0:0:
416,200,123636,1,6,0:0:0:0:
456,160,123753,1,4,0:0:0:0:
432,192,123871,1,6,0:0:0:0:
456,160,123989,1,4,0:0:0:0:
416,200,124106,1,6,0:0:0:0:
456,112,124342,1,0,0:0:0:0:
456,160,124577,1,2,0:0:0:0:
368,176,124812,1,0,0:0:0:0:
392,264,124900,1,0,0:0:0:0:
384,232,124989,1,0,0:0:0:0:
432,192,125077,1,2,0:0:0:0:
456,160,125165,1,0,0:0:0:0:
432,192,125253,1,0,0:0:0:0:
456,160,125342,1,2,0:0:0:0:
480,136,125430,1,0,0:0:0:0:
464,160,125518,1,2,0:0:0:0:
416,200,125606,1,2,0:0:0:0:
456,160,125694,1,0,0:0:0:0:
432,160,125753,1,0,0:0:0:0:
408,168,125812,1,0,0:0:0:0:
432,160,125871,1,2,0:0:0:0:
432,192,125959,1,2,0:0:0:0:
408,168,126047,1,0,0:0:0:0:
384,176,126106,1,0,0:0:0:0:
368,192,126165,1,0,0:0:0:0:
352,176,126224,1,0,0:0:0:0:
384,232,126400,1,0,0:0:0:0:
384,232,126489,1,0,0:0:0:0:
376,200,126577,1,2,0:0:0:0:
352,176,126636,1,2,0:0:0:0:
368,192,126694,1,2,0:0:0:0:
368,192,126753,1,2,0:0:0:0:
368,192,126797,1,2,0:0:0:0:
376,200,126842,1,2,0:0:0:0:
360,208,126886,1,2,0:0:0:0:
368,192,126930,1,4,0:0:0:0:
304,176,127106,1,0,0:0:0:0:
272,168,127194,1,0,0:0:0:0:
456,160,127283,1,2,0:0:0:0:
480,144,127371,1,2,0:0:0:0:
480,144,127459,1,0,0:0:0:0:
472,176,127547,1,2,0:0:0:0:
456,160,127724,1,0,0:0:0:0:
432,184,127812,1,0,0:0:0:0:
384,232,127900,1,0,0:0:0:0:
384,232,127989,1,2,0:0:0:0:
424,176,128077,1,2,0:0:0:0:
384,232,128165,1,2,0:0:0:0:
456,160,128253,1,0,0:0:0:0:
456,160,128342,1,2,0:0:0:0:
456,160,128518,1,0,0:0:0:0:
392,176,128694,1,0,0:0:0:0:
392,176,128783,1,0,0:0:0:0:
392,176,128871,1,0,0:0:0:0:
368,176,128930,1,0,0:0:0:0:
344,184,128989,1,0,0:0:0:0:
456,160,129047,1,2,0:0:0:0:
456,160,129224,1,2,0:0:0:0:
392,176,129312,1,0,0:0:0:0:
392,184,129400,1,2,0:0:0:0:
384,232,129489,1,2,0:0:0:0:
456,160,129577,1,0,0:0:0:0:
488,216,129753,1,6,0:0:0:0:
456,208,129842,1,2,0:0:0:0:
464,144,130018,1,0,0:0:0:0:
432,160,130106,1,0,0:0:0:0:
456,160,130283,1,2,0:0:0:0:
432,160,130371,1,2,0:0:0:0:
368,160,130547,1,0,0:0:0:0:
368,192,130636,1,0,0:0:0:0:
456,160,130724,1,2,0:0:0:0:
448,192,130812,1,0,0:0:0:0:
416,200,130900,1,0,0:0:0:0:
448,192,130989,1,2,0:0:0:0:
416,200,131077,1,0,0:0:0:0:
456,160,131165,1,2,0:0:0:0:
416,200,131253,1,2,0:0:0:0:
416,200,131342,1,2,0:0:0:0:
432,160,131430,1,0,0:0:0:0:
408,184,131518,1,0,0:0:0:0:
368,192,131606,1,0,0:0:0:0:
456,160,131694,1,2,0:0:0:0:
456,160,131783,1,0,0:0:0:0:
432,160,131871,1,0,0:0:0:0:
416,192,131959,1,0,0:0:0:0:
456,160,132047,1,2,0:0:0:0:
416,200,132136,1,2,0:0:0:0:
400,232,132224,1,2,0:0:0:0:
400,232,132312,1,2,0:0:0:0:
456,160,132400,1,0,0:0:0:0:
416,200,132489,1,0,0:0:0:0:
448,192,132577,1,0,0:0:0:0:
408,240,132753,1,0,0:0:0:0:
432,216,132842,1,0,0:0:0:0:
448,184,132930,1,2,0:0:0:0:
456,160,133018,1,2,0:0:0:0:
488,152,133106,1,0,0:0:0:0:
448,192,133194,1,2,0:0:0:0:
488,152,133371,1,0,0:0:0:0:
416,192,133459,1,0,0:0:0:0:
400,232,133547,1,0,0:0:0:0:
456,160,133636,1,2,0:0:0:0:
448,192,133724,1,2,0:0:0:0:
472,168,133812,1,0,0:0:0:0:
488,152,133900,1,2,0:0:0:0:
448,192,133989,1,6,0:0:0:0:
416,136,134165,1,0,0:0:0:0:
376,192,134342,1,0,0:0:0:0:
432,160,134518,1,2,0:0:0:0:
408,184,134606,1,2,0:0:0:0:
456,160,134694,1,0,0:0:0:0:
456,160,134871,1,2,0:0:0:0:
448,224,135047,1,6,0:0:0:0:
448,224,135224,1,2,0:0:0:0:
384,216,135400,1,6,0:0:0:0:
416,208,135489,1,2,0:0:0:0:
456,160,135665,1,0,0:0:0:0:
416,208,135753,1,0,0:0:0:0:
456,160,135930,1,2,0:0:0:0:
408,184,136018,1,2,0:0:0:0:
456,160,136194,1,0,0:0:0:0:
424,160,136283,1,0,0:0:0:0:
408,184,136371,1,0,0:0:0:0:
440,184,136459,1,0,0:0:0:0:
440,184,136547,1,0,0:0:0:0:
472,168,136636,1,2,0:0:0:0:
456,160,136724,1,0,0:0:0:0:
440,184,136812,1,2,0:0:0:0:
416,208,136900,1,2,0:0:0:0:
384,224,136989,1,2,0:0:0:0:
400,200,137077,1,0,0:0:0:0:
384,224,137165,1,0,0:0:0:0:
360,248,137253,1,0,0:0:0:0:
456,160,137342,1,2,0:0:0:0:
440,184,137430,1,0,0:0:0:0:
408,184,137518,1,0,0:0:0:0:
432,160,137606,1,0,0:0:0:0:
456,160,137694,1,2,0:0:0:0:
408,184,137783,1,2,0:0:0:0:
400,200,137871,1,2,0:0:0:0:
400,200,137959,1,2,0:0:0:0:
424,176,138047,1,0,0:0:0:0:
440,184,138136,1,0,0:0:0:0:
448,216,138224,1,2,0:0:0:0:
496,136,138312,1,0,0:0:0:0:
464,128,138400,1,0,0:0:0:0:
400,200,138489,1,2,0:0:0:0:
456,160,138577,1,2,0:0:0:0:
440,192,138665,1,2,0:0:0:0:
440,184,138753,1,0,0:0:0:0:
456,160,138842,1,2,0:0:0:0:
448,216,138930,1,2,0:0:0:0:
440,184,139018,1,0,0:0:0:0:
400,200,139106,1,0,0:0:0:0:
424,184,139194,1,2,0:0:0:0:
424,176,139283,1,2,0:0:0:0:
408,208,139371,1,2,0:0:0:0:
384,232,139459,1,2,0:0:0:0:
408,208,139547,1,0,0:0:0:0:
424,176,139636,1,0,0:0:0:0:
440,184,139724,1,2,0:0:0:0:
456,160,139812,1,0,0:0:0:0:
400,200,139900,1,0,0:0:0:0:
384,232,139989,1,0,0:0:0:0:
360,208,140077,1,0,0:0:0:0:
392,224,140165,1,0,0:0:0:0:
440,184,140253,1,2,0:0:0:0:
400,200,140342,1,2,0:0:0:0:
440,184,140518,1,2,0:0:0:0:
440,248,140694,1,2,0:0:0:0:
408,208,140871,1,0,0:0:0:0:
472,176,141047,1,6,0:0:0:0:
472,208,141136,1,2,0:0:0:0:
440,208,141224,1,2,0:0:0:0:
400,200,141312,1,0,0:0:0:0:
368,216,141400,1,0,0:0:0:0:
368,216,141489,1,0,0:0:0:0:
400,200,141577,1,2,0:0:0:0:
408,208,141665,1,2,0:0:0:0:
432,184,141753,1,0,0:0:0:0:
432,152,141842,1,2,0:0:0:0:
400,168,141930,1,2,0:0:0:0:
408,200,142018,1,0,0:0:0:0:
456,200,142106,1,2,0:0:0:0:
448,168,142194,1,0,0:0:0:0:
400,200,142283,1,0,0:0:0:0:
400,200,142371,1,0,0:0:0:0:
472,176,142459,1,2,0:0:0:0:
424,224,142636,1,2,0:0:0:0:
424,224,142724,1,2,0:0:0:0:
392,240,142812,1,2,0:0:0:0:
424,224,142900,1,2,0:0:0:0:
432,184,142989,1,2,0:0:0:0:
400,200,143077,1,0,0:0:0:0:
424,176,143165,1,0,0:0:0:0:
432,184,143253,1,0,0:0:0:0:
432,216,143342,1,0,0:0:0:0:
424,224,143430,1,0,0:0:0:0:
448,168,143518,1,2,0:0:0:0:
448,168,143694,1,0,0:0:0:0:
456,232,143871,1,4,0:0:0:0:
432,216,144047,1,0,0:0:0:0:
416,248,144136,1,0,0:0:0:0:
432,224,144224,1,2,0:0:0:0:
424,224,144312,1,2,0:0:0:0:
448,168,144400,1,0,0:0:0:0:
432,216,144489,1,2,0:0:0:0:
416,248,144577,1,0,0:0:0:0:
384,256,144665,1,0,0:0:0:0:
384,256,144753,1,0,0:0:0:0:
432,184,144842,1,2,0:0:0:0:
384,256,144930,1,2,0:0:0:0:
448,168,145018,1,0,0:0:0:0:
432,184,145106,1,0,0:0:0:0:
448,168,145194,1,2,0:0:0:0:
448,168,145283,1,2,0:0:0:0:
440,200,145371,1,0,0:0:0:0:
456,168,145459,1,2,0:0:0:0:
424,184,145547,1,2,0:0:0:0:
456,168,145636,1,0,0:0:0:0:
448,168,145724,1,0,0:0:0:0:
432,184,145812,1,2,0:0:0:0:
464,192,145900,1,0,0:0:0:0:
440,200,145989,1,2,0:0:0:0:
416,184,146077,1,0,0:0:0:0:
384,200,146165,1,0,0:0:0:0:
464,192,146253,1,2,0:0:0:0:
472,160,146342,1,0,0:0:0:0:
448,176,146430,1,0,0:0:0:0:
424,200,146518,1,0,0:0:0:0:
472,160,146606,1,2,0:0:0:0:
440,160,146694,1,6,0:0:0:0:
448,168,146871,1,0,0:0:0:0:
416,184,146959,1,0,0:0:0:0:
456,168,147047,1,2,0:0:0:0:
408,208,147224,1,2,0:0:0:0:
448,168,147312,1,0,0:0:0:0:
424,200,147400,1,0,0:0:0:0:
448,176,147489,1,2,0:0:0:0:
416,184,147577,1,2,0:0:0:0:
448,176,147665,1,0,0:0:0:0:
472,160,147753,1,2,0:0:0:0:
464,192,147842,1,0,0:0:0:0:
464,192,147930,1,2,0:0:0:0:
472,160,148018,1,0,0:0:0:0:
440,160,148106,1,0,0:0:0:0:
408,176,148194,1,0,0:0:0:0:
408,208,148283,1,2,0:0:0:0:
472,160,148371,1,0,0:0:0:0:
448,168,148459,1,2,0:0:0:0:
472,160,148547,1,0,0:0:0:0:
456,192,148636,1,2,0:0:0:0:
448,176,148724,1,0,0:0:0:0:
464,192,148812,1,4,0:0:0:0:
448,224,148900,1,0,0:0:0:0:
472,160,148989,1,2,0:0:0:0:
448,176,149077,1,0,0:0:0:0:
408,208,149165,1,0,0:0:0:0:
408,208,149253,1,0,0:0:0:0:
472,160,149342,1,2,0:0:0:0:
440,176,149430,1,2,0:0:0:0:
456,192,149518,1,0,0:0:0:0:
472,160,149694,1,0,0:0:0:0:
456,192,149783,1,0,0:0:0:0:
448,168,149871,1,2,0:0:0:0:
472,160,149959,1,0,0:0:0:0:
472,160,150047,1,2,0:0:0:0:
456,192,150136,1,0,0:0:0:0:
456,192,150224,1,0,0:0:0:0:
448,224,150312,1,2,0:0:0:0:
472,160,150400,1,0,0:0:0:0:
448,184,150489,1,0,0:0:0:0:
472,160,150577,1,2,0:0:0:0:
440,144,150665,1,2,0:0:0:0:
440,144,150753,1,0,0:0:0:0:
416,168,150842,1,2,0:0:0:0:
416,200,150930,1,2,0:0:0:0:
448,168,151106,1,0,0:0:0:0:
424,192,151194,1,0,0:0:0:0:
448,224,151283,1,2,0:0:0:0:
448,168,151459,1,0,0:0:0:0:
416,200,151547,1,0,0:0:0:0:
384,216,151636,1,0,0:0:0:0:
376,280,151812,1,0,0:0:0:0:
384,248,151900,1,0,0:0:0:0:
416,168,151989,1,0,0:0:0:0:
392,192,152077,1,0,0:0:0:0:
360,208,152165,1,2,0:0:0:0:
360,208,152253,1,2,0:0:0:0:
416,168,152342,1,0,0:0:0:0:
416,168,152518,1,0,0:0:0:0:
392,192,152606,1,2,0:0:0:0:
384,216,152694,1,2,0:0:0:0:
424,192,152783,1,2,0:0:0:0:
424,192,152871,1,2,0:0:0:0:
456,176,152959,1,0,0:0:0:0:
464,208,153047,1,2,0:0:0:0:
416,200,153136,1,0,0:0:0:0:
456,176,153224,1,2,0:0:0:0:
424,192,153312,1,0,0:0:0:0:
416,168,153400,1,2,0:0:0:0:
416,168,153489,1,2,0:0:0:0:
392,192,153577,1,2,0:0:0:0:
456,176,153665,1,0,0:0:0:0:
424,192,153753,1,0,0:0:0:0:
424,192,153842,1,2,0:0:0:0:
400,216,153930,1,2,0:0:0:0:
432,200,154018,1,0,0:0:0:0:
456,176,154106,1,2,0:0:0:0:
456,176,154194,1,0,0:0:0:0:
456,176,154283,1,2,0:0:0:0:
472,152,154371,1,0,0:0:0:0:
472,152,154459,1,2,0:0:0:0:
456,176,154547,1,0,0:0:0:0:
424,192,154636,1,0,0:0:0:0:
472,152,154724,1,2,0:0:0:0:
448,176,154812,1,0,0:0:0:0:
424,192,154900,1,0,0:0:0:0:
456,176,154989,1,2,0:0:0:0:
472,152,155077,1,0,0:0:0:0:
448,176,155165,1,4,0:0:0:0:
424,192,155342,1,2,0:0:0:0:
456,176,155430,1,0,0:0:0:0:
400,216,155518,1,0,0:0:0:0:
368,224,155606,1,0,0:0:0:0:
456,176,155694,1,2,0:0:0:0:
456,176,155783,1,0,0:0:0:0:
448,208,155871,1,6,0:0:0:0:
384,208,156047,1,2,0:0:0:0:
408,184,156136,1,0,0:0:0:0:
432,160,156224,1,0,0:0:0:0:
400,216,156400,1,2,0:0:0:0:
424,192,156577,1,0,0:0:0:0:
368,224,156753,1,2,0:0:0:0:
400,216,156842,1,0,0:0:0:0:
424,264,156930,1,2,0:0:0:0:
448,240,157018,1,0,0:0:0:0:
448,240,157106,1,0,0:0:0:0:
456,176,157194,1,2,0:0:0:0:
488,160,157283,1,6,0:0:0:0:
432,160,157371,1,0,0:0:0:0:
408,184,157459,1,0,0:0:0:0:
392,200,157518,1,0,0:0:0:0:
376,216,157577,1,0,0:0:0:0:
392,200,157636,1,2,0:0:0:0:
392,200,157812,1,2,0:0:0:0:
384,136,157989,1,2,0:0:0:0:
432,160,158077,1,0,0:0:0:0:
408,184,158165,1,0,0:0:0:0:
368,224,158253,1,0,0:0:0:0:
432,224,158342,1,2,0:0:0:0:
400,232,158518,1,2,0:0:0:0:
432,160,158606,1,0,0:0:0:0:
400,176,158694,1,0,0:0:0:0:
408,184,158783,1,2,0:0:0:0:
344,208,158871,1,0,0:0:0:0:
344,208,158959,1,0,0:0:0:0:
376,208,159047,1,2,0:0:0:0:
440,192,159224,1,2,0:0:0:0:
456,160,159312,1,0,0:0:0:0:
440,192,159400,1,0,0:0:0:0:
400,232,159577,1,0,0:0:0:0:
432,160,159665,1,0,0:0:0:0:
448,192,159753,1,2,0:0:0:0:
456,160,159842,1,0,0:0:0:0:
440,192,160018,1,0,0:0:0:0:
448,192,160194,1,2,0:0:0:0:
416,208,160283,1,0,0:0:0:0:
400,144,160459,1,0,0:0:0:0:
440,200,160636,1,2,0:0:0:0:
440,192,160724,1,2,0:0:0:0:
408,208,160812,1,0,0:0:0:0:
440,192,160989,1,0,0:0:0:0:
416,208,161077,1,0,0:0:0:0:
456,160,161165,1,2,0:0:0:0:
448,192,161253,1,2,0:0:0:0:
472,168,161342,1,0,0:0:0:0:
472,168,161430,1,2,0:0:0:0:
408,160,161606,1,0,0:0:0:0:
408,208,161694,1,0,0:0:0:0:
376,224,161783,1,0,0:0:0:0:
440,192,161871,1,2,0:0:0:0:
376,224,161959,1,2,0:0:0:0:
376,224,162047,1,2,0:0:0:0:
408,208,162136,1,2,0:0:0:0:
440,192,162224,1,0,0:0:0:0:
440,192,162400,1,2,0:0:0:0:
472,168,162489,1,0,0:0:0:0:
416,208,162577,1,0,0:0:0:0:
448,216,162665,1,2,0:0:0:0:
456,160,162753,1,0,0:0:0:0:
408,208,162842,1,0,0:0:0:0:
472,168,162930,1,2,0:0:0:0:
408,176,163106,1,2,0:0:0:0:
440,192,163194,1,2,0:0:0:0:
448,216,163283,1,2,0:0:0:0:
488,160,163459,1,0,0:0:0:0:
440,192,163636,1,6,0:0:0:0:
424,256,163812,1,2,0:0:0:0:
368,216,163989,1,2,0:0:0:0:
432,240,164165,1,2,0:0:0:0:
400,232,164253,1,2,0:0:0:0:
448,216,164342,1,6,0:0:0:0:
488,160,164518,1,2,0:0:0:0:
424,160,164694,1,0,0:0:0:0:
488,184,164871,1,2,0:0:0:0:
456,192,164959,1,2,0:0:0:0:
440,136,165047,1,0,0:0:0:0:
480,192,165224,1,2,0:0:0:0:
416,176,165400,1,2,0:0:0:0:
456,192,165489,1,0,0:0:0:0:
464,160,165577,1,2,0:0:0:0:
456,192,165665,1,0,0:0:0:0:
456,192,165753,1,0,0:0:0:0:
408,144,165930,1,2,0:0:0:0:
416,176,166018,1,2,0:0:0:0:
448,160,166106,1,0,0:0:0:0:
456,192,166283,1,2,0:0:0:0:
488,184,166459,1,4,0:0:0:0:
480,192,166636,1,0,0:0:0:0:
456,192,166724,1,0,0:0:0:0:
464,160,166812,1,2,0:0:0:0:
440,184,166900,1,2,0:0:0:0:
464,160,166989,1,0,0:0:0:0:
456,192,167077,1,2,0:0:0:0:
448,160,167253,1,0,0:0:0:0:
424,184,167342,1,0,0:0:0:0:
408,216,167430,1,0,0:0:0:0:
440,184,167518,1,2,0:0:0:0:
440,184,167606,1,2,0:0:0:0:
456,192,167694,1,0,0:0:0:0:
464,160,167783,1,2,0:0:0:0:
432,176,167871,1,2,0:0:0:0:
456,192,167930,1,0,0:0:0:0:
464,160,167989,1,2,0:0:0:0:
440,160,168047,1,2,0:0:0:0:
408,152,168136,1,0,0:0:0:0:
384,176,168224,1,0,0:0:0:0:
384,176,168283,1,0,0:0:0:0:
408,176,168342,1,2,0:0:0:0:
496,144,168400,1,0,0:0:0:0:
464,144,168489,1,0,0:0:0:0:
432,152,168577,1,0,0:0:0:0:
408,152,168636,1,0,0:0:0:0:
408,152,168694,1,0,0:0:0:0:
464,160,168753,1,2,0:0:0:0:
448,160,168842,1,0,0:0:0:0:
408,216,168930,1,2,0:0:0:0:
408,216,168989,1,2,0:0:0:0:
464,160,169047,1,0,0:0:0:0:
464,144,169106,1,2,0:0:0:0:
440,160,169194,1,0,0:0:0:0:
408,216,169283,1,4,0:0:0:0:
256,192,169305,12,4,176276,0:0:0:0:
