osu file format v14

[General]
AudioFilename: Naisho no Hanashi.mp3
AudioLeadIn: 0
PreviewTime: 41324
Countdown: 0
SampleSet: Soft
StackLeniency: 0.7
Mode: 0
LetterboxInBreaks: 0
WidescreenStoryboard: 0

[Editor]
DistanceSpacing: 1
BeatDivisor: 4
GridSize: 16
TimelineZoom: 1

[Metadata]
Title:Naisho no Hanashi
TitleUnicode:ナイショのはなし
Artist:Nakajima Megumi
ArtistUnicode:中島愛
Creator:Cordi
Version:Colour
Source:
Tags:melody 2010 ez mapping ez graveyard cut short
BeatmapID:1317463
BeatmapSetID:625176

[Difficulty]
HPDrainRate:6
CircleSize:3.5
OverallDifficulty:6
ApproachRate:7.5
SliderMultiplier:1.5
SliderTickRate:2

[Events]
//Background and Video events
0,0,"bg.jpg",0,0
//Break Periods
//Storyboard Layer 0 (Background)
//Storyboard Layer 1 (Fail)
//Storyboard Layer 2 (Pass)
//Storyboard Layer 3 (Foreground)
//Storyboard Sound Samples

[TimingPoints]
2165,530.973451327434,4,2,1,40,1,0
2165,-133.333333333333,4,2,1,40,0,0
21280,-133.333333333333,4,2,1,45,0,0
40660,-133.333333333333,4,2,1,50,0,0
42518,-100,4,2,1,55,0,0
59510,-100,4,2,1,55,0,0
76501,-100,4,2,1,55,0,0
76634,-100,4,2,1,20,0,0
78094,-100,4,2,1,5,0,0

[Colours]
Combo1 : 128,128,128
Combo2 : 250,150,90
Combo3 : 240,223,100
Combo4 : 185,231,109
Combo5 : 223,117,157

[HitObjects]
57,228,3226,70,0,P|87:216|121:211,1,56.2500021457673
132,308,3757,2,0,P|158:317|186:321,1,56.2500021457673
334,217,4288,5,2,0:0:0:0:
365,198,4819,1,0,0:0:0:0:
400,191,5350,1,2,0:0:0:0:
437,196,5881,1,0,0:0:0:0:
404,312,6147,1,0,0:0:0:0:
334,217,6412,5,2,0:0:0:0:
302,198,6943,1,0,0:0:0:0:
267,191,7474,1,2,0:0:0:0:
230,196,8005,1,0,0:0:0:0:
264,312,8271,1,0,0:0:0:0:
334,217,8536,53,2,0:0:0:0:
334,180,9067,1,0,0:0:0:0:
334,143,9598,1,2,0:0:0:0:
334,107,10129,1,0,0:0:0:0:
334,217,10395,1,0,0:0:0:0:
298,78,10660,5,2,0:0:0:0:
372,78,11191,1,0,0:0:0:0:
264,180,11722,38,0,P|229:187|186:190,1,56.2500021457673,2|0,0:0|0:0,0:0:0:0:
334,143,12253,1,0,0:0:0:0:
405,180,12518,1,0,0:0:0:0:
484,40,12784,6,0,P|456:35|423:34,1,56.2500021457673,2|0,0:0|0:0,0:0:0:0:
326,104,13315,2,0,P|298:109|265:110,1,56.2500021457673,8|0,0:0|0:0,0:0:0:0:
152,71,13846,1,2,0:0:0:0:
194,349,14377,1,0,0:0:0:0:
232,231,14642,1,0,0:0:0:0:
69,271,14908,6,0,P|98:283|130:286,1,56.2500021457673,2|0,0:0|0:0,0:0:0:0:
232,231,15439,2,0,P|260:225|290:223,1,56.2500021457673,8|0,0:0|0:0,0:0:0:0:
403,265,15970,2,0,L|408:151,1,112.500004291535,2|0,0:0|0:0,0:0:0:0:
470,44,16766,1,0,0:0:0:0:
303,27,17032,54,0,P|301:59|306:87,1,56.2500021457673,2|0,0:0|0:0,0:0:0:0:
407,152,17563,2,0,P|411:124|407:94,1,56.2500021457673,8|0,0:0|0:0,0:0:0:0:
313,177,18094,2,0,L|201:185,1,112.500004291535,2|0,0:0|0:0,0:0:0:0:
100,259,18890,1,0,0:0:0:0:
23,109,19156,6,0,P|52:101|84:101,1,56.2500021457673,2|0,0:0|0:0,0:0:0:0:
183,165,19687,2,0,P|212:173|244:173,1,56.2500021457673,8|0,0:0|0:0,0:0:0:0:
367,93,20218,37,2,0:0:0:0:
309,227,20483,1,2,0:0:0:0:
321,153,20749,1,8,0:0:0:0:
332,298,21014,1,2,0:0:0:0:
475,216,21280,37,6,0:0:0:0:
185,93,21811,2,0,P|213:87|247:87,1,56.2500021457673,8|0,0:0|0:0,0:0:0:0:
93,133,22341,2,0,P|66:128|28:127,2,56.2500021457673,2|0|8,0:0|0:0|0:0,0:0:0:0:
165,204,23138,1,2,0:0:0:0:
99,20,23403,37,2,0:0:0:0:
182,35,23669,1,0,0:0:0:0:
93,133,23934,1,8,0:0:0:0:
176,118,24200,1,0,0:0:0:0:
34,74,24465,1,2,0:0:0:0:
250,81,24731,1,2,0:0:0:0:
61,71,24996,2,0,L|121:64,1,56.2500021457673,8|0,0:0|0:0,0:0:0:0:
149,246,25527,22,0,P|94:230|39:229,1,112.500004291535,2|8,0:0|0:0,0:0:0:0:
101,348,26324,1,0,0:0:0:0:
101,348,26589,2,0,L|159:344,1,56.2500021457673,2|2,0:0|0:0,0:0:0:0:
302,261,27120,1,8,0:0:0:0:
271,349,27386,1,2,0:0:0:0:
192,161,27651,54,0,P|220:155|249:159,1,56.2500021457673,2|0,0:0|0:0,0:0:0:0:
93,296,28182,2,0,L|32:299,1,56.2500021457673,8|0,0:0|0:0,0:0:0:0:
106,202,28713,1,0,0:0:0:0:
182,259,28979,1,2,0:0:0:0:
354,196,29244,38,0,L|356:158,1,28.1250010728836,8|0,0:0|0:0,0:0:0:0:
276,251,29510,2,0,L|274:289,1,28.1250010728836
381,348,29775,38,0,P|434:329|463:283,1,112.500004291535,6|8,0:0|0:0,0:0:0:0:
465,133,30572,1,0,0:0:0:0:
465,133,30837,2,0,L|470:196,1,56.2500021457673,2|0,0:0|0:0,0:0:0:0:
333,153,31368,1,8,0:0:0:0:
258,200,31634,1,2,0:0:0:0:
94,72,31899,38,0,P|124:64|158:63,1,56.2500021457673,2|0,0:0|0:0,0:0:0:0:
39,206,32430,2,0,L|32:147,1,56.2500021457673,8|0,0:0|0:0,0:0:0:0:
122,252,32961,1,0,0:0:0:0:
227,275,33226,1,2,0:0:0:0:
345,262,33492,1,8,0:0:0:0:
403,26,34023,22,0,P|411:58|414:89,1,56.2500021457673,2|0,0:0|0:0,0:0:0:0:
409,166,34554,1,8,0:0:0:0:
337,116,34819,1,2,0:0:0:0:
489,140,35085,1,2,0:0:0:0:
307,110,35350,1,2,0:0:0:0:
143,174,35616,54,0,P|141:209|146:242,1,56.2500021457673,8|0,0:0|0:0,0:0:0:0:
182,311,36147,1,2,0:0:0:0:
232,237,36412,1,2,0:0:0:0:
93,304,36678,1,8,0:0:0:0:
54,222,36943,1,2,0:0:0:0:
182,311,37209,2,0,P|210:321|243:326,1,56.2500021457673,2|0,0:0|0:0,0:0:0:0:
356,265,37740,38,0,L|359:299,1,28.1250010728836,8|0,0:0|0:0,0:0:0:0:
402,155,38005,2,0,L|399:189,1,28.1250010728836
344,67,38271,37,2,0:0:0:0:
194,113,38536,1,0,0:0:0:0:
194,113,38802,1,8,0:0:0:0:
268,29,39067,53,2,0:0:0:0:
242,181,39332,1,0,0:0:0:0:
242,181,39598,1,2,0:0:0:0:
379,162,39864,53,8,0:0:0:0:
156,134,40129,1,2,0:0:0:0:
348,78,40395,1,2,0:0:0:0:
251,287,40660,53,4,0:0:0:0:
260,31,40926,1,4,0:0:0:0:
270,182,41191,1,0,0:0:0:0:
338,149,41457,21,0,0:0:0:0:
311,120,41589,1,0,0:0:0:0:
274,107,41722,1,2,0:0:0:0:
236,115,41855,1,8,0:0:0:0:
207,141,41988,53,8,0:0:0:0:
181,152,42120,1,0,0:0:0:0:
153,156,42253,1,2,0:0:0:0:
125,153,42386,1,0,0:0:0:0:
91,85,42518,38,0,B|86:199|86:199|94:234,1,150,6|8,0:0|0:0,0:0:0:0:
93,233,43315,1,0,0:0:0:0:
264,162,43580,1,0,0:0:0:0:
152,140,43846,1,2,0:0:0:0:
325,221,44111,1,8,0:0:0:0:
437,199,44377,1,0,0:0:0:0:
437,199,44642,22,0,B|446:241|439:282,2,75,2|0|8,0:0|0:0|0:0,0:0:0:0:
347,33,45439,1,0,0:0:0:0:
267,181,45704,1,0,0:0:0:0:
202,92,45970,1,2,0:0:0:0:
49,230,46235,2,0,B|97:223|97:223|142:226,1,75,8|0,0:0|0:0,0:0:0:0:
288,361,46766,6,0,P|279:318|285:279,1,75,2|0,0:0|0:0,0:0:0:0:
380,124,47297,2,0,L|462:110,1,75,8|0,0:0|0:0,0:0:0:0:
453,111,47695,1,2,0:0:0:0:
453,111,47828,1,0,0:0:0:0:
389,244,48094,1,2,0:0:0:0:
270,115,48359,1,8,0:0:0:0:
270,115,48492,1,0,0:0:0:0:
270,115,48625,1,0,0:0:0:0:
126,287,48890,6,0,P|169:281|206:284,1,75,2|0,0:0|0:0,0:0:0:0:
138,34,49421,2,0,B|128:73|128:73|135:106,1,75,8|0,0:0|0:0,0:0:0:0:
196,160,49819,1,2,0:0:0:0:
196,160,49952,2,0,L|271:153,1,75,0|2,0:0|0:0,0:0:0:0:
434,90,50483,22,0,L|432:128,1,37.5,8|0,0:0|0:0,0:0:0:0:
380,259,50749,2,0,L|378:221,1,37.5
311,342,51014,54,0,B|267:337|230:318|230:318|199:336|161:343,1,150,2|8,0:0|0:0,0:0:0:0:
61,281,51811,1,0,0:0:0:0:
135,105,52076,1,0,0:0:0:0:
151,235,52341,1,2,0:0:0:0:
42,76,52607,2,0,B|22:117|23:158,1,75,8|0,0:0|0:0,0:0:0:0:
227,253,53138,22,0,L|323:242,1,75,2|0,0:0|0:0,0:0:0:0:
463,129,53669,1,8,0:0:0:0:
488,259,53934,1,0,0:0:0:0:
390,191,54200,1,0,0:0:0:0:
365,321,54465,1,2,0:0:0:0:
251,108,54731,2,0,P|241:145|238:187,1,75,8|0,0:0|0:0,0:0:0:0:
249,350,55262,6,0,L|242:273,1,75,2|0,0:0|0:0,0:0:0:0:
373,93,55793,2,0,P|408:78|445:82,1,75,8|0,0:0|0:0,0:0:0:0:
443,82,56191,1,2,0:0:0:0:
443,82,56324,1,0,0:0:0:0:
367,242,56589,1,2,0:0:0:0:
275,156,56855,1,8,0:0:0:0:
275,156,56988,1,0,0:0:0:0:
275,156,57120,1,0,0:0:0:0:
127,257,57386,6,0,B|79:250|79:250|44:253,1,75,2|0,0:0|0:0,0:0:0:0:
209,291,57917,2,0,L|255:284,2,37.5,8|0|0,0:0|0:0|0:0,0:0:0:0:
156,80,58448,5,0,0:0:0:0:
185,52,58580,1,0,0:0:0:0:
225,52,58713,1,2,0:0:0:0:
254,80,58846,1,0,0:0:0:0:
257,120,58979,6,0,L|254:166,1,37.5,8|0,0:0|0:0,0:0:0:0:
209,291,59244,2,0,L|206:244,1,37.5,0|8,0:0|0:0,0:0:0:0:
321,320,59510,38,0,B|376:311|425:282|425:282|405:304|400:330,1,150,6|8,0:0|0:0,0:0:0:0:
369,165,60306,1,0,0:0:0:0:
404,314,60572,1,0,0:0:0:0:
310,228,60837,1,2,0:0:0:0:
291,356,61103,1,8,0:0:0:0:
161,341,61368,1,0,0:0:0:0:
310,228,61634,54,0,B|350:216|350:216|386:221,1,75,2|0,0:0|0:0,0:0:0:0:
244,292,62165,1,8,0:0:0:0:
136,160,62430,1,0,0:0:0:0:
136,160,62695,2,0,B|176:148|176:148|212:153,1,75,2|2,0:0|0:0,0:0:0:0:
57,298,63226,2,0,P|48:259|48:216,1,75,8|0,0:0|0:0,0:0:0:0:
246,335,63757,54,0,L|324:328,1,75,2|0,0:0|0:0,0:0:0:0:
485,223,64288,2,0,P|489:267|484:297,1,75,8|0,0:0|0:0,0:0:0:0:
483,297,64687,1,2,0:0:0:0:
483,297,64819,1,0,0:0:0:0:
354,204,65085,1,2,0:0:0:0:
447,111,65350,1,8,0:0:0:0:
447,111,65483,1,0,0:0:0:0:
447,111,65616,1,0,0:0:0:0:
198,42,65881,38,0,P|238:24|272:23,1,75,2|0,0:0|0:0,0:0:0:0:
168,237,66412,2,0,P|128:255|94:256,1,75,8|0,0:0|0:0,0:0:0:0:
27,233,66811,1,2,0:0:0:0:
27,233,66943,2,0,L|18:158,1,75,0|2,0:0|0:0,0:0:0:0:
216,69,67474,6,0,L|206:111,1,37.5,8|0,0:0|0:0,0:0:0:0:
111,17,67740,2,0,L|121:59,1,37.5
281,160,68005,38,0,B|322:153|357:131|357:131|390:140|434:141,1,150,2|8,0:0|0:0,0:0:0:0:
106,317,69067,1,0,0:0:0:0:
73,146,69333,1,2,0:0:0:0:
34,340,69598,2,0,L|105:317,1,75,8|0,0:0|0:0,0:0:0:0:
163,75,70129,54,0,P|197:59|233:68,1,75,2|0,0:0|0:0,0:0:0:0:
204,283,70660,1,8,0:0:0:0:
157,172,70926,1,0,0:0:0:0:
117,250,71191,1,0,0:0:0:0:
198,97,71457,1,2,0:0:0:0:
240,174,71722,1,8,0:0:0:0:
159,21,71988,1,0,0:0:0:0:
82,177,72253,54,0,P|118:178|160:171,1,75,2|0,0:0|0:0,0:0:0:0:
388,77,72784,2,0,L|312:71,1,75,8|0,0:0|0:0,0:0:0:0:
245,39,73182,1,2,0:0:0:0:
245,39,73315,2,0,L|194:43,2,37.5,0|0|2,0:0|0:0|0:0,0:0:0:0:
410,183,73846,2,0,P|423:219|426:255,1,75,8|0,0:0|0:0,0:0:0:0:
147,320,74377,38,0,L|222:325,1,75,6|0,0:0|0:0,0:0:0:0:
54,230,74908,2,0,L|92:222,2,37.5,8|0|0,0:0|0:0|0:0,0:0:0:0:
233,143,75439,21,0,0:0:0:0:
248,105,75572,1,0,0:0:0:0:
230,70,75704,1,2,0:0:0:0:
191,61,75837,1,0,0:0:0:0:
159,86,75970,5,8,0:0:0:0:
129,80,76103,1,0,0:0:0:0:
99,77,76235,1,0,0:0:0:0:
68,78,76368,1,8,0:0:0:0:
34,102,76501,5,2,0:0:0:0:
256,192,76634,12,0,78094,0:0:0:0:
