osu file format v14

[General]
AudioFilename: audio.mp3
AudioLeadIn: 0
PreviewTime: 47724
Countdown: 0
SampleSet: Soft
StackLeniency: 0.7
Mode: 0
LetterboxInBreaks: 0
WidescreenStoryboard: 1

[Editor]
Bookmarks: 2488,14501,26514,38527,50540,62552,74565,86578,95587
DistanceSpacing: 0.9
BeatDivisor: 4
GridSize: 4
TimelineZoom: 1

[Metadata]
Title:Kagami no Naka no Actress (TV Size)
TitleUnicode:鏡の中のアクトレス (TV Size)
Artist:Nakahara Meiko
ArtistUnicode:中原めいこ
Creator:bossandy
Version:The Actress In the Mirror
Source:きまぐれオレンジ☆ロード
Tags:Kimagure Orange★Road The Actress In the Mirror Anime Japanese J-pop Jpop pop opening op3 まつもと泉 Matsumoto Izumi 春日恭介 Kasuga kyosuke 鮎川まどか Ayukawa Madoka 檜山ひかる Hiyama Hikaru Silent Rock
BeatmapID:2883509
BeatmapSetID:1397110

[Difficulty]
HPDrainRate:5
CircleSize:4
OverallDifficulty:6.9
ApproachRate:8.9
SliderMultiplier:1.8
SliderTickRate:1

[Events]
//Background and Video events
Video,0,"video.avi"
0,0,"BG.jpg",0,0
//Break Periods
//Storyboard Layer 0 (Background)
//Storyboard Layer 1 (Fail)
//Storyboard Layer 2 (Pass)
//Storyboard Layer 3 (Foreground)
//Storyboard Layer 4 (Overlay)
//Storyboard Sound Samples

[TimingPoints]
1362,375.398861290121,4,2,1,70,1,0
2489,375.398861290121,4,2,1,70,1,0
4272,-100,4,2,1,5,0,0
4365,-100,4,2,1,70,0,0
10090,-100,4,2,1,5,0,0
10184,-100,4,2,1,70,0,0
12155,-100,4,2,1,5,0,0
12249,-100,4,2,1,70,0,0
14783,-100,4,2,1,5,0,0
14877,-100,4,2,1,70,0,0
21165,-100,4,2,1,5,0,0
21259,-100,4,2,1,70,0,0
26796,-100,4,2,1,5,0,0
26890,-100,4,2,1,70,0,0
38527,-125,4,2,1,60,0,0
44533,-100,4,2,1,70,0,0
46316,-100,4,2,1,5,0,0
46410,-100,4,2,1,70,0,0
48475,-125,4,2,1,80,0,0
50352,-83.3333333333333,4,2,1,90,0,1
61051,-166.666666666667,4,2,1,90,0,1
61332,-166.666666666667,4,2,1,5,0,1
61426,-83.3333333333333,4,2,1,90,0,1
61473,-83.3333333333333,4,2,1,5,0,1
61802,-83.3333333333333,4,2,1,90,0,1
61848,-83.3333333333333,4,2,1,5,0,1
61989,-83.3333333333333,4,2,1,90,0,1
62036,-83.3333333333333,4,2,1,5,0,1
62365,-83.3333333333333,4,2,1,90,0,1
71374,-83.3333333333333,4,2,1,90,0,0
72876,-83.3333333333333,4,2,1,90,0,0
72923,-83.3333333333333,4,2,1,5,0,0
73251,-83.3333333333333,4,2,1,90,0,0
73298,-83.3333333333333,4,2,1,5,0,0
73627,-83.3333333333333,4,2,1,90,0,0
73674,-83.3333333333333,4,2,1,5,0,0
73814,-83.3333333333333,4,2,1,90,0,0
74377,-83.3333333333333,4,2,1,90,0,1
84232,-83.3333333333333,4,2,1,5,0,1
84325,-83.3333333333333,4,2,1,90,0,1
85076,-166.666666666667,4,2,1,90,0,1
85357,-166.666666666667,4,2,1,5,0,1
85451,-83.3333333333333,4,2,1,90,0,1
85498,-83.3333333333333,4,2,1,5,0,1
85827,-83.3333333333333,4,2,1,90,0,1
85873,-83.3333333333333,4,2,1,5,0,1
86014,-83.3333333333333,4,2,1,90,0,1
86061,-83.3333333333333,4,2,1,5,0,1
86202,-83.3333333333333,4,2,1,90,0,1
86249,-83.3333333333333,4,2,1,5,0,1
86390,-83.3333333333333,4,2,1,90,0,1
95400,-125,4,2,1,90,0,0
95587,375.398861290121,4,2,1,60,1,0
95587,-125,4,2,1,60,0,0
101593,-125,4,2,1,60,0,0
103094,-125,4,2,1,70,0,0
104784,-125,4,2,1,80,0,0

[Colours]
Combo1 : 255,177,140
Combo2 : 0,116,244
Combo3 : 254,218,50
Combo4 : 2,253,102

[HitObjects]
96,320,1362,5,10,0:0:0:0:
416,320,1737,1,10,0:0:0:0:
416,320,1925,1,10,0:0:0:0:
256,44,2300,1,10,0:0:0:0:
188,160,2488,6,0,L|84:144,1,90,0|0,3:0|0:0,0:0:0:0:
276,216,2864,2,0,P|327:207|372:167,1,90,10|0,0:2|0:0,0:0:0:0:
280,112,3239,1,2,3:2:0:0:
188,252,3427,2,0,P|176:292|196:352,1,90,2|8,0:0|0:0,0:0:0:0:
268,300,3802,1,0,0:0:0:0:
100,356,3990,6,0,P|84:291|102:226,1,135,2|0,3:2|0:0,0:0:0:0:
102,226,4365,1,10,0:0:0:0:
268,300,4553,2,0,B|344:332|344:332|392:348|440:320,1,180,2|2,0:0|3:2,0:0:0:0:
372,192,5116,1,10,0:0:0:0:
437,63,5304,1,2,0:0:0:0:
288,136,5492,6,0,P|268:176|284:240,1,90,0|2,3:0|0:0,0:0:0:0:
460,177,5867,2,0,L|364:193,1,90,10|0,0:0|0:0,0:0:0:0:
288,136,6242,1,2,3:2:0:0:
115,94,6430,2,0,L|204:80,1,90,2|8,0:0|0:0,0:0:0:0:
68,168,6806,6,0,P|36:140|32:68,1,90,2|0,0:0|3:0,0:0:0:0:
156,168,7181,2,0,P|147:209|87:249,1,90,2|8,0:0|0:0,0:0:0:0:
112,92,7556,2,0,P|152:78|216:110,1,90,2|0,0:0|3:0,0:0:0:0:
68,168,7932,1,2,3:2:0:0:
196,90,8119,1,10,0:0:0:0:
68,20,8307,1,2,0:0:0:0:
156,168,8495,6,0,P|200:176|256:152,1,90,0|2,3:0|0:0,0:0:0:0:
380,96,8870,2,0,P|337:82|293:90,1,90,8|0,0:0|0:0,0:0:0:0:
324,264,9246,2,0,L|330:174,1,90,2|2,3:2|0:0,0:0:0:0:
293,90,9621,1,8,0:0:0:0:
420,180,9809,6,0,L|409:314,1,135,2|0,0:0|0:0,0:0:0:0:
409,314,10184,1,2,0:0:0:0:
236,252,10372,2,0,L|242:162,1,90,10|2,0:0|0:0,0:0:0:0:
152,300,10747,2,0,L|226:350,1,90,2|2,3:2|3:2,0:0:0:0:
152,203,11123,2,0,L|71:242,1,90,10|0,0:0|0:0,0:0:0:0:
236,252,11498,6,0,L|242:162,1,90,2|2,3:2|0:0,0:0:0:0:
152,300,11873,2,0,P|216:344|288:324,1,135,10|0,0:0|0:0,0:0:0:0:
269,336,12249,1,2,3:2:0:0:
384,232,12437,1,0,0:0:0:0:
432,376,12624,1,8,0:0:0:0:
269,336,12812,6,0,P|272:288|308:252,1,90,2|0,3:2|3:0,0:0:0:0:
180,136,13187,2,0,P|207:170|209:214,1,90,10|8,0:0|3:0,0:0:0:0:
209,214,13469,1,0,3:0:0:0:
209,214,13563,1,4,3:0:0:0:
108,76,13750,2,0,P|142:48|186:46,1,90,10|8,0:0|3:0,0:0:0:0:
187,46,14032,1,0,3:0:0:0:
187,46,14126,1,4,3:0:0:0:
96,164,14314,1,10,0:0:0:0:
260,100,14501,6,0,P|324:108|384:72,1,135,6|0,3:2|0:0,0:0:0:0:
382,73,14877,2,0,L|368:176,1,90,10|0,0:0|0:0,0:0:0:0:
312,16,15252,1,2,3:2:0:0:
468,56,15440,1,2,0:0:0:0:
312,16,15627,1,10,0:0:0:0:
208,180,15815,6,0,P|128:160|52:216,1,180,2|2,0:0|0:0,0:0:0:0:
152,356,16378,2,0,L|144:252,1,90,10|2,0:0|0:0,0:0:0:0:
244,308,16754,1,2,3:2:0:0:
244,308,16941,1,0,3:0:0:0:
208,180,17129,2,0,L|216:76,1,90,10|2,0:0|0:0,0:0:0:0:
304,148,17504,5,0,3:0:0:0:
424,244,17692,2,0,P|376:248|324:216,2,90,2|10|2,0:0|0:0|0:0,0:0:0:0:
476,356,18255,2,0,B|512:280|512:280|532:228|500:176,1,180,2|10,3:2|0:0,0:0:0:0:
454,75,18818,2,0,B|418:151|418:151|398:203|430:255,1,180,2|2,0:0|0:0,0:0:0:0:
365,34,19381,6,0,L|328:116,1,90,8|0,0:0|0:0,0:0:0:0:
423,243,19757,1,2,3:2:0:0:
423,243,19945,1,2,3:2:0:0:
276,320,20132,2,0,L|313:238,1,90,8|2,0:0|0:0,0:0:0:0:
196,382,20508,6,0,P|174:340|187:267,1,90,0|0,3:0|0:0,0:0:0:0:
70,212,20883,2,0,P|134:227|189:191,1,135,10|0,0:0|0:0,0:0:0:0:
189,191,21258,2,0,L|283:202,1,90,2|0,3:2|0:0,0:0:0:0:
121,140,21634,1,8,0:0:0:0:
173,298,21822,1,2,0:0:0:0:
278,201,22009,6,0,P|296:163|285:106,1,90,0|2,3:0|0:0,0:0:0:0:
289,301,22385,2,0,P|328:286|361:238,1,90,10|2,0:0|0:0,0:0:0:0:
208,260,22760,1,2,3:2:0:0:
208,260,22948,1,0,3:0:0:0:
248,378,23135,1,10,0:0:0:0:
105,302,23323,1,2,0:0:0:0:
278,201,23511,6,0,B|355:160|355:160|405:139|462:177,2,180,2|8|0,3:2|0:0|3:0,0:0:0:0:
394,233,24449,1,2,0:0:0:0:
279,115,24637,1,10,0:0:0:0:
269,300,24825,6,0,P|194:264|190:156,1,180,6|2,3:2|3:2,0:0:0:0:
279,115,25388,1,10,0:0:0:0:
394,233,25576,2,0,P|469:197|473:89,1,180,6|0,3:2|3:0,0:0:0:0:
384,50,26139,2,0,L|392:150,1,90,8|0|0|0,0:0|0:0,0:0:0:0:
294,0,26514,6,0,P|230:-8|170:28,1,135,0|0,3:0|0:0,0:0:0:0:
171,26,26889,2,0,L|178:128,1,90,10|0,0:0|0:0,0:0:0:0:
92,64,27265,1,2,3:2:0:0:
251,83,27453,1,2,0:0:0:0:
92,64,27640,1,10,0:0:0:0:
182,206,27828,6,0,P|266:195|341:265,1,180,2|2,0:0|0:0,0:0:0:0:
151,304,28391,2,0,P|195:309|237:293,1,90,8|2,0:0|0:0,0:0:0:0:
81,229,28766,1,2,3:2:0:0:
81,229,28954,1,0,3:0:0:0:
188,116,29142,2,0,L|181:205,1,90,10|2,0:0|0:0,0:0:0:0:
94,68,29517,5,0,3:0:0:0:
81,229,29705,1,2,0:0:0:0:
188,116,29893,2,0,L|181:26,1,90,10|2,0:0|0:0,0:0:0:0:
88,149,30268,1,2,3:2:0:0:
267,185,30456,2,0,P|294:144|285:83,1,90,2|8,0:0|0:0,0:0:0:0:
317,261,30831,2,0,P|242:275|165:189,1,180,2|0,0:0|0:0,0:0:0:0:
163,32,31394,6,0,P|183:64|186:121,1,90,8|0,0:0|0:0,0:0:0:0:
89,96,31770,1,2,3:2:0:0:
89,96,31957,1,2,3:2:0:0:
267,185,32145,2,0,P|286:143|288:93,1,90,8|2,0:0|0:0,0:0:0:0:
169,210,32520,6,0,L|65:187,1,90,0|0,3:0|0:0,0:0:0:0:
244,288,32896,2,0,L|347:265,1,90,10|0,0:0|0:0,0:0:0:0:
169,210,33271,1,2,3:2:0:0:
244,288,33459,1,2,0:0:0:0:
121,338,33647,1,8,0:0:0:0:
262,381,33834,6,0,P|309:355|318:230,1,180,2|0,0:0|0:0,0:0:0:0:
159,288,34397,2,0,B|199:303|199:303|246:287,1,90,10|0,0:0|0:0,0:0:0:0:
323,239,34773,1,2,3:2:0:0:
323,239,34961,1,2,3:2:0:0:
173,197,35148,1,8,0:0:0:0:
323,239,35336,1,2,0:0:0:0:
145,375,35524,6,0,B|175:191,1,180,0|8,3:0|0:0,0:0:0:0:
191,92,36087,1,0,0:0:0:0:
173,197,36274,1,2,3:2:0:0:
271,158,36462,1,2,0:0:0:0:
369,119,36650,1,10,0:0:0:0:
467,80,36837,6,0,L|456:179,1,90,2|0,0:0|3:0,0:0:0:0:
369,119,37213,2,0,L|358:218,1,90,2|8,0:0|0:0,0:0:0:0:
271,158,37588,2,0,L|260:257,1,90,2|0,0:0|3:0,0:0:0:0:
173,197,37964,5,10,0:0:0:0:
370,119,38151,1,8,0:0:0:0:
239,63,38339,1,14,0:0:0:0:
271,158,38527,6,0,L|261:245,1,72,0|0,3:0|0:0,0:0:0:0:
239,63,38902,1,10,0:0:0:0:
173,135,39278,2,0,L|86:125,1,72,2|2,0:0|0:0,0:0:0:0:
239,63,39653,1,8,0:0:0:0:
271,158,39841,5,2,3:2:0:0:
271,158,40028,1,0,3:0:0:0:
271,158,40216,1,0,3:0:0:0:
337,86,40404,1,10,0:0:0:0:
369,181,40591,2,0,P|438:179|408:114,1,144,2|2,0:0|0:0,0:0:0:0:
337,86,41155,1,8,0:0:0:0:
271,158,41342,5,0,3:0:0:0:
271,158,41530,1,0,3:0:0:0:
239,63,41905,1,10,0:0:0:0:
173,135,42281,2,0,L|164:206,1,72,2|2,0:0|0:0,0:0:0:0:
141,40,42656,1,8,0:0:0:0:
75,112,42844,5,2,3:2:0:0:
75,112,43032,1,0,3:0:0:0:
75,112,43219,1,0,3:0:0:0:
43,17,43407,1,10,0:0:0:0:
173,135,43595,2,0,P|142:191|61:215,1,144,2|2,0:0|0:0,0:0:0:0:
86,121,44158,1,8,0:0:0:0:
53,311,44345,1,0,3:0:0:0:
231,242,44533,6,0,L|322:253,1,90,0|0,3:0|0:0,0:0:0:0:
142,321,44909,2,0,L|52:310,1,90,10|0,0:0|0:0,0:0:0:0:
231,242,45284,1,2,3:2:0:0:
231,242,45472,1,2,3:2:0:0:
142,321,45659,1,8,0:0:0:0:
250,228,45847,1,2,0:0:0:0:
65,138,46035,6,0,P|125:172|193:159,1,135,0|0,3:0|0:0,0:0:0:0:
187,161,46410,2,0,P|235:141|279:142,1,90,10|0,0:0|0:0,0:0:0:0:
132,0,46786,2,0,L|144:91,1,90,2|0,3:2|3:0,0:0:0:0:
261,317,47161,2,0,L|249:226,1,90,10|0,0:0|0:0,0:0:0:0:
143,89,47536,5,0,3:0:0:0:
369,295,47912,1,10,0:0:0:0:
256,192,48099,1,2,0:0:0:0:
359,79,48287,1,2,3:2:0:0:
472,182,48475,5,10,0:0:0:0:
40,202,48850,1,10,0:0:0:0:
256,192,49226,5,10,0:0:0:0:
153,305,49413,1,10,0:0:0:0:
40,202,49601,1,10,0:0:0:0:
143,89,49789,1,10,0:0:0:0:
256,192,49976,5,2,3:2:0:0:
359,305,50164,1,2,3:2:0:0:
476,152,50352,6,0,B|490:90|443:56|443:56|386:52|357:108,1,215.999993408203,6|2,3:2|0:0,0:0:0:0:
432,228,50915,2,0,P|379:221|334:192,1,107.999996704102,10|2,0:0|0:0,0:0:0:0:
292,48,51290,1,2,3:2:0:0:
292,48,51478,1,2,3:2:0:0:
192,144,51666,2,0,L|204:264,1,107.999996704102,10|2,0:0|0:0,0:0:0:0:
91,120,52041,6,0,P|114:71|160:44,1,107.999996704102,2|0,3:2|0:0,0:0:0:0:
192,144,52417,1,10,0:0:0:0:
4,92,52604,1,2,0:0:0:0:
160,44,52792,1,0,3:0:0:0:
160,44,52980,1,2,3:2:0:0:
36,192,53167,1,10,0:0:0:0:
160,44,53355,1,2,0:0:0:0:
279,195,53543,6,0,P|328:228|392:224,1,107.999996704102,0|2,3:0|0:0,0:0:0:0:
372,32,53918,2,0,L|356:140,1,107.999996704102,10|2,0:0|0:0,0:0:0:0:
400,320,54294,1,2,3:2:0:0:
400,320,54481,1,2,3:2:0:0:
280,196,54669,2,0,L|296:304,1,107.999996704102,10|2,0:0|0:0,0:0:0:0:
472,264,55044,6,0,P|424:232|360:236,1,107.999996704102,2|2,3:2|0:0,0:0:0:0:
295,302,55420,1,10,0:0:0:0:
356,138,55607,1,2,0:0:0:0:
204,264,55795,1,0,3:0:0:0:
204,264,55983,1,2,3:2:0:0:
265,100,56171,1,10,0:0:0:0:
295,302,56358,1,2,0:0:0:0:
180,164,56546,5,0,3:0:0:0:
28,264,56734,2,0,L|40:380,1,107.999996704102,2|10,0:0|0:0,0:0:0:0:
16,164,57109,1,2,0:0:0:0:
168,264,57297,2,0,L|156:380,1,107.999996704102,2|2,3:2|3:2,0:0:0:0:
28,264,57672,1,10,0:0:0:0:
180,164,57860,1,2,0:0:0:0:
8,72,58048,5,2,3:2:0:0:
196,16,58235,1,2,0:0:0:0:
8,72,58423,5,10,0:0:0:0:
196,16,58611,1,2,0:0:0:0:
96,120,58798,5,2,3:2:0:0:
96,120,58986,1,2,3:2:0:0:
256,220,59174,1,10,0:0:0:0:
356,60,59361,1,2,0:0:0:0:
452,180,59549,6,0,L|344:169,1,107.999996704102,0|0,3:0|0:0,0:0:0:0:
255,219,59925,2,0,L|148:209,1,107.999996704102,8|0,0:0|0:0,0:0:0:0:
344,169,60300,1,0,3:0:0:0:
344,169,60488,1,0,3:0:0:0:
344,276,60675,1,8,0:0:0:0:
252,120,60863,1,4,3:0:0:0:
148,208,61051,6,0,L|62:199,1,80.9999975280763,0|0,3:0|0:0,0:0:0:0:
67,199,61426,6,0,L|64:148,1,26.9999991760254,10|0,0:0|0:0,0:0:0:0:
252,120,61802,6,0,L|250:146,1,26.9999991760254,10|0,0:0|0:0,0:0:0:0:
148,208,61989,6,0,L|146:234,1,26.9999991760254,2|0,3:2|0:0,0:0:0:0:
44,296,62365,6,0,B|48:224|48:224|24:160|24:160|28:84,1,215.999993408203,6|2,3:2|0:0,0:0:0:0:
148,208,62928,2,0,L|140:340,1,107.999996704102,10|2,0:0|0:0,0:0:0:0:
244,192,63303,1,2,3:2:0:0:
244,192,63491,1,2,3:2:0:0:
112,120,63679,2,0,L|118:12,1,107.999996704102,10|2,0:0|0:0,0:0:0:0:
212,108,64054,6,0,P|268:112|328:72,1,107.999996704102,2|0,3:2|0:0,0:0:0:0:
248,16,64429,1,10,0:0:0:0:
372,164,64617,1,2,0:0:0:0:
212,108,64805,1,0,3:0:0:0:
212,108,64992,1,2,3:2:0:0:
408,72,65180,1,10,0:0:0:0:
212,108,65368,1,2,0:0:0:0:
344,260,65556,6,0,P|404:256|460:216,1,107.999996704102,0|2,3:0|0:0,0:0:0:0:
276,184,65931,2,0,L|252:296,1,107.999996704102,10|2,0:0|0:0,0:0:0:0:
372,164,66306,1,2,3:2:0:0:
372,164,66494,1,2,3:2:0:0:
253,78,66682,2,0,L|277:190,1,107.999996704102,10|2,0:0|0:0,0:0:0:0:
160,112,67057,6,0,P|154:59|177:11,1,107.999996704102,2|2,3:2|0:0,0:0:0:0:
253,78,67433,1,10,0:0:0:0:
140,208,67620,1,2,0:0:0:0:
177,11,67808,1,0,3:0:0:0:
177,11,67996,1,2,3:2:0:0:
64,141,68183,1,10,0:0:0:0:
253,78,68371,1,2,0:0:0:0:
216,275,68559,5,0,3:0:0:0:
329,145,68746,2,0,P|352:96|336:28,1,107.999996704102,2|10,0:0|0:0,0:0:0:0:
253,78,69122,1,2,0:0:0:0:
160,111,69309,2,0,P|154:59|177:11,1,107.999996704102,2|2,3:2|3:2,0:0:0:0:
253,78,69685,1,10,0:0:0:0:
329,145,69873,1,2,0:0:0:0:
176,11,70060,5,8,0:0:0:0:
320,373,70436,1,10,0:0:0:0:
432,176,70811,5,10,0:0:0:0:
309,130,70999,1,6,3:0:0:0:
187,254,71186,1,6,3:0:0:0:
64,208,71374,6,0,P|72:320|156:380,1,215.999993408203,6|0,3:2|0:0,0:0:0:0:
294,241,71937,2,0,L|187:254,1,107.999996704102,8|0,0:0|0:0,0:0:0:0:
64,208,72313,1,2,3:2:0:0:
187,254,72500,1,2,3:2:0:0:
110,85,72688,1,10,0:0:0:0:
233,131,72876,6,0,L|272:148,1,26.9999991760254,0|0,3:0|0:0,0:0:0:0:
186,254,73251,6,0,L|225:271,1,26.9999991760254,14|0,0:0|0:0,0:0:0:0:
110,85,73627,6,0,L|149:102,1,26.9999991760254,14|0,0:0|0:0,0:0:0:0:
233,131,73814,5,0,3:0:0:0:
64,208,74002,5,2,3:2:0:0:
187,254,74190,1,10,0:0:0:0:
110,85,74377,6,0,P|200:8|320:36,1,215.999993408203,2|2,0:0|0:0,0:0:0:0:
276,222,74940,2,0,P|239:183|232:130,1,107.999996704102,10|2,0:0|0:0,0:0:0:0:
344,144,75316,1,2,3:2:0:0:
344,144,75504,1,2,3:2:0:0:
288,320,75691,2,0,P|234:318|192:286,1,107.999996704102,10|2,0:0|0:0,0:0:0:0:
364,264,76067,6,0,P|406:231|459:230,1,107.999996704102,2|0,3:2|0:0,0:0:0:0:
436,316,76442,1,10,0:0:0:0:
296,179,76630,1,2,0:0:0:0:
333,338,76817,1,0,3:0:0:0:
333,338,77005,1,2,3:2:0:0:
399,156,77193,1,10,0:0:0:0:
333,338,77381,1,2,0:0:0:0:
176,224,77568,6,0,B|131:193|131:193|74:201,1,107.999996704102,0|2,3:0|0:0,0:0:0:0:
262,179,77944,2,0,B|166:113,1,107.999996704102,10|2,0:0|0:0,0:0:0:0:
249,273,78319,1,2,3:2:0:0:
249,273,78507,1,2,3:2:0:0:
444,205,78694,2,0,B|341:239,1,107.999996704102,10|2,0:0|0:0,0:0:0:0:
233,379,79070,6,0,L|250:252,1,107.999996704102,2|2,3:2|0:0,0:0:0:0:
360,132,79445,1,10,0:0:0:0:
248,272,79633,1,2,0:0:0:0:
272,68,79821,1,0,3:0:0:0:
272,68,80008,1,2,3:2:0:0:
160,208,80196,1,10,0:0:0:0:
360,132,80384,1,2,0:0:0:0:
199,19,80571,5,0,3:0:0:0:
360,132,80759,2,0,L|339:238,1,107.999996704102,2|10,0:0|0:0,0:0:0:0:
325,29,81135,1,2,0:0:0:0:
145,113,81322,2,0,L|146:220,1,107.999996704102,2|2,3:2|3:2,0:0:0:0:
360,128,81698,1,10,0:0:0:0:
199,19,81885,1,2,0:0:0:0:
52,108,82073,5,2,3:2:0:0:
99,299,82261,1,2,0:0:0:0:
52,108,82448,5,10,0:0:0:0:
99,299,82636,1,2,0:0:0:0:
224,184,82824,5,2,3:2:0:0:
224,184,83012,1,2,3:2:0:0:
304,348,83199,1,10,0:0:0:0:
420,220,83387,1,2,0:0:0:0:
264,268,83575,6,0,P|312:224|316:144,1,107.999996704102,0|2,3:0|0:0,0:0:0:0:
279,105,83856,1,2,0:0:0:0:
279,105,83950,2,0,P|328:144|431:118,1,161.999995056153,10|0,0:0|0:0,0:0:0:0:
467,66,84325,1,2,3:2:0:0:
467,66,84513,1,2,3:2:0:0:
366,46,84701,1,8,0:0:0:0:
509,150,84889,1,4,3:0:0:0:
480,240,85076,6,0,L|488:328,1,80.9999975280763,0|0,3:0|0:0,0:0:0:0:
487,320,85452,6,0,L|490:371,1,26.9999991760254,10|0,0:0|0:0,0:0:0:0:
388,291,85827,6,0,L|390:265,1,26.9999991760254,2|0,3:2|0:0,0:0:0:0:
288,303,86015,6,0,L|290:277,1,26.9999991760254,10|0,0:0|0:0,0:0:0:0:
188,315,86202,6,0,L|190:289,1,26.9999991760254,8|0,0:0|0:0,0:0:0:0:
88,327,86390,6,0,B|97:208|97:208|100:151|64:120,1,215.999993408203,6|2,3:2|0:0,0:0:0:0:
196,208,86953,2,0,L|188:320,1,107.999996704102,10|2,0:0|0:0,0:0:0:0:
296,196,87329,1,2,3:2:0:0:
296,196,87516,1,2,3:2:0:0:
388,291,87704,2,0,L|396:184,1,107.999996704102,10|2,0:0|0:0,0:0:0:0:
424,380,88079,6,0,P|368:384|308:344,1,107.999996704102,2|0,3:2|0:0,0:0:0:0:
388,291,88455,1,10,0:0:0:0:
192,255,88643,1,2,0:0:0:0:
352,199,88830,1,0,3:0:0:0:
352,199,89018,1,2,3:2:0:0:
228,347,89206,1,10,0:0:0:0:
352,199,89393,1,2,0:0:0:0:
155,162,89581,6,0,P|143:110|168:56,1,107.999996704102,0|2,3:0|0:0,0:0:0:0:
352,112,89956,2,0,L|236:120,1,107.999996704102,10|2,0:0|0:0,0:0:0:0:
260,28,90332,1,2,3:2:0:0:
260,28,90520,1,2,3:2:0:0:
232,216,90707,2,0,L|339:208,1,107.999996704102,10|2,0:0|0:0,0:0:0:0:
263,306,91083,6,0,P|210:312|162:289,1,107.999996704102,2|2,3:2|0:0,0:0:0:0:
232,216,91458,1,10,0:0:0:0:
108,96,91646,1,2,0:0:0:0:
162,289,91833,1,0,3:0:0:0:
162,289,92021,1,2,3:2:0:0:
38,169,92209,1,10,0:0:0:0:
232,216,92397,1,2,0:0:0:0:
177,22,92584,5,0,3:0:0:0:
302,143,92772,2,0,L|414:127,1,107.999996704102,2|10,0:0|0:0,0:0:0:0:
232,216,93147,1,2,0:0:0:0:
162,143,93335,2,0,L|50:127,1,107.999996704102,2|2,3:2|3:2,0:0:0:0:
232,216,93710,1,10,0:0:0:0:
302,143,93898,1,2,0:0:0:0:
177,22,94086,5,8,0:0:0:0:
335,362,94461,1,10,0:0:0:0:
56,208,94837,5,10,0:0:0:0:
184,264,95024,1,6,3:0:0:0:
317,130,95212,1,6,3:0:0:0:
440,176,95400,6,0,P|440:88|412:40,1,144,6|0,3:2|0:0,0:0:0:0:
244,120,95962,2,0,L|316:128,1,72,10|0,0:0|0:0,0:0:0:0:
216,224,96337,1,2,0:0:0:0:
216,224,96525,2,0,P|160:272|76:256,1,144,2|0,0:0|0:0,0:0:0:0:
24,120,97088,6,0,L|42:190,1,72,2|0,0:0|0:0,0:0:0:0:
92,43,97463,1,10,0:0:0:0:
92,43,97651,2,0,L|132:187,1,144,2|0,0:0|0:0,0:0:0:0:
191,74,98214,2,0,L|211:143,1,72,10|2,0:0|3:2,0:0:0:0:
92,43,98590,5,2,3:2:0:0:
260,0,98777,1,0,0:0:0:0:
211,143,98965,2,0,L|180:240,1,72,10|0,0:0|0:0,0:0:0:0:
256,344,99340,1,2,0:0:0:0:
256,344,99528,2,0,P|320:368|400:332,1,144,2|0,0:0|0:0,0:0:0:0:
344,200,100091,6,0,P|328:232|326:270,1,72,2|0,0:0|0:0,0:0:0:0:
448,184,100467,1,10,0:0:0:0:
448,184,100654,2,0,P|420:128|344:96,1,144,2|0,0:0|0:0,0:0:0:0:
204,172,101217,2,0,P|239:169|271:153,1,72,8|0,0:0|3:0,0:0:0:0:
216,72,101593,5,6,3:2:0:0:
216,72,101781,1,0,3:0:0:0:
296,312,101968,5,0,3:0:0:0:
296,312,102156,1,0,3:0:0:0:
376,152,102344,5,0,3:0:0:0:
376,152,102531,1,0,3:0:0:0:
199,306,102719,5,0,3:0:0:0:
199,306,102907,1,2,3:2:0:0:
142,135,103094,5,4,3:2:0:0:
142,135,103282,1,2,3:2:0:0:
370,249,103470,5,2,3:2:0:0:
370,249,103658,1,2,3:2:0:0:
136,232,103845,5,0,3:0:0:0:
136,232,104033,1,0,3:0:0:0:
312,78,104221,5,0,3:0:0:0:
312,78,104408,1,8,0:0:0:0:
312,78,104784,5,10,0:0:0:0:
326,297,104971,1,2,3:2:0:0:
129,200,105159,1,2,3:2:0:0:
382,183,105347,5,10,0:0:0:0:
200,306,105535,1,2,3:2:0:0:
185,86,105722,1,2,3:2:0:0:
256,192,105910,5,10,0:0:0:0:
