osu file format v14

[General]
AudioFilename: audio.mp3
AudioLeadIn: 0
PreviewTime: 47724
Countdown: 0
SampleSet: Soft
StackLeniency: 0.4
Mode: 0
LetterboxInBreaks: 0
WidescreenStoryboard: 1

[Editor]
Bookmarks: 2488,14501,26514,38527,50540,62552,74565,86578,95587
DistanceSpacing: 1.1
BeatDivisor: 4
GridSize: 4
TimelineZoom: 1.5

[Metadata]
Title:Kagami no Naka no Actress (TV Size)
TitleUnicode:鏡の中のアクトレス (TV Size)
Artist:Nakahara Meiko
ArtistUnicode:中原めいこ
Creator:bossandy
Version:Silent's Hard
Source:きまぐれオレンジ☆ロード
Tags:Kimagure Orange★Road The Actress In the Mirror Anime Japanese J-pop Jpop pop opening op3 まつもと泉 Matsumoto Izumi 春日恭介 Kasuga kyosuke 鮎川まどか Ayukawa Madoka 檜山ひかる Hiyama Hikaru Silent Rock
BeatmapID:3054386
BeatmapSetID:1397110

[Difficulty]
HPDrainRate:4.5
CircleSize:3.5
OverallDifficulty:5.5
ApproachRate:7.5
SliderMultiplier:1.5
SliderTickRate:1

[Events]
//Background and Video events
Video,0,"video.avi"
0,0,"BG.jpg",0,0
//Break Periods
//Storyboard Layer 0 (Background)
//Storyboard Layer 1 (Fail)
//Storyboard Layer 2 (Pass)
//Storyboard Layer 3 (Foreground)
//Storyboard Layer 4 (Overlay)
//Storyboard Sound Samples

[TimingPoints]
1362,375.398861290121,4,2,1,70,1,0
2489,375.398861290121,4,2,1,70,1,0
2489,-100,4,2,1,70,0,0
7838,-100,4,2,1,5,0,0
7932,-100,4,2,1,70,0,0
11404,-100,4,2,1,5,0,0
11498,-100,4,2,1,70,0,0
21165,-100,4,2,1,5,0,0
21259,-100,4,2,1,70,0,0
29423,-100,4,2,1,5,0,0
29517,-100,4,2,1,70,0,0
32802,-100,4,2,1,5,0,0
32896,-100,4,2,1,70,0,0
38527,-125,4,2,1,60,0,0
41530,-111.111111111111,4,2,1,60,0,0
44533,-100,4,2,1,70,0,0
48475,-125,4,2,1,80,0,0
50352,-83.3333333333333,4,2,1,90,0,1
71374,-83.3333333333333,4,2,1,90,0,0
74377,-83.3333333333333,4,2,1,90,0,1
84232,-83.3333333333333,4,2,1,5,0,1
84325,-83.3333333333333,4,2,1,90,0,1
95400,-125,4,2,1,90,0,0
95587,375.398861290121,4,2,1,60,1,0
95587,-125,4,2,1,60,0,0
101593,-125,4,2,1,60,0,0
103094,-111.111111111111,4,2,1,70,0,0
104408,-100,4,2,1,70,0,0
104784,-100,4,2,1,80,0,0

[Colours]
Combo1 : 255,177,140
Combo2 : 0,116,244
Combo3 : 254,218,50
Combo4 : 2,253,102

[HitObjects]
159,136,1362,5,10,0:0:0:0:
353,136,1737,1,10,0:0:0:0:
353,136,1925,1,10,0:0:0:0:
256,304,2300,1,10,0:0:0:0:
256,213,2489,6,0,L|257:110,1,75,0|0,3:0|0:0,0:0:0:0:
242,32,2864,2,0,P|314:54|388:48,1,150,10|2,0:2|3:2,0:0:0:0:
435,125,3427,2,0,P|380:176|349:243,1,150,2|0,0:0|0:0,0:0:0:0:
365,332,3990,1,2,3:2:0:0:
365,332,4365,1,10,0:0:0:0:
280,302,4553,2,0,L|205:306,1,75,2|0,0:0|3:0,0:0:0:0:
120,276,4929,5,2,3:2:0:0:
49,363,5116,1,10,0:0:0:0:
9,258,5304,1,2,0:0:0:0:
75,196,5492,6,0,P|81:159|73:121,1,75,0|2,3:0|0:0,0:0:0:0:
148,73,5867,2,0,P|177:96|213:108,1,75,10|0,0:0|0:0,0:0:0:0:
299,108,6242,1,2,3:2:0:0:
299,108,6430,2,0,P|335:96|364:73,1,75,2|8,0:0|0:0,0:0:0:0:
438,122,6806,2,0,P|430:159|437:196,1,75,2|0,0:0|3:0,0:0:0:0:
356,234,7181,2,0,P|327:209|293:196,1,75,2|8,0:0|0:0,0:0:0:0:
203,185,7556,2,0,B|199:216|199:216|221:256|221:256|217:292,1,112.5,2|0,0:0|0:0,0:0:0:0:
212,328,7932,5,2,3:2:0:0:
310,382,8119,1,10,0:0:0:0:
405,323,8307,1,2,0:0:0:0:
489,353,8495,6,0,P|494:317|484:281,1,75,0|2,3:0|0:0,0:0:0:0:
429,209,8870,1,8,0:0:0:0:
478,133,9058,1,0,0:0:0:0:
478,133,9246,2,0,B|435:117|435:117|333:141,1,150,2|8,3:2|0:0,0:0:0:0:
247,165,9809,1,2,0:0:0:0:
270,78,9996,6,0,P|257:42|258:5,1,75,0|2,3:0|0:0,0:0:0:0:
334,142,10372,2,0,P|334:179|322:214,1,75,10|2,0:0|0:0,0:0:0:0:
242,255,10747,1,2,3:2:0:0:
242,255,10935,1,2,3:2:0:0:
167,206,11123,2,0,P|112:207|45:212,1,112.5,10|0,0:0|0:0,0:0:0:0:
17,216,11498,5,2,3:2:0:0:
44,130,11686,2,0,B|44:92|21:67|21:67|34:22|79:17,1,150,2|0,0:0|0:0,0:0:0:0:
162,53,12249,2,0,P|196:78|242:82,1,75,2|0,3:2|0:0,0:0:0:0:
311,50,12624,1,8,0:0:0:0:
288,175,12812,6,0,L|272:263,1,75,2|0,3:2|3:0,0:0:0:0:
408,133,13187,1,10,0:0:0:0:
311,50,13375,2,0,L|258:67,2,37.5,8|0|4,3:0|3:0|3:0,0:0:0:0:
408,133,13750,1,10,0:0:0:0:
288,175,13938,2,0,L|235:192,2,37.5,8|0|4,3:0|3:0|3:0,0:0:0:0:
408,133,14314,1,10,0:0:0:0:
375,232,14501,6,0,P|382:267|404:320,1,75,6|0,3:2|0:0,0:0:0:0:
342,367,14877,2,0,P|268:352|193:350,1,150,10|2,0:0|3:2,0:0:0:0:
111,358,15440,1,2,0:0:0:0:
142,281,15627,1,10,0:0:0:0:
142,281,15815,2,0,P|132:244|127:207,1,75,2|0,0:0|3:0,0:0:0:0:
88,133,16191,2,0,B|157:98|166:163|235:124,1,150,2|2,0:0|0:0,0:0:0:0:
300,78,16754,2,0,P|294:41|286:5,1,75,2|0,3:2|3:0,0:0:0:0:
365,127,17129,2,0,P|343:199|339:274,1,150,10|0,0:0|3:0,0:0:0:0:
403,326,17692,6,0,P|440:323|477:316,2,75,2|10|2,0:0|0:0|0:0,0:0:0:0:
339,274,18255,2,0,P|301:276|264:283,1,75,2|0,3:2|0:0,0:0:0:0:
199,333,18631,1,10,0:0:0:0:
126,294,18818,1,2,0:0:0:0:
60,343,19006,5,0,3:0:0:0:
60,343,19194,2,0,P|45:310|48:267,1,75,2|8,0:0|0:0,0:0:0:0:
21,198,19569,1,0,0:0:0:0:
21,198,19757,2,0,P|42:168|80:149,1,75,2|2,3:2|3:2,0:0:0:0:
127,91,20132,1,8,0:0:0:0:
197,134,20320,1,2,0:0:0:0:
254,74,20508,6,0,L|244:0,1,75,0|0,3:0|0:0,0:0:0:0:
197,134,20883,2,0,L|212:252,1,112.5,10|0,0:0|0:0,0:0:0:0:
217,274,21258,2,0,B|278:258|302:303|363:289,1,150,2|8,3:2|0:0,0:0:0:0:
444,301,21822,2,0,P|451:265|468:231,1,75,2|0,0:0|3:0,0:0:0:0:
429,158,22197,1,2,0:0:0:0:
478,91,22385,2,0,P|471:54|454:20,1,75,10|2,0:0|0:0,0:0:0:0:
373,9,22760,2,0,P|299:21|228:0,1,150,2|10,3:2|0:0,0:0:0:0:
156,40,23323,1,2,0:0:0:0:
193,119,23511,5,2,3:2:0:0:
115,165,23699,2,0,P|47:185|38:256,1,150,2|0,0:0|0:0,0:0:0:0:
26,338,24262,2,0,P|63:340|91:364,2,75,0|2|10,3:0|0:0|0:0,0:0:0:0:
135,271,24825,6,0,P|209:290|280:243,1,150,6|2,3:2|3:2,0:0:0:0:
297,169,25388,1,10,0:0:0:0:
386,260,25576,2,0,P|395:185|464:135,1,150,6|0,3:2|3:0,0:0:0:0:
419,47,26139,2,0,P|381:50|347:35,1,75,8|0,0:0|0:0,0:0:0:0:
269,79,26514,5,0,3:0:0:0:
269,78,26889,2,0,P|212:125|206:198,1,150,10|2,0:0|3:2,0:0:0:0:
255,263,27453,1,2,0:0:0:0:
197,321,27640,1,10,0:0:0:0:
197,321,27828,2,0,P|159:320|122:316,1,75,2|0,0:0|3:0,0:0:0:0:
40,305,28203,2,0,P|32:230|7:159,1,150,2|2,0:0|0:0,0:0:0:0:
66,102,28766,2,0,P|69:64|82:29,1,75,2|0,3:2|3:0,0:0:0:0:
123,162,29142,2,0,P|178:167|234:159,1,112.5,10|0,0:0|0:0,0:0:0:0:
270,148,29517,5,0,3:0:0:0:
316,225,29705,2,0,P|328:260|332:297,2,75,2|10|2,0:0|0:0|0:0,0:0:0:0:
363,150,30268,1,2,3:2:0:0:
363,150,30456,2,0,P|366:112|379:77,1,75,2|8,0:0|0:0,0:0:0:0:
457,33,30831,2,0,P|382:38|309:20,1,150,2|0,0:0|0:0,0:0:0:0:
231,65,31394,1,8,0:0:0:0:
231,65,31770,1,2,3:2:0:0:
146,36,31957,2,0,P|107:44|73:61,1,75,2|8,3:2|0:0,0:0:0:0:
2,6,32333,1,2,0:0:0:0:
58,75,32520,6,0,L|46:194,1,112.5,0|0,3:0|0:0,0:0:0:0:
14,213,32896,2,0,L|21:287,1,75,10|0,0:0|0:0,0:0:0:0:
97,344,33271,1,2,3:2:0:0:
97,344,33459,2,0,P|130:327|167:328,1,75,2|8,0:0|0:0,0:0:0:0:
255,344,33834,2,0,P|322:375|395:363,1,150,2|0,0:0|0:0,0:0:0:0:
479,333,34397,2,0,P|457:304|452:267,1,75,10|0,0:0|0:0,0:0:0:0:
393,205,34773,1,2,3:2:0:0:
393,205,34961,2,0,P|371:235|338:251,1,75,2|8,3:2|0:0,0:0:0:0:
260,206,35336,1,2,0:0:0:0:
167,270,35524,6,0,L|175:195,1,75,0|0,3:0|0:0,0:0:0:0:
78,153,35899,2,0,L|86:227,1,75,8|0,0:0|0:0,0:0:0:0:
90,319,36274,1,2,3:2:0:0:
167,270,36462,1,2,0:0:0:0:
247,312,36650,1,10,0:0:0:0:
327,354,36837,6,0,L|335:279,1,75,2|0,0:0|3:0,0:0:0:0:
247,312,37213,2,0,L|255:237,1,75,2|8,0:0|0:0,0:0:0:0:
167,270,37588,2,0,L|175:195,1,75,2|0,0:0|3:0,0:0:0:0:
78,153,37964,5,10,0:0:0:0:
172,102,38151,1,8,0:0:0:0:
267,52,38339,1,14,0:0:0:0:
341,105,38527,5,0,3:0:0:0:
341,105,38902,2,0,P|396:124|458:134,1,120,10|2,0:0|0:0,0:0:0:0:
501,205,39465,2,0,P|471:210|444:223,1,60,2|8,0:0|0:0,0:0:0:0:
403,297,39841,2,0,B|327:262|325:359|235:320,1,180,2|10,3:2|0:0,0:0:0:0:
151,316,40591,2,0,P|162:288|166:258,1,60,2|0,0:0|0:0,0:0:0:0:
106,198,40967,2,0,P|95:170|91:140,1,60,2|8,0:0|0:0,0:0:0:0:
144,75,41342,1,0,3:0:0:0:
88,15,41530,5,0,3:0:0:0:
88,15,41905,2,0,P|144:35|237:24,1,134.999995880127,10|2,0:0|0:0,0:0:0:0:
282,89,42468,2,0,P|307:65|337:52,1,67.4999979400635,2|8,0:0|0:0,0:0:0:0:
420,84,42844,2,0,P|397:172|416:283,1,202.499993820191,2|10,3:2|0:0,0:0:0:0:
349,339,43595,2,0,L|274:332,1,67.4999979400635,2|0,0:0|0:0,0:0:0:0:
217,254,43970,2,0,L|292:247,2,67.4999979400635,2|8|0,0:0|0:0|3:0,0:0:0:0:
130,326,44533,5,0,3:0:0:0:
130,325,44909,2,0,P|124:253|65:211,1,150,10|2,0:0|3:2,0:0:0:0:
1,137,45472,2,0,P|37:128|69:109,1,75,2|8,3:2|0:0,0:0:0:0:
149,52,45847,1,2,0:0:0:0:
149,52,46035,2,0,P|185:60|217:79,1,75,0|0,3:0|0:0,0:0:0:0:
270,161,46410,2,0,L|256:70,1,75,10|0,0:0|0:0,0:0:0:0:
350,120,46786,2,0,L|336:29,1,75,2|0,3:2|3:0,0:0:0:0:
430,79,47161,2,0,L|416:-12,1,75,10|0,0:0|0:0,0:0:0:0:
425,168,47536,6,0,P|460:179|484:207,1,75,0|0,3:0|0:0,0:0:0:0:
506,300,47912,1,10,0:0:0:0:
506,300,48099,1,2,0:0:0:0:
425,350,48287,1,2,3:2:0:0:
352,288,48475,5,10,0:0:0:0:
444,67,48850,5,10,0:0:0:0:
207,98,49226,5,10,0:0:0:0:
301,148,49413,1,10,0:0:0:0:
352,52,49601,1,10,0:0:0:0:
257,3,49789,1,10,0:0:0:0:
206,97,49976,6,0,P|177:92|147:89,1,60,2|2,3:2|3:2,0:0:0:0:
352,52,50352,1,6,3:2:0:0:
352,52,50727,5,2,0:0:0:0:
307,140,50915,2,0,P|310:184|319:228,1,89.9999972534181,10|2,0:0|0:0,0:0:0:0:
350,323,51290,2,0,L|247:310,1,89.9999972534181,2|2,3:2|3:2,0:0:0:0:
191,240,51666,2,0,L|88:253,1,89.9999972534181,10|2,0:0|0:0,0:0:0:0:
41,330,52041,2,0,P|2:251|39:172,1,179.999994506836,2|10,3:2|0:0,0:0:0:0:
135,146,52604,2,0,P|167:116|176:73,1,89.9999972534181,2|0,0:0|3:0,0:0:0:0:
76,10,52980,5,2,3:2:0:0:
185,48,53167,1,10,0:0:0:0:
294,86,53355,1,2,0:0:0:0:
371,37,53543,5,0,3:0:0:0:
374,128,53730,2,0,B|362:179|356:233|356:233|393:245|422:265,1,179.999994506836,2|2,0:0|0:0,0:0:0:0:
382,356,54294,2,0,P|343:332|302:315,1,89.9999972534181,2|2,3:2|3:2,0:0:0:0:
208,283,54669,1,10,0:0:0:0:
120,329,54857,1,2,0:0:0:0:
53,254,55044,2,0,P|20:283|0:323,1,89.9999972534181,2|2,3:2|0:0,0:0:0:0:
142,207,55420,1,10,0:0:0:0:
146,108,55607,2,0,P|136:64|113:26,1,89.9999972534181,2|0,0:0|3:0,0:0:0:0:
237,4,55983,5,2,3:2:0:0:
245,118,56170,1,10,0:0:0:0:
224,231,56358,1,2,0:0:0:0:
164,301,56546,5,0,3:0:0:0:
255,317,56734,2,0,P|298:306|343:304,2,89.9999972534181,2|10|2,0:0|0:0|0:0,0:0:0:0:
164,301,57297,1,2,3:2:0:0:
224,231,57484,1,2,3:2:0:0:
133,215,57672,2,0,P|89:226|44:228,1,89.9999972534181,10|2,0:0|0:0,0:0:0:0:
193,145,58048,2,0,L|205:32,1,89.9999972534181,2|2,3:2|0:0,0:0:0:0:
296,22,58423,2,0,L|286:111,1,89.9999972534181,10|2,0:0|0:0,0:0:0:0:
353,191,58798,1,2,3:2:0:0:
353,191,58986,1,2,3:2:0:0:
446,157,59174,1,10,0:0:0:0:
507,234,59361,6,0,B|459:254|446:313|473:362|473:362|484:348|487:328,1,179.999994506836,2|0,0:0|0:0,0:0:0:0:
370,291,59925,2,0,P|326:280|275:280,1,89.9999972534181,8|0,0:0|0:0,0:0:0:0:
209,333,60300,2,0,P|165:344|114:344,1,89.9999972534181,0|0,3:0|3:0,0:0:0:0:
16,290,60675,1,8,0:0:0:0:
75,222,60863,1,4,3:0:0:0:
46,136,61051,1,0,3:0:0:0:
256,0,61426,5,10,0:0:0:0:
466,136,61802,1,10,0:0:0:0:
466,136,61989,1,2,3:2:0:0:
256,272,62365,1,6,3:2:0:0:
256,272,62740,5,2,0:0:0:0:
212,192,62928,2,0,P|256:181|299:192,1,89.9999972534181,10|2,0:0|0:0,0:0:0:0:
382,227,63303,2,0,L|366:322,1,89.9999972534181,2|2,3:2|3:2,0:0:0:0:
451,348,63679,2,0,L|465:259,1,89.9999972534181,10|2,0:0|0:0,0:0:0:0:
451,170,64054,2,0,B|411:119|441:66|441:66|414:90|371:91,1,179.999994506836,2|10,3:2|0:0,0:0:0:0:
289,95,64617,2,0,P|250:72|205:66,1,89.9999972534181,2|0,0:0|3:0,0:0:0:0:
101,0,64992,5,2,3:2:0:0:
122,113,65179,1,10,0:0:0:0:
113,227,65368,1,2,0:0:0:0:
38,280,65556,5,0,3:0:0:0:
122,318,65743,2,0,B|207:296|217:345|299:321,1,179.999994506836,2|2,0:0|0:0,0:0:0:0:
386,300,66306,2,0,P|375:257|385:214,1,89.9999972534181,2|2,3:2|3:2,0:0:0:0:
432,137,66682,1,10,0:0:0:0:
374,69,66869,1,2,0:0:0:0:
290,106,67057,2,0,L|196:97,1,89.9999972534181,2|2,3:2|0:0,0:0:0:0:
374,69,67433,1,10,0:0:0:0:
432,137,67620,2,0,P|443:180|433:223,1,89.9999972534181,2|0,0:0|3:0,0:0:0:0:
499,321,67996,5,2,3:2:0:0:
386,300,68183,1,10,0:0:0:0:
273,279,68371,1,2,0:0:0:0:
204,345,68559,5,0,3:0:0:0:
181,252,68746,2,0,P|187:195|195:152,2,89.9999972534181,2|10|2,0:0|0:0|0:0,0:0:0:0:
112,318,69309,1,2,3:2:0:0:
112,318,69497,2,0,P|83:267|57:231,1,89.9999972534181,2|10,3:2|0:0,0:0:0:0:
0,161,69873,1,2,0:0:0:0:
116,113,70060,5,8,0:0:0:0:
116,113,70436,5,10,0:0:0:0:
116,113,70811,5,10,0:0:0:0:
192,162,70999,1,6,3:0:0:0:
272,120,71186,1,6,3:0:0:0:
348,169,71374,1,6,3:2:0:0:
256,192,71562,12,0,72876,3:0:0:0:
369,81,73251,5,14,0:0:0:0:
369,81,73627,2,0,P|355:125|347:173,1,89.9999972534181,14|0,0:0|3:0,0:0:0:0:
410,268,74002,5,2,3:2:0:0:
333,183,74190,1,10,0:0:0:0:
298,293,74377,1,2,0:0:0:0:
298,293,74753,5,2,0:0:0:0:
212,265,74940,2,0,L|119:236,1,89.9999972534181,10|2,0:0|0:0,0:0:0:0:
27,255,75316,2,0,P|37:211|28:165,1,89.9999972534181,2|2,3:2|3:2,0:0:0:0:
100,98,75691,2,0,P|143:110|178:141,1,89.9999972534181,10|2,0:0|0:0,0:0:0:0:
266,184,76067,2,0,P|324:150|437:165,1,179.999994506836,2|10,3:2|0:0,0:0:0:0:
504,94,76630,2,0,P|488:51|489:7,1,89.9999972534181,2|0,0:0|3:0,0:0:0:0:
432,162,77005,5,2,3:2:0:0:
486,262,77193,1,10,0:0:0:0:
512,372,77381,1,2,0:0:0:0:
427,334,77568,5,0,3:0:0:0:
427,334,77756,2,0,B|386:364|332:360|332:360|344:313|320:275,1,179.999994506836,2|2,0:0|0:0,0:0:0:0:
238,330,78319,2,0,P|202:355|158:361,1,89.9999972534181,2|2,3:2|3:2,0:0:0:0:
76,305,78694,1,10,0:0:0:0:
131,222,78882,1,2,0:0:0:0:
63,149,79070,2,0,L|76:44,1,89.9999972534181,2|2,3:2|0:0,0:0:0:0:
131,222,79445,1,10,0:0:0:0:
229,200,79633,2,0,L|242:95,1,89.9999972534181,2|0,0:0|3:0,0:0:0:0:
304,0,80008,5,2,3:2:0:0:
335,106,80196,1,10,0:0:0:0:
367,213,80384,1,2,0:0:0:0:
293,270,80571,5,0,3:0:0:0:
229,200,80759,2,0,P|184:196|139:200,2,89.9999972534181,2|10|2,0:0|0:0|0:0,0:0:0:0:
293,270,81322,1,2,3:2:0:0:
367,213,81510,1,2,3:2:0:0:
431,283,81698,2,0,P|434:329|431:372,1,89.9999972534181,10|2,0:0|0:0,0:0:0:0:
367,213,82073,2,0,P|407:193|444:167,1,89.9999972534181,2|2,3:2|0:0,0:0:0:0:
432,69,82448,2,0,P|391:88|354:114,1,89.9999972534181,10|2,0:0|0:0,0:0:0:0:
263,85,82824,1,2,3:2:0:0:
263,85,83012,1,2,3:2:0:0:
227,167,83199,1,10,0:0:0:0:
136,171,83387,6,0,P|54:158|29:237,1,179.999994506836,2|2,0:0|0:0,0:0:0:0:
37,326,83950,2,0,B|93:317|93:317|112:334|112:334|164:341,1,134.999995880127,10|0,0:0|0:0,0:0:0:0:
182,366,84325,2,0,B|271:352,1,89.9999972534181,2|2,3:2|3:2,0:0:0:0:
397,333,84701,1,8,0:0:0:0:
338,265,84889,1,4,3:0:0:0:
367,179,85077,1,0,3:0:0:0:
164,341,85452,5,10,0:0:0:0:
125,84,85827,1,2,3:2:0:0:
193,147,86015,1,10,0:0:0:0:
193,147,86202,1,8,0:0:0:0:
104,174,86390,1,6,3:2:0:0:
104,174,86766,5,2,0:0:0:0:
193,147,86953,2,0,P|237:150|282:156,1,89.9999972534181,10|2,0:0|0:0,0:0:0:0:
374,117,87329,2,0,L|365:221,1,89.9999972534181,2|2,3:2|3:2,0:0:0:0:
280,257,87704,2,0,L|289:361,1,89.9999972534181,10|2,0:0|0:0,0:0:0:0:
380,381,88079,2,0,P|291:366|201:359,1,179.999994506836,2|10,3:2|0:0,0:0:0:0:
116,307,88643,2,0,P|71:314|26:318,1,89.9999972534181,2|0,0:0|3:0,0:0:0:0:
74,216,89018,5,2,3:2:0:0:
101,108,89206,1,10,0:0:0:0:
126,0,89394,1,2,0:0:0:0:
37,36,89581,5,0,3:0:0:0:
101,108,89769,2,0,P|145:100|190:96,2,89.9999972534181,2|10|2,0:0|0:0|0:0,0:0:0:0:
52,191,90332,2,0,P|96:199|141:203,1,89.9999972534181,2|2,3:2|3:2,0:0:0:0:
229,247,90707,1,10,0:0:0:0:
308,187,90895,1,2,0:0:0:0:
395,231,91083,2,0,P|384:274|380:319,1,89.9999972534181,2|2,3:2|0:0,0:0:0:0:
308,187,91458,1,10,0:0:0:0:
390,133,91646,2,0,P|401:89|405:44,1,89.9999972534181,2|0,0:0|3:0,0:0:0:0:
273,82,92021,5,2,3:2:0:0:
308,187,92209,1,10,0:0:0:0:
311,295,92397,1,2,0:0:0:0:
228,244,92584,5,0,3:0:0:0:
137,281,92772,2,0,P|94:266|50:257,2,89.9999972534181,2|10|2,0:0|0:0|0:0,0:0:0:0:
228,244,93335,1,2,3:2:0:0:
228,244,93523,2,0,P|193:214|164:180,1,89.9999972534181,2|10,3:2|0:0,0:0:0:0:
151,78,93898,1,2,0:0:0:0:
71,170,94086,5,8,0:0:0:0:
71,170,94461,5,10,0:0:0:0:
71,170,94837,5,10,0:0:0:0:
164,180,95024,1,6,3:0:0:0:
251,213,95212,1,6,3:0:0:0:
326,267,95400,1,6,3:2:0:0:
256,192,95587,12,2,98590,3:2:0:0:
393,366,98965,5,10,0:0:0:0:
107,316,99716,1,8,0:0:0:0:
157,30,100467,1,10,0:0:0:0:
443,80,101217,1,8,0:0:0:0:
378,129,101405,1,0,3:0:0:0:
303,97,101593,6,0,P|301:63|308:31,1,60,6|0,3:2|3:0,0:0:0:0:
238,146,101968,2,0,P|207:130|183:108,1,60,0|0,3:0|3:0,0:0:0:0:
247,226,102344,2,0,P|218:244|187:254,2,60,0|0|0,3:0|3:0|3:0,0:0:0:0:
320,258,102907,1,2,3:2:0:0:
393,290,103094,6,0,L|476:276,1,67.4999979400635,4|2,3:2|3:2,0:0:0:0:
494,197,103470,1,2,3:2:0:0:
435,130,103658,1,2,3:2:0:0:
469,48,103845,2,0,L|386:34,1,67.4999979400635,0|0,3:0|3:0,0:0:0:0:
328,84,104221,1,0,3:0:0:0:
239,0,104408,1,8,0:0:0:0:
238,0,104784,6,0,P|239:37|228:73,1,75,10|2,0:0|3:2,0:0:0:0:
137,99,105159,1,2,3:2:0:0:
172,237,105347,2,0,P|139:218|113:191,1,75,10|2,0:0|3:2,0:0:0:0:
137,99,105722,1,2,3:2:0:0:
1,61,105910,1,10,0:0:0:0:
