osu file format v14

[General]
AudioFilename: audio.mp3
AudioLeadIn: 0
PreviewTime: 121039
Countdown: 0
SampleSet: Soft
StackLeniency: 0.1
Mode: 0
LetterboxInBreaks: 0
WidescreenStoryboard: 0

[Editor]
Bookmarks: 15177,26211,37246,42763,48280,59315,70349,81556,99315,109660,115867,121384,132418,142418,149056,149142,149229,149315,149401,149487,149573,149660,149746,149832,149918,150005,150091,150177,150263,150349,150395,150481,150567,150654,150740,150826,150912,150998,151085,151171,151257,151343,151430,151516,151602,151688,151774,151861,151947,152033,152119,152205,152292,152378,152464,152550,152636,152723,152809,152895,152981,153067,153154,153240,153326,153412,153498,153585,153671,153757,153843,153930,154016,154102,154188,154274,154361,154447,154533,154619,154705,154792,154878,154964,155050,155136,155223,155309,155395,155481,155567,155654,155740,155826,155912,155998,156085,156171,156257,156343,156430,156516,156602,156688,156774,156861,156947,157033,157119,157205,157292,157378,157464,157550,157636,157723,157809,157895,157981,158067,158154,158240,158326,158412,158498,158585,158671,158757,158843,158930,159016,159102,159188,166901,176556,193108,204142,215177,226211,237246
DistanceSpacing: 1.3
BeatDivisor: 4
GridSize: 32
TimelineZoom: 2.699999

[Metadata]
Title:Sorairo Days
TitleUnicode:空色デイズ
Artist:Nakagawa Shoko
ArtistUnicode:中川翔子
Creator:respektive
Version:Collab Insane
Source:天元突破グレンラガン
Tags:tengen toppa gurren lagann shouko stratos anime japanese rock jrock shokotan j-rock opening op full version collaboration
BeatmapID:3041405
BeatmapSetID:1455788

[Difficulty]
HPDrainRate:5.5
CircleSize:4.2
OverallDifficulty:8
ApproachRate:9
SliderMultiplier:1.6
SliderTickRate:1

[Events]
//Background and Video events
0,0,"SorairoDays.jpg",0,0
//Break Periods
2,76061,80262
2,149165,158710
2,182182,186641
//Storyboard Layer 0 (Background)
//Storyboard Layer 1 (Fail)
//Storyboard Layer 2 (Pass)
//Storyboard Layer 3 (Foreground)
//Storyboard Layer 4 (Overlay)
//Storyboard Sound Samples

[TimingPoints]
0,344.827586206897,4,2,1,50,1,0
5517,-83.3333333333333,4,2,1,65,0,0
14655,-83.3333333333333,4,2,1,30,0,0
14827,-83.3333333333333,4,2,1,65,0,0
15172,-125,4,2,1,50,0,0
16379,-125,4,2,1,40,0,0
17931,-133.333333333333,4,2,1,40,0,0
20172,-133.333333333333,4,2,1,50,0,0
20689,-100,4,2,1,50,0,0
21206,-111.111111111111,4,2,1,50,0,0
21896,-125,4,2,1,40,0,0
23275,-125,4,2,1,65,0,0
23448,-83.3333333333333,4,2,1,65,0,0
24482,-95.2380952380952,4,2,1,50,0,0
26206,-125,4,2,1,60,0,0
27413,-111.111111111111,4,2,1,60,0,0
28965,-90.9090909090909,4,2,1,60,0,0
29655,-111.111111111111,4,2,1,60,0,0
30172,-90.9090909090908,4,2,1,60,0,0
30689,-111.111111111111,4,2,1,60,0,0
34482,-90.9090909090908,4,2,1,50,0,0
48275,-83.3333333333333,4,2,1,75,0,1
57155,-83.3333333333333,4,2,1,30,0,1
57413,-83.3333333333333,4,2,1,75,0,1
57500,-83.3333333333333,4,2,1,30,0,1
57758,-83.3333333333333,4,2,1,75,0,1
67844,-83.3333333333333,4,2,1,30,0,1
68103,-83.3333333333333,4,2,1,75,0,1
68189,-83.3333333333333,4,2,1,30,0,1
68448,-83.3333333333333,4,2,1,75,0,1
70344,-142.857142857143,4,2,1,60,0,0
71551,-142.857142857143,4,2,1,40,0,0
72758,-142.857142857143,4,2,1,60,0,0
74310,-200,4,2,1,60,0,0
75517,-100,4,2,1,60,0,0
81551,-83.3333333333333,4,2,1,65,0,0
90689,-100,4,2,1,50,0,0
91034,-100,4,2,1,60,0,0
107586,-83.3333333333333,4,2,1,60,0,0
110344,-90.9090909090909,4,2,1,60,0,0
121379,-83.3333333333333,4,2,1,75,0,1
130258,-83.3333333333333,4,2,1,30,0,1
130517,-83.3333333333333,4,2,1,75,0,1
130603,-83.3333333333333,4,2,1,30,0,1
130862,-83.3333333333333,4,2,1,75,0,1
140948,-83.3333333333333,4,2,1,30,0,1
141206,-83.3333333333333,4,2,1,75,0,1
141293,-83.3333333333333,4,2,1,30,0,1
141551,-83.3333333333333,4,2,1,75,0,1
143448,-142.857142857143,4,2,1,60,0,0
144655,-142.857142857143,4,2,1,40,0,0
145862,-142.857142857143,4,2,1,60,0,0
147413,-200,4,2,1,60,0,0
148620,-100,4,2,1,60,0,0
159310,-100,4,2,1,50,0,0
159482,-100,4,2,1,65,0,0
160000,-100,4,2,1,70,0,1
163965,-83.3333333333333,4,2,1,70,0,1
180517,-90.9090909090909,4,2,1,70,0,1
182068,-83.3333333333333,4,2,1,70,0,0
187241,-125,4,2,1,55,0,0
191379,-131.578947368421,4,2,1,55,0,0
192413,-125,4,2,1,55,0,0
193103,-100,4,2,1,55,0,0
194137,-200,4,2,1,55,0,0
194827,-100,4,2,1,55,0,0
196896,-200,4,2,1,55,0,0
197586,-100,4,2,1,55,0,0
200344,-200,4,2,1,55,0,0
200862,-100,4,2,1,55,0,0
201379,-100,4,2,1,65,0,0
202586,-133.333333333333,4,2,1,50,0,0
204137,-83.3333333333333,4,2,1,75,0,1
213017,-83.3333333333333,4,2,1,30,0,1
213275,-83.3333333333333,4,2,1,75,0,1
213362,-83.3333333333333,4,2,1,30,0,1
213620,-83.3333333333333,4,2,1,75,0,1
223706,-83.3333333333333,4,2,1,30,0,1
223965,-83.3333333333333,4,2,1,75,0,1
224051,-83.3333333333333,4,2,1,30,0,1
224310,-83.3333333333333,4,2,1,75,0,1
226206,-142.857142857143,4,2,1,60,0,0
227413,-142.857142857143,4,2,1,40,0,0
228620,-125,4,2,1,60,0,0
230172,-200,4,2,1,60,0,0
231379,-100,4,2,1,60,0,0
231896,-100,4,2,1,65,0,0
232068,-83.3333333333333,4,2,1,65,0,0
249655,-83.3333333333333,4,2,1,5,0,0

[Colours]
Combo1 : 250,180,240
Combo2 : 120,200,230
Combo3 : 255,230,130
Combo4 : 160,230,150

[HitObjects]
94,102,172,6,0,L|181:115,1,80,2|0,0:0|0:0,0:0:0:0:
268,187,517,2,2,L|188:198,1,80,2|0,0:0|0:0,0:0:0:0:
91,215,862,1,0,0:0:0:0:
91,215,1206,2,0,L|79:294,1,80,2|0,0:0|0:0,0:0:0:0:
177,368,1551,2,0,L|165:289,1,80,2|0,0:0|0:0,0:0:0:0:
335,368,2068,5,2,0:0:0:0:
335,368,2241,2,0,L|347:289,1,80,2|0,0:0|0:0,0:0:0:0:
364,192,2586,1,0,0:0:0:0:
364,192,2931,2,0,L|443:181,1,80,2|0,0:0|0:0,0:0:0:0:
512,107,3275,2,0,L|432:96,1,80,2|0,0:0|0:0,0:0:0:0:
337,75,3620,1,0,0:0:0:0:
175,75,3965,5,2,0:0:0:0:
175,75,4137,2,0,L|85:87,1,80,2|0,0:0|0:0,0:0:0:0:
31,164,4482,1,0,0:0:0:0:
31,164,4655,1,0,0:0:0:0:
157,165,4827,2,0,L|151:255,1,80,2|0,0:0|0:0,0:0:0:0:
31,164,5172,2,0,L|36:243,1,80,2|0,0:0|0:0,0:0:0:0:
44,368,5517,6,0,B|86:385|86:385|151:381,1,95.9999970703126,4|0,3:2|0:0,0:0:0:0:
286,371,5862,1,8,0:0:0:0:
406,253,6034,1,0,3:0:0:0:
407,258,6120,1,8,0:0:0:0:
408,263,6206,1,0,3:0:0:0:
401,374,6379,1,0,3:0:0:0:
276,251,6551,2,0,L|270:150,1,95.9999970703126,8|0,0:0|0:0,0:0:0:0:
346,47,6896,6,0,P|391:31|445:25,1,95.9999970703126,0|0,0:0|3:0,0:0:0:0:
494,112,7241,1,8,0:0:0:0:
171,47,7586,1,0,3:0:0:0:
271,115,7758,1,0,3:0:0:0:
169,44,7931,2,0,P|120:31|64:30,1,95.9999970703126,8|0,0:0|0:0,0:0:0:0:
271,115,8275,6,0,B|333:117|333:117|357:132|357:132|416:135,1,143.999995605469,0|0,3:0|0:0,0:0:0:0:
419,138,8620,1,8,0:0:0:0:
321,219,8793,1,0,3:0:0:0:
320,224,8879,1,8,0:0:0:0:
319,229,8965,1,0,3:0:0:0:
444,273,9137,1,0,3:0:0:0:
333,349,9310,2,0,L|231:338,1,95.9999970703126,8|0,0:0|3:0,0:0:0:0:
105,292,9655,6,0,P|94:338|105:386,2,95.9999970703126,0|0|8,0:0|3:0|0:0,0:0:0:0:
188,181,10172,1,0,3:0:0:0:
71,202,10344,2,0,B|43:128|43:128|53:59,1,143.999995605469,2|0,0:0|0:0,0:0:0:0:
55,53,10689,2,0,L|182:44,1,95.9999970703126,10|0,0:0|0:0,0:0:0:0:
426,97,11034,5,4,3:2:0:0:
279,115,11206,1,8,0:0:0:0:
388,14,11379,1,8,0:0:0:0:
360,160,11551,1,8,0:0:0:0:
297,25,11724,1,8,0:0:0:0:
426,97,11896,1,0,3:0:0:0:
426,97,12241,5,0,3:0:0:0:
427,102,12327,1,0,3:0:0:0:
428,107,12413,1,12,0:0:0:0:
297,25,12586,1,8,0:0:0:0:
360,160,12758,1,8,0:0:0:0:
388,14,12931,1,4,3:2:0:0:
256,192,13103,12,0,14655,0:0:0:0:
247,207,14827,5,8,0:0:0:0:
430,345,15172,6,0,P|462:292|442:233,1,128,6|0,3:2|0:0,0:0:0:0:
247,207,15689,1,2,0:0:0:0:
322,140,15862,2,0,L|356:263,1,128,2|0,0:0|0:0,0:0:0:0:
285,333,16379,6,0,L|223:350,1,64,2|0,0:0|0:0,0:0:0:0:
191,243,16724,2,0,L|252:225,1,64,2|0,0:0|0:0,0:0:0:0:
137,322,17068,1,2,0:0:0:0:
57,290,17241,2,0,P|22:247|31:166,1,128,2|0,0:0|0:0,0:0:0:0:
201,25,17931,6,0,P|182:91|169:140,1,120.000004577637,2|0,0:0|0:0,0:0:0:0:
265,116,18448,1,2,0:0:0:0:
265,116,18620,2,0,P|294:126|322:131,1,60.0000022888184,2|0,0:0|0:0,0:0:0:0:
297,218,18965,1,2,0:0:0:0:
297,218,19137,2,0,P|268:208|240:203,1,60.0000022888184,2|0,0:0|0:0,0:0:0:0:
395,299,19482,1,2,0:0:0:0:
298,340,19655,6,0,P|337:297|395:299,1,120.000004577637,2|2,0:0|0:0,0:0:0:0:
467,251,20172,1,0,0:0:0:0:
504,156,20344,1,8,0:0:0:0:
421,68,20517,1,0,0:0:0:0:
307,195,20689,6,0,B|230:173|186:161|186:161|173:174|155:176,1,160,6|0,3:2|0:0,0:0:0:0:
92,82,21206,1,2,0:0:0:0:
26,146,21379,2,0,P|45:215|65:284,1,143.999995605469,2|0,0:0|0:0,0:0:0:0:
148,300,21896,2,0,P|179:293|209:283,1,64,2|0,0:0|0:0,0:0:0:0:
235,367,22241,2,0,P|203:373|173:383,1,64,2|0,0:0|0:0,0:0:0:0:
289,309,22586,1,2,0:0:0:0:
362,348,22758,2,0,P|423:347|459:297,1,128,2|0,0:0|0:0,0:0:0:0:
374,143,23275,6,0,L|365:173,1,32,10|0,0:0|0:0,0:0:0:0:
367,248,23448,6,0,P|341:159|314:63,1,191.999994140625,6|8,3:2|0:0,0:0:0:0:
241,238,23965,2,0,P|228:195|214:145,1,95.9999970703126,6|0,3:2|0:0,0:0:0:0:
148,90,24310,1,8,0:0:0:0:
122,302,24482,2,0,B|77:339|0:326|-44:261|-5:188|47:152|116:158|183:212|150:254|231:302|311:251,1,503.999984619141,6|0,3:2|3:0,0:0:0:0:
442,293,25689,5,8,0:0:0:0:
447,291,25775,1,8,0:0:0:0:
453,289,25862,2,0,P|459:268|464:248,1,41.9999987182618,8|8,0:0|0:0,0:0:0:0:
407,145,26034,2,0,P|401:166|396:186,1,41.9999987182618,8|8,0:0|0:0,0:0:0:0:
327,67,26206,6,0,P|366:39|419:39,1,96,6|0,3:2|0:0,0:0:0:0:
421,41,26551,1,8,0:0:0:0:
197,58,26724,1,0,3:0:0:0:
190,62,26810,1,8,0:0:0:0:
184,66,26896,2,0,P|146:39|99:37,1,64,2|0,3:2|3:0,0:0:0:0:
28,32,27241,1,8,0:0:0:0:
46,210,27413,6,0,L|38:136,1,71.9999978027344,2|0,3:2|0:0,0:0:0:0:
140,251,27758,2,0,L|132:177,1,71.9999978027344,2|8,3:2|0:0,0:0:0:0:
46,342,28103,1,2,3:2:0:0:
46,342,28275,2,0,P|96:353|125:346,1,71.9999978027344,2|8,0:0|0:0,0:0:0:0:
230,299,28620,1,8,0:0:0:0:
232,305,28706,1,8,0:0:0:0:
234,311,28793,1,0,3:0:0:0:
282,140,28965,6,0,L|460:157,1,176.000005371094,6|8,3:2|0:0,0:0:0:0:
472,293,29482,1,2,0:0:0:0:
470,306,29568,1,8,0:0:0:0:
469,316,29655,2,0,L|388:313,1,71.9999978027344,2|0,3:2|3:0,0:0:0:0:
348,183,30000,1,10,0:0:0:0:
237,318,30172,6,0,L|222:135,1,176.000005371094,6|2,3:2|3:2,0:0:0:0:
155,35,30689,2,0,P|83:25|34:73,1,143.999995605469,10|2,0:0|0:0,0:0:0:0:
116,153,31206,1,8,0:0:0:0:
221,128,31379,1,8,0:0:0:0:
317,89,31551,1,8,0:0:0:0:
321,95,31637,1,8,0:0:0:0:
325,101,31724,6,0,B|415:79|415:79|475:93,1,143.999995605469,6|8,3:2|0:0,0:0:0:0:
419,154,32241,1,2,3:2:0:0:
417,161,32327,1,8,0:0:0:0:
415,168,32413,1,2,3:2:0:0:
436,2,32586,1,0,3:0:0:0:
465,90,32758,1,8,0:0:0:0:
408,240,32931,6,0,L|416:166,1,71.9999978027344,2|0,3:2|0:0,0:0:0:0:
314,281,33275,2,0,L|322:207,1,71.9999978027344,2|8,3:2|0:0,0:0:0:0:
408,372,33620,1,2,3:2:0:0:
408,372,33793,2,0,P|358:383|329:376,1,71.9999978027344,2|8,0:0|0:0,0:0:0:0:
224,329,34137,1,8,0:0:0:0:
222,335,34224,1,8,0:0:0:0:
220,341,34310,1,2,3:2:0:0:
101,160,34482,6,0,P|26:205|43:290,1,176.000005371094,6|8,3:2|0:0,0:0:0:0:
195,221,35000,2,0,L|183:128,1,88.000002685547,6|0,3:2|0:0,0:0:0:0:
71,56,35344,1,10,0:0:0:0:
73,62,35431,1,8,0:0:0:0:
75,68,35517,1,10,0:0:0:0:
71,195,35689,6,0,P|153:180|248:168,1,176.000005371094,6|0,3:2|3:0,0:0:0:0:
201,260,36206,1,8,0:0:0:0:
178,100,36379,1,0,3:0:0:0:
319,0,36551,5,10,0:0:0:0:
346,4,36637,1,8,0:0:0:0:
370,16,36724,1,8,0:0:0:0:
390,36,36810,1,8,0:0:0:0:
403,60,36896,1,10,0:0:0:0:
408,87,36982,1,8,0:0:0:0:
405,114,37068,1,8,0:0:0:0:
394,139,37155,1,8,0:0:0:0:
375,159,37241,6,0,P|414:232|497:226,1,176.000005371094,6|10,3:2|0:0,0:0:0:0:
375,159,37758,1,2,3:2:0:0:
285,238,37931,2,0,P|242:225|200:213,1,88.000002685547,2|0,0:0|3:0,0:0:0:0:
279,85,38275,1,10,0:0:0:0:
140,138,38448,6,0,P|195:74|279:85,1,176.000005371094,2|2,3:2|3:2,0:0:0:0:
403,158,38965,1,10,0:0:0:0:
380,235,39137,1,2,3:2:0:0:
357,312,39310,1,2,3:2:0:0:
362,322,39482,1,8,0:3:0:0:
77,173,39827,5,4,0:3:0:0:
62,270,40000,2,0,P|99:259|146:245,1,88.000002685547,2|0,3:2|3:0,0:0:0:0:
92,76,40344,1,10,0:0:0:0:
92,76,40517,2,0,P|55:87|8:101,1,88.000002685547,2|0,3:2|0:0,0:0:0:0:
199,167,40862,1,10,0:0:0:0:
189,136,40948,1,8,0:0:0:0:
180,106,41034,1,8,0:0:0:0:
334,0,41206,6,0,L|308:84,1,88.000002685547,6|0,3:2|0:3,0:3:0:0:
395,214,41551,2,0,L|421:130,1,88.000002685547,2|8,3:2|0:0,0:3:0:0:
512,242,41896,1,0,3:0:0:0:
323,314,42068,1,8,0:0:0:0:
228,281,42327,1,8,0:0:0:0:
224,271,42413,1,0,3:0:0:0:
133,248,42586,1,10,0:0:0:0:
9,64,42758,6,0,P|61:122|30:208,1,176.000005371094,6|8,3:2|0:0,0:0:0:0:
9,64,43275,1,2,0:0:0:0:
151,156,43448,2,0,L|242:143,1,88.000002685547,2|0,3:2|3:0,0:0:0:0:
381,82,43793,1,10,0:0:0:0:
360,226,43965,6,0,P|329:147|383:82,1,176.000005371094,2|2,3:2|3:2,0:0:0:0:
246,132,44482,1,10,0:0:0:0:
414,156,44655,1,10,0:0:0:0:
419,160,44741,1,8,0:0:0:0:
424,164,44827,6,0,P|477:228|447:307,1,176.000005371094,4|2,0:3|0:0,0:0:0:0:
294,351,45344,1,8,0:0:0:0:
250,354,45431,1,8,0:0:0:0:
206,358,45517,5,6,3:2:0:0:
195,215,45689,1,8,0:0:0:0:
341,347,45862,1,8,0:0:0:0:
332,205,46034,1,10,0:0:0:0:
267,281,46206,5,10,0:0:0:0:
215,135,46379,1,8,0:0:0:0:
402,231,46551,1,8,0:0:0:0:
354,87,46724,1,8,0:0:0:0:
127,212,46896,5,8,0:0:0:0:
314,246,47068,1,8,0:0:0:0:
127,236,47241,5,8,0:0:0:0:
315,221,47413,1,8,0:0:0:0:
215,340,47586,5,8,2:0:0:0:
232,116,47758,1,8,2:0:0:0:
436,381,48275,6,0,P|490:306|453:222,1,191.999994140625,6|10,3:2|0:0,0:0:0:0:
311,107,48793,2,0,P|328:160|340:198,1,95.9999970703126,2|0,0:0|3:0,0:0:0:0:
264,281,49137,1,2,3:2:0:0:
422,123,49310,1,8,0:0:0:0:
264,281,49482,2,0,B|137:241|137:241|122:266|90:273,1,191.999994140625,2|0,3:2|3:0,0:0:0:0:
245,384,50000,1,8,0:0:0:0:
244,384,50172,2,0,P|290:369|336:354,1,95.9999970703126,0|0,3:0|0:0,0:0:0:0:
500,255,50517,5,2,3:2:0:0:
445,188,50689,1,10,0:0:0:0:
360,205,50862,1,2,3:2:0:0:
269,356,51034,6,0,P|200:333|132:311,1,143.999995605469,2|0,3:2|0:0,0:0:0:0:
120,325,51379,2,0,P|127:347|134:370,1,47.9999985351563,10|0,0:0|0:0,0:0:0:0:
234,261,51551,1,10,0:0:0:0:
243,238,51637,1,8,0:0:0:0:
234,214,51724,1,8,0:0:0:0:
140,165,51896,2,0,P|100:177|48:193,1,95.9999970703126,2|0,3:2|0:0,0:0:0:0:
332,316,52241,6,0,P|386:244|476:261,1,191.999994140625,6|0,3:2|3:0,0:0:0:0:
350,225,52758,2,0,P|319:187|316:140,1,95.9999970703126,8|0,0:0|0:0,0:0:0:0:
388,74,53103,1,2,3:2:0:0:
239,211,53275,1,0,3:0:0:0:
421,298,53448,2,0,L|512:270,1,95.9999970703126,10|0,0:0|0:0,0:0:0:0:
239,211,53793,2,0,L|148:239,1,95.9999970703126,2|0,3:2|3:0,0:0:0:0:
128,232,54051,1,0,3:0:0:0:
121,229,54137,1,10,0:0:0:0:
312,319,54310,6,0,L|339:227,1,95.9999970703126,2|0,3:2|0:0,0:0:0:0:
207,44,54655,2,0,L|176:135,1,95.9999970703126,2|8,3:2|0:0,0:0:0:0:
487,71,55000,6,0,P|432:-3|341:7,1,191.999994140625,2|0,3:2|3:0,0:0:0:0:
250,211,55517,1,10,0:0:0:0:
176,135,55689,2,0,L|267:107,1,95.9999970703126,2|0,3:2|0:0,0:0:0:0:
324,287,56034,2,0,L|233:315,1,95.9999970703126,2|8,3:2|0:0,0:0:0:0:
431,374,56379,5,2,0:0:0:0:
448,355,56465,1,2,0:0:0:0:
448,328,56551,1,0,3:0:0:0:
250,211,56724,1,0,3:0:0:0:
339,332,57068,6,0,L|324:286,1,47.9999985351563,2|0,3:2|0:0,0:0:0:0:
441,102,57413,2,0,L|455:147,1,47.9999985351563,2|0,3:2|0:0,0:0:0:0:
223,336,57758,6,0,B|96:296|96:296|81:321|49:328,1,191.999994140625,6|0,3:2|3:0,0:0:0:0:
140,202,58275,2,0,P|125:156|110:110,1,95.9999970703126,8|0,0:0|0:0,0:0:0:0:
178,39,58620,1,0,3:0:0:0:
35,186,58793,1,8,0:0:0:0:
254,243,58965,1,10,0:0:0:0:
276,235,59051,1,8,0:0:0:0:
298,227,59137,1,0,3:0:0:0:
402,32,59310,6,0,P|457:104|380:193,1,191.999994140625,6|10,3:2|0:0,0:0:0:0:
234,84,59827,2,0,L|344:100,1,95.9999970703126,2|0,3:2|0:0,0:0:0:0:
298,286,60172,2,0,L|202:272,1,95.9999970703126,2|8,3:2|0:0,0:0:0:0:
60,113,60517,6,0,P|40:196|36:311,1,191.999994140625,2|0,3:2|3:0,0:0:0:0:
215,367,61034,1,8,0:0:0:0:
215,367,61206,2,0,P|209:303|202:272,1,95.9999970703126,0|0,3:0|0:0,0:0:0:0:
161,147,61551,1,2,3:2:0:0:
256,140,61724,1,10,0:0:0:0:
352,133,61896,1,2,0:0:0:0:
303,266,62068,6,0,P|371:288|439:310,1,143.999995605469,2|0,3:2|0:0,0:0:0:0:
450,323,62413,2,0,P|419:336|383:353,1,47.9999985351563,10|0,0:0|0:0,0:0:0:0:
427,210,62586,1,10,0:0:0:0:
432,196,62672,1,8,0:0:0:0:
433,181,62758,1,8,0:0:0:0:
256,140,62931,2,0,L|352:133,1,95.9999970703126,2|0,3:2|0:0,0:0:0:0:
168,285,63275,6,0,P|76:289|40:380,1,191.999994140625,6|0,3:2|3:0,0:0:0:0:
90,243,63793,2,0,P|70:197|90:138,1,95.9999970703126,8|0,0:0|0:0,0:0:0:0:
150,87,64137,1,2,3:2:0:0:
0,205,64310,1,0,3:0:0:0:
150,87,64482,2,0,L|252:77,1,95.9999970703126,10|0,0:0|0:0,0:0:0:0:
383,207,64827,2,0,L|287:216,1,95.9999970703126,2|0,3:2|3:0,0:0:0:0:
268,210,65086,1,0,3:0:0:0:
262,206,65172,1,8,0:0:0:0:
425,30,65344,6,0,L|438:128,1,95.9999970703126,2|0,3:2|0:0,0:0:0:0:
310,334,65689,2,0,L|295:235,1,95.9999970703126,2|8,3:2|0:0,0:0:0:0:
188,53,66034,6,0,P|272:39|338:119,1,191.999994140625,2|0,3:2|3:0,0:0:0:0:
297,240,66551,2,0,L|193:255,1,95.9999970703126,10|0,0:0|3:0,0:0:0:0:
79,159,66896,2,0,L|174:145,1,95.9999970703126,2|0,0:0|3:0,0:0:0:0:
213,359,67241,2,0,L|117:372,1,95.9999970703126,10|0,0:0|0:0,0:0:0:0:
25,277,67586,5,2,3:2:0:0:
73,111,67758,2,0,L|79:165,1,47.9999985351563,0|0,3:0|0:0,0:0:0:0:
302,287,68103,2,0,L|296:239,1,47.9999985351563,2|0,3:2|0:0,0:0:0:0:
220,14,68448,1,2,3:2:0:0:
187,197,68621,1,2,0:0:0:0:
347,73,68793,6,0,P|444:104|458:194,1,191.999994140625,6|0,3:2|3:0,0:0:0:0:
455,363,69310,2,0,L|355:351,1,95.9999970703126,8|0,0:0|0:0,0:0:0:0:
239,242,69655,1,0,3:0:0:0:
205,384,69827,1,8,0:0:0:0:
182,362,69913,1,8,0:0:0:0:
170,333,70000,1,10,0:0:0:0:
171,301,70086,1,8,0:0:0:0:
185,272,70172,1,8,0:0:0:0:
209,252,70258,1,8,0:0:0:0:
239,242,70344,6,0,P|300:278|331:76,1,391.99998803711,6|2,3:2|0:0,0:0:0:0:
102,181,72758,6,0,L|110:207,1,27.9999991455078,8|0,0:0|0:0,0:0:0:0:
63,273,73103,1,2,3:2:0:0:
150,115,73275,1,0,3:0:0:0:
33,93,73448,1,10,0:0:0:0:
179,295,73620,1,2,3:2:0:0:
368,0,73965,1,2,3:2:0:0:
511,221,74310,6,0,B|384:181|384:181|368:210|330:218,1,200,6|2,3:2|0:0,0:0:0:0:
170,354,75344,1,8,0:0:0:0:
281,384,75517,2,0,L|233:231,1,160,8|6,0:0|3:2,0:0:0:0:
115,72,80862,5,0,3:0:0:0:
37,220,81034,2,0,B|23:200|0:190|0:190|109:163,1,160,12|0,0:0|3:0,0:0:0:0:
338,200,81551,6,0,P|295:210|240:222,1,95.9999970703126,0|8,0:0|0:0,0:0:0:0:
157,240,81896,1,0,3:0:0:0:
156,245,81982,1,8,0:0:0:0:
155,250,82068,1,0,3:0:0:0:
204,138,82241,1,0,3:0:0:0:
204,326,82413,2,0,P|161:336|106:348,1,95.9999970703126,8|0,0:0|3:0,0:0:0:0:
308,326,82758,6,0,P|351:336|406:348,1,95.9999970703126,0|0,0:0|3:0,0:0:0:0:
500,369,83103,1,8,0:0:0:0:
378,225,83448,1,0,3:0:0:0:
500,193,83620,1,0,3:0:0:0:
378,225,83793,2,0,P|329:212|284:193,1,95.9999970703126,8|0,0:0|0:0,0:0:0:0:
495,75,84137,6,0,B|433:77|433:77|409:92|409:92|350:95,1,143.999995605469,0|0,3:0|0:0,0:0:0:0:
347,101,84482,1,8,0:0:0:0:
228,24,84655,1,0,3:0:0:0:
229,29,84741,1,8,0:0:0:0:
230,34,84827,1,0,3:0:0:0:
331,3,85000,1,0,3:0:0:0:
255,125,85172,2,0,L|156:149,1,95.9999970703126,8|0,0:0|3:0,0:0:0:0:
46,90,85517,6,0,P|38:44|12:1,2,95.9999970703126,0|0|8,0:0|3:0|0:0,0:0:0:0:
22,216,86034,1,0,3:0:0:0:
161,147,86206,2,0,B|189:221|189:221|179:290,1,143.999995605469,2|0,0:0|0:0,0:0:0:0:
177,296,86551,2,0,L|67:310,1,95.9999970703126,8|0,0:0|0:0,0:0:0:0:
331,277,86896,5,0,3:0:0:0:
177,296,87068,1,8,0:0:0:0:
290,190,87241,1,8,0:0:0:0:
261,343,87413,1,8,0:0:0:0:
195,202,87586,1,8,0:0:0:0:
331,277,87758,1,0,3:0:0:0:
331,277,88275,5,6,3:2:0:0:
109,155,90689,6,0,P|57:177|104:222,1,120
90,227,91034,5,6,3:2:0:0:
206,197,91206,1,8,0:0:0:0:
60,110,91379,5,8,0:0:0:0:
177,81,91551,1,10,0:0:0:0:
104,127,91724,5,8,0:0:0:0:
221,156,91896,1,8,0:0:0:0:
134,10,92068,1,8,0:0:0:0:
250,40,92241,1,8,0:0:0:0:
104,127,92413,5,8,0:0:0:0:
304,175,92586,1,8,0:0:0:0:
165,286,92758,5,8,0:0:0:0:
216,120,92931,1,8,0:0:0:0:
354,290,93103,5,4,3:2:0:0:
322,295,93189,1,0,3:0:0:0:
291,290,93275,1,0,3:2:0:0:
263,275,93362,1,10,0:0:0:0:
242,251,93448,5,4,3:2:0:0:
268,268,93534,1,0,3:0:0:0:
286,294,93620,1,10,0:0:0:0:
295,325,93706,1,10,0:0:0:0:
293,357,93793,6,0,P|283:313|332:196,1,160,2|8,3:2|0:0,0:0:0:0:
389,143,94310,1,2,3:2:0:0:
390,148,94396,1,8,0:0:0:0:
391,153,94482,1,2,3:2:0:0:
481,169,94655,1,0,3:0:0:0:
322,217,94827,1,8,0:0:0:0:
289,43,95000,6,0,L|340:33,1,40,2|0,3:2|0:0,0:0:0:0:
222,235,95344,2,0,L|182:242,1,40,2|0,3:2|0:0,0:0:0:0:
85,257,95517,1,8,0:0:0:0:
103,86,95689,2,0,P|118:122|118:171,1,80,2|2,3:2|0:0,0:0:0:0:
14,92,96034,1,8,0:0:0:0:
152,11,96206,1,8,3:0:0:0:
181,13,96293,1,8,0:0:0:0:
211,16,96379,1,10,0:0:0:0:
241,19,96465,1,8,0:0:0:0:
271,22,96551,6,0,P|298:108|243:149,1,160,6|10,3:2|0:0,0:0:0:0:
325,96,97068,2,0,P|366:92|419:97,1,80,6|0,3:2|0:0,0:0:0:0:
473,182,97413,1,10,0:0:0:0:
472,187,97500,1,8,0:0:0:0:
471,192,97586,1,6,3:2:0:0:
382,347,97931,6,0,P|342:353|302:353,2,80,0|0|8,0:0|3:0|0:0,0:0:0:0:
316,265,98448,1,0,3:0:0:0:
319,268,98534,1,8,0:0:0:0:
321,272,98620,1,0,3:0:0:0:
396,223,98793,1,0,3:0:0:0:
308,180,98965,1,8,0:0:0:0:
268,177,99051,1,8,0:0:0:0:
228,175,99137,1,8,0:0:0:0:
92,106,99310,6,0,P|139:45|216:50,1,160,6|8,3:2|0:0,0:0:0:0:
127,203,99827,1,2,0:0:0:0:
121,207,99913,1,8,0:0:0:0:
115,211,100000,2,0,L|39:187,1,80,2|0,3:2|3:0,0:0:0:0:
228,175,100344,1,8,0:0:0:0:
166,292,100517,6,0,P|196:268|236:267,1,80,2|0,3:2|0:0,0:0:0:0:
265,350,100862,2,0,P|235:374|195:375,1,80,2|8,3:2|0:0,0:0:0:0:
327,278,101206,1,2,3:2:0:0:
402,342,101379,2,0,L|426:266,1,80,2|8,0:0|0:0,0:0:0:0:
289,160,101724,1,8,0:0:0:0:
281,180,101810,1,8,0:0:0:0:
286,199,101896,1,0,3:0:0:0:
453,89,102068,6,0,B|333:51|333:51|321:66|303:70,1,160,6|8,3:2|0:0,0:0:0:0:
207,133,102586,1,2,0:0:0:0:
200,129,102672,1,8,0:0:0:0:
194,125,102758,2,0,L|170:49,1,80,2|0,3:2|3:0,0:0:0:0:
305,69,103103,1,10,0:0:0:0:
152,216,103275,6,0,P|75:191|0:167,1,160,6|2,3:2|3:2,0:0:0:0:
134,316,103793,2,0,P|172:303|210:291,1,80,10|0,0:0|3:0,0:0:0:0:
344,208,104137,1,2,0:0:0:0:
236,146,104310,2,0,L|249:184,1,40,8|0,0:0|0:0,0:0:0:0:
295,300,104482,2,0,L|308:338,1,40,8|0,0:0|0:0,0:0:0:0:
411,378,104655,5,8,0:0:0:0:
435,378,104741,1,8,0:0:0:0:
452,359,104827,2,0,P|486:290|456:219,1,160,6|8,3:2|0:0,0:0:0:0:
321,87,105344,1,2,3:2:0:0:
319,97,105431,1,8,0:0:0:0:
325,104,105517,2,0,P|356:128|395:130,1,80,2|0,3:2|0:0,0:0:0:0:
273,18,105862,1,8,0:0:0:0:
163,106,106034,6,0,L|125:93,1,40,2|0,3:2|0:0,0:0:0:0:
349,278,106379,2,0,L|387:291,1,40,2|0,3:2|0:0,0:0:0:0:
179,384,106724,5,2,3:2:0:0:
179,384,106896,2,0,L|153:308,1,80,2|8,0:0|0:0,0:0:0:0:
221,186,107241,1,8,0:0:0:0:
235,196,107327,1,8,0:0:0:0:
237,214,107413,1,2,3:2:0:0:
40,167,107586,6,0,P|99:96|189:112,1,191.999994140625,6|8,3:2|0:0,0:0:0:0:
360,315,108103,2,0,P|269:299|237:213,1,191.999994140625,6|8,3:2|0:0,0:0:0:0:
244,208,108534,1,8,0:0:0:0:
251,203,108620,1,8,0:0:0:0:
414,62,108793,6,0,B|388:52|362:20|362:20|394:140,1,191.999994140625,6|0,3:2|3:0,0:0:0:0:
495,283,109310,2,0,P|519:243|511:197,1,95.9999970703126,8|0,0:0|3:0,0:0:0:0:
219,297,109655,1,10,0:0:0:0:
235,321,109741,1,8,0:0:0:0:
259,340,109827,1,8,0:0:0:0:
287,349,109913,1,8,0:0:0:0:
317,348,110000,1,10,0:0:0:0:
345,337,110086,1,8,0:0:0:0:
367,318,110172,1,8,0:0:0:0:
382,292,110258,1,8,0:0:0:0:
388,263,110344,6,0,P|427:190|510:196,1,176.000005371094,6|10,3:2|0:0,0:0:0:0:
388,263,110862,1,2,3:2:0:0:
349,142,111034,2,0,L|254:131,1,88.000002685547,2|0,0:0|3:0,0:0:0:0:
419,68,111379,1,10,0:0:0:0:
298,0,111551,6,0,P|380:-6|420:66,1,176.000005371094,2|2,3:2|3:2,0:0:0:0:
261,131,112068,1,10,0:0:0:0:
173,120,112241,1,2,3:2:0:0:
86,110,112413,1,2,3:2:0:0:
79,94,112586,1,8,0:3:0:0:
146,336,112931,5,4,0:3:0:0:
39,244,113103,2,0,L|139:235,1,88.000002685547,2|0,3:2|3:0,0:0:0:0:
58,343,113448,1,10,0:0:0:0:
58,343,113620,2,0,L|158:334,1,88.000002685547,2|0,3:2|0:0,0:0:0:0:
251,231,113965,1,10,0:0:0:0:
241,264,114051,1,8,0:0:0:0:
246,299,114137,1,8,0:0:0:0:
488,262,114310,6,0,L|400:254,1,88.000002685547,6|0,3:2|0:3,0:3:0:0:
320,356,114655,2,0,L|407:348,1,88.000002685547,2|8,3:2|0:0,0:3:0:0:
488,262,115000,1,0,3:0:0:0:
462,68,115172,1,8,0:0:0:0:
371,91,115431,1,8,0:0:0:0:
367,101,115517,1,0,3:0:0:0:
272,134,115689,1,10,0:0:0:0:
58,121,115862,6,0,P|106:52|190:61,1,176.000005371094,6|8,3:2|0:0,0:0:0:0:
72,234,116379,1,2,0:0:0:0:
223,207,116551,2,0,L|139:180,1,88.000002685547,2|0,3:2|3:0,0:0:0:0:
315,259,116896,1,10,0:0:0:0:
177,305,117068,6,0,P|231:243|323:267,1,176.000005371094,2|2,3:2|3:2,0:0:0:0:
498,176,117586,1,10,0:0:0:0:
398,123,117758,1,10,0:0:0:0:
391,130,117844,1,8,0:0:0:0:
385,137,117931,2,0,L|425:262,2,132.00000402832,4|4|8,0:3|0:3|0:0,0:0:0:0:
311,100,118534,1,8,0:0:0:0:
298,94,118620,5,6,3:2:0:0:
221,120,118793,1,8,0:0:0:0:
196,39,118965,1,8,0:0:0:0:
277,14,119137,1,10,0:0:0:0:
385,137,119310,5,10,0:0:0:0:
471,55,119482,1,8,0:0:0:0:
351,228,119655,5,8,0:0:0:0:
465,261,119827,1,8,0:0:0:0:
255,244,120000,5,8,0:0:0:0:
288,383,120172,1,8,0:0:0:0:
193,168,120344,5,8,0:0:0:0:
48,306,120517,1,8,0:0:0:0:
227,76,120689,5,8,2:0:0:0:
2,8,120862,1,8,2:0:0:0:
122,57,121379,6,0,P|37:157|91:216,1,191.999994140625,6|10,3:2|0:0,0:0:0:0:
243,170,121896,2,0,L|144:152,1,95.9999970703126,2|0,0:0|3:0,0:0:0:0:
289,280,122241,2,0,L|195:263,1,95.9999970703126,2|8,3:2|0:0,0:0:0:0:
86,334,122586,6,0,P|174:357|285:373,1,191.999994140625,2|0,3:2|3:0,0:0:0:0:
387,234,123103,1,8,0:0:0:0:
387,234,123275,2,0,P|374:278|390:331,1,95.9999970703126,0|0,3:0|0:0,0:0:0:0:
478,217,123620,1,2,3:2:0:0:
465,131,123793,1,10,0:0:0:0:
453,45,123965,1,2,3:2:0:0:
304,202,124137,6,0,P|309:130|318:59,1,143.999995605469,2|0,3:2|0:0,0:0:0:0:
331,44,124482,2,0,P|344:75|361:111,1,47.9999985351563,10|0,0:0|0:0,0:0:0:0:
223,39,124655,1,10,0:0:0:0:
209,34,124741,1,8,0:0:0:0:
194,33,124827,1,8,0:0:0:0:
143,184,125000,2,0,L|129:77,1,95.9999970703126,2|0,3:2|0:0,0:0:0:0:
129,384,125344,6,0,P|91:301|0:297,1,191.999994140625,6|0,3:2|3:0,0:0:0:0:
118,297,125862,2,0,P|154:267|201:263,1,95.9999970703126,8|0,0:0|0:0,0:0:0:0:
276,306,126206,1,2,3:2:0:0:
143,184,126379,1,0,3:0:0:0:
276,306,126551,2,0,L|384:294,1,95.9999970703126,10|0,0:0|0:0,0:0:0:0:
474,137,126896,2,0,L|378:147,1,95.9999970703126,2|0,3:2|3:0,0:0:0:0:
368,158,127155,1,0,3:0:0:0:
366,165,127241,1,10,0:0:0:0:
464,312,127413,6,0,L|453:209,1,95.9999970703126,2|0,3:2|0:0,0:0:0:0:
257,41,127758,2,0,L|267:136,1,95.9999970703126,2|8,3:2|0:0,0:0:0:0:
297,339,128103,6,0,P|251:266|142:287,1,191.999994140625,2|0,3:2|3:0,0:0:0:0:
97,357,128620,1,10,0:0:0:0:
31,181,128793,2,0,L|131:197,1,95.9999970703126,2|0,3:2|0:0,0:0:0:0:
251,119,129137,2,0,L|156:103,1,95.9999970703126,2|8,3:2|0:0,0:0:0:0:
61,87,129482,1,2,0:0:0:0:
251,119,129655,5,0,3:0:0:0:
345,134,129827,1,0,3:0:0:0:
472,27,130172,2,0,L|464:88,1,47.9999985351563,2|0,3:2|0:0,0:0:0:0:
472,357,130517,2,0,L|464:296,1,47.9999985351563,2|0,3:2|0:0,0:0:0:0:
345,134,130862,6,0,P|366:199|267:240,1,191.999994140625,6|0,3:2|3:0,0:0:0:0:
257,237,131293,1,0,3:0:0:0:
243,232,131379,1,8,0:0:0:0:
56,17,131724,1,0,3:0:0:0:
48,113,131896,1,8,0:0:0:0:
41,209,132068,1,10,0:0:0:0:
44,214,132155,1,8,0:0:0:0:
47,219,132241,1,0,3:0:0:0:
315,89,132413,6,0,B|186:47|186:47|172:73|141:79,1,191.999994140625,6|10,3:2|0:0,0:0:0:0:
294,203,132931,2,0,L|385:173,1,95.9999970703126,2|0,3:2|0:0,0:0:0:0:
292,304,133275,2,0,L|201:274,1,95.9999970703126,2|8,3:2|0:0,0:0:0:0:
444,384,133620,6,0,P|496:307|463:221,1,191.999994140625,2|0,3:2|3:0,0:0:0:0:
276,105,134137,1,8,0:0:0:0:
276,105,134310,2,0,L|306:196,1,95.9999970703126,0|0,3:0|0:0,0:0:0:0:
463,81,134655,1,2,3:2:0:0:
415,14,134827,1,10,0:0:0:0:
333,23,135000,1,2,0:0:0:0:
198,182,135172,6,0,L|61:136,1,143.999995605469,2|0,3:2|0:0,0:0:0:0:
50,142,135517,2,0,L|35:97,1,47.9999985351563,10|0,0:0|0:0,0:0:0:0:
133,0,135689,1,10,0:0:0:0:
152,18,135775,1,8,0:0:0:0:
153,48,135862,1,8,0:0:0:0:
252,101,136034,2,0,L|345:73,1,95.9999970703126,2|0,3:2|3:0,0:0:0:0:
512,244,136379,6,0,P|447:178|357:195,1,191.999994140625,6|0,3:2|3:0,0:0:0:0:
270,258,136896,2,0,L|298:351,1,95.9999970703126,8|0,0:0|0:0,0:0:0:0:
357,195,137241,1,2,3:2:0:0:
195,327,137413,1,0,3:0:0:0:
397,384,137586,2,0,L|490:356,1,95.9999970703126,10|0,0:0|0:0,0:0:0:0:
195,327,137931,6,0,L|104:355,1,95.9999970703126,2|0,3:2|3:0,0:0:0:0:
84,348,138189,1,0,3:0:0:0:
77,345,138275,1,8,0:0:0:0:
282,384,138448,2,0,L|309:292,1,95.9999970703126,2|0,3:2|0:0,0:0:0:0:
146,146,138793,2,0,L|117:237,1,95.9999970703126,2|8,3:2|0:0,0:0:0:0:
431,117,139137,6,0,B|302:75|302:75|288:101|257:107,1,191.999994140625,2|0,3:2|3:0,0:0:0:0:
145,244,139655,2,0,L|117:152,1,95.9999970703126,10|0,0:0|3:0,0:0:0:0:
230,15,140000,2,0,L|258:107,1,95.9999970703126,2|0,0:0|3:0,0:0:0:0:
407,202,140344,2,0,P|434:163|431:116,1,95.9999970703126,10|0,0:0|0:0,0:0:0:0:
269,277,140689,5,2,3:2:0:0:
374,338,140862,2,0,L|420:324,1,47.9999985351563,0|0,3:0|0:0,0:0:0:0:
145,244,141206,2,0,L|191:230,1,47.9999985351563,2|0,3:2|0:0,0:0:0:0:
116,384,141551,1,2,3:2:0:0:
269,277,141724,1,2,0:0:0:0:
113,115,141896,6,0,P|155:194|245:182,1,191.999994140625,6|0,3:2|3:0,0:0:0:0:
332,91,142413,2,0,L|304:-1,1,95.9999970703126,8|0,0:0|0:0,0:0:0:0:
364,184,142758,1,0,3:0:0:0:
420,22,142931,1,8,0:0:0:0:
450,48,143017,1,8,0:0:0:0:
465,86,143103,1,10,0:0:0:0:
461,127,143189,1,8,0:0:0:0:
440,161,143275,1,8,0:0:0:0:
404,182,143362,1,8,0:0:0:0:
364,184,143448,6,0,P|251:306|421:360,1,391.99998803711,6|2,3:2|0:0,0:0:0:0:
285,165,145862,6,0,L|278:200,1,27.9999991455078,8|0,0:0|0:0,0:0:0:0:
339,247,146206,1,2,3:2:0:0:
231,83,146379,1,0,3:0:0:0:
330,78,146551,1,10,0:0:0:0:
240,252,146724,1,2,3:2:0:0:
83,6,147068,1,2,3:2:0:0:
97,326,147413,6,0,B|191:297|193:367|291:333,1,200,6|2,3:2|0:0,0:0:0:0:
436,285,148448,5,8,0:0:0:0:
357,190,148620,2,0,L|346:281,1,80,8|0,0:0|0:0,0:0:0:0:
440,107,148965,1,6,3:2:0:0:
310,269,159310,6,0,L|348:281,1,40,0|8,3:0|0:0,0:0:0:0:
439,250,159482,1,8,0:0:0:0:
461,236,159568,1,8,0:0:0:0:
478,215,159655,1,8,0:0:0:0:
488,191,159741,1,8,0:0:0:0:
490,164,159827,1,8,0:0:0:0:
484,139,159913,1,8,0:0:0:0:
469,116,160000,5,2,3:1:0:0:
384,148,160172,1,0,3:2:0:0:
398,58,160344,1,8,0:0:0:0:
481,118,160517,5,2,3:1:0:0:
376,157,160689,1,0,0:0:0:0:
393,46,160862,1,0,3:2:0:0:
283,215,161034,5,10,0:1:0:0:
196,183,161206,1,0,3:2:0:0:
109,151,161379,1,0,0:0:0:0:
4,264,161551,5,2,3:1:0:0:
96,229,161724,1,8,0:0:0:0:
190,195,161896,1,0,3:2:0:0:
82,40,162068,5,2,0:1:0:0:
2,64,162241,1,0,3:0:0:0:
26,144,162413,1,10,0:1:0:0:
105,119,162586,1,0,0:0:0:0:
233,58,162758,5,2,3:1:0:0:
312,113,162931,1,0,3:2:0:0:
307,209,163103,1,8,0:0:0:0:
229,274,163275,5,10,0:1:0:0:
213,257,163362,1,8,0:0:0:0:
207,233,163448,1,8,0:0:0:0:
321,107,163620,1,0,3:2:0:0:
402,170,163793,2,0,B|407:190|407:190|408:188|408:188|413:208,1,40,2|0,0:1|0:0,0:0:0:0:
512,277,163965,6,2,B|500:255|500:255|431:242|431:242|437:247|410:300|359:296,1,191.999994140625,6|0,3:2|0:0,0:1:0:0:
179,333,164482,2,0,B|221:347|221:347|223:355|223:355|264:366,1,95.9999970703126,8|0,0:1|3:0,0:0:0:0:
279,359,164741,1,0,3:0:0:0:
286,354,164827,1,2,1:0:0:0:
103,212,165000,1,0,3:2:0:0:
99,218,165086,1,0,3:0:0:0:
96,224,165172,2,0,L|110:269,1,47.9999985351563,10|0,1:0|0:0,0:0:0:0:
248,114,165431,5,0,3:0:0:0:
254,109,165517,2,2,B|251:58|202:39|202:39|204:44|204:44|154:24|109:55,1,191.999994140625,10|8,0:1|0:1,0:1:0:0:
227,215,166034,5,0,3:0:0:0:
237,219,166120,1,0,0:0:0:0:
245,222,166206,2,0,B|291:207|291:207|292:202|292:202|332:189,1,95.9999970703126,2|0,0:1|3:0,0:1:0:0:
341,176,166465,1,0,0:0:0:0:
345,169,166551,1,8,0:0:0:0:
443,231,166724,1,0,3:0:0:0:
505,133,166896,5,0,0:0:0:0:
407,71,167068,1,0,3:0:0:0:
309,9,167241,2,2,B|267:39|218:19,1,95.9999970703126,10|0,0:1|3:0,0:1:0:0:
126,31,167586,1,0,0:0:0:0:
80,135,167758,1,0,3:0:0:0:
184,125,167931,1,10,0:1:0:0:
124,38,168103,1,0,0:0:0:0:
75,142,168275,6,0,L|82:238,1,95.9999970703126,2|0,3:1|3:0,0:0:0:0:
63,344,168620,1,8,0:0:0:0:
171,245,168793,1,2,3:1:0:0:
183,237,168879,1,8,0:0:0:0:
197,239,168965,2,0,B|228:260|228:260|230:273|230:273|271:300,1,95.9999970703126,8|0,0:0|3:0,0:0:0:0:
185,354,169310,1,10,0:1:0:0:
292,221,169482,6,2,B|371:213|371:213|395:187|395:187|475:180,1,191.999994140625,6|0,3:1|3:0,0:1:0:0:
418,283,170000,1,8,0:0:0:0:
325,132,170172,1,2,3:1:0:0:
328,136,170258,1,0,3:0:0:0:
331,140,170344,1,0,3:2:0:0:
425,72,170517,1,8,0:0:0:0:
471,180,170689,1,10,0:1:0:0:
437,177,170775,1,8,0:0:0:0:
403,174,170862,1,0,3:0:0:0:
279,55,171034,5,6,3:1:0:0:
183,67,171206,1,0,3:0:0:0:
88,80,171379,1,8,0:0:0:0:
15,0,171551,6,2,B|26:81|26:81|38:96|38:96|51:209,1,191.999994140625,2|0,3:1|3:0,0:1:0:0:
8,341,172068,1,10,0:1:0:0:
8,341,172241,2,2,P|86:304|156:369,1,191.999994140625,2|0,3:1|3:0,0:1:0:0:
58,272,172758,1,8,0:0:0:0:
168,238,172931,2,0,B|220:230|254:269|254:269|290:309|343:303,1,191.999994140625,0|0,3:0|3:0,0:0:0:0:
283,152,173448,2,0,L|275:253,1,95.9999970703126,8|0,0:0|0:0,0:0:0:0:
430,367,173793,5,2,3:1:0:0:
430,367,173965,2,0,L|422:271,1,95.9999970703126,0|8,3:2|0:0,0:0:0:0:
283,152,174310,1,10,0:1:0:0:
317,149,174396,1,8,0:0:0:0:
351,146,174482,1,8,0:0:0:0:
334,238,174655,1,0,3:0:0:0:
244,64,174827,5,6,3:1:0:0:
244,64,175000,2,2,L|403:52,1,143.999995605469,14|0,0:1|0:0,0:1:0:0:
411,52,175344,1,0,3:0:0:0:
491,76,175517,1,10,0:1:0:0:
467,156,175689,1,0,0:0:0:0:
388,131,175862,1,2,3:1:0:0:
298,60,176034,1,0,3:2:0:0:
298,60,176206,2,0,L|185:68,1,95.9999970703126,10|0,0:1|0:0,0:0:0:0:
12,94,176551,5,2,3:1:0:0:
74,164,176724,1,0,3:2:0:0:
92,278,176896,5,10,0:1:0:0:
156,215,177068,1,0,3:2:0:0:
270,197,177241,5,2,0:1:0:0:
207,133,177413,1,0,3:2:0:0:
189,19,177586,5,10,0:1:0:0:
125,82,177758,1,0,3:2:0:0:
233,254,177931,5,0,3:0:0:0:
251,229,178017,1,0,3:2:0:0:
277,214,178103,1,0,3:0:0:0:
309,212,178189,1,0,3:0:0:0:
338,223,178275,2,0,L|352:268,3,47.9999985351563,10|0|0|0,0:1|3:0|3:0|3:0,0:0:0:0:
435,298,178620,5,0,3:0:0:0:
468,261,178706,1,0,3:0:0:0:
476,213,178793,1,0,3:0:0:0:
457,167,178879,1,0,3:3:0:0:
435,155,178965,5,10,0:1:0:0:
422,138,179051,1,0,3:0:0:0:
420,122,179137,1,0,3:0:0:0:
423,113,179224,1,0,3:0:0:0:
429,106,179310,6,0,L|414:60,1,47.9999985351563,2|0,3:1|3:0,0:0:0:0:
327,88,179482,2,0,L|341:133,1,47.9999985351563,0|0,3:0|3:0,0:0:0:0:
276,214,179655,1,8,0:0:0:0:
270,216,179741,1,4,0:3:0:0:
262,219,179827,2,0,L|217:205,1,47.9999985351563,4|4,0:3|0:3,0:0:0:0:
108,82,180000,5,8,0:0:0:0:
53,101,180086,1,8,0:0:0:0:
22,149,180172,1,8,0:0:0:0:
31,205,180258,1,8,0:0:0:0:
73,244,180344,2,2,L|119:258,1,47.9999985351563,8|0,0:0|0:0,0:0:0:0:
235,344,180517,6,2,B|308:282|413:293|428:305|428:305|410:309|335:243|342:142|467:120|506:170|519:229|489:292,1,527.999983886719,6|8,3:1|0:0,0:1:0:0:
500,272,181637,1,8,0:0:0:0:
503,278,181724,1,8,0:0:0:0:
505,285,181810,1,8,0:0:0:0:
508,291,181896,1,8,0:0:0:0:
511,297,181982,1,8,0:0:0:0:
346,338,187241,6,0,L|356:307,1,32,8|0,0:0|0:0,0:0:0:0:
180,250,187586,6,0,L|58:290,1,128,6|4,3:2|0:3,0:0:0:0:
293,78,188448,5,4,0:3:0:0:
198,70,188620,2,0,L|218:130,1,64,8|0,0:3|0:0,0:0:0:0:
348,216,188965,6,0,P|408:145|500:154,1,192,6|4,3:2|0:3,0:0:0:0:
350,349,189827,5,8,0:3:0:0:
436,286,190000,2,0,B|303:243|303:243|287:265|258:269,1,192,6|0,3:2|0:0,0:0:0:0:
133,192,190689,2,0,L|142:222,1,32,8|0,0:0|0:0,0:0:0:0:
325,13,191206,5,6,3:2:0:0:
325,13,191379,2,1,B|239:7|190:130|228:179|302:171|297:95|226:55,1,304.000000000006,6|0,3:2|0:0,0:0:0:0:
128,100,192413,2,0,L|98:91,1,32,8|0,0:0|0:0,0:0:0:0:
40,38,192586,1,0,3:0:0:0:
36,30,192758,1,0,3:0:0:0:
48,273,193103,5,6,3:2:0:0:
51,276,193275,2,0,L|45:169,1,80,0|2,3:0|0:0,0:0:0:0:
143,318,193620,2,0,L|137:211,1,80,2|0,3:2|0:0,0:0:0:0:
235,360,193965,1,2,3:2:0:0:
238,363,194137,6,0,L|232:256,1,80,6|0,3:2|0:0,0:0:0:0:
228,202,194655,1,0,3:0:0:0:
224,123,194827,2,0,L|228:202,1,80,8|0,0:0|0:0,0:0:0:0:
319,234,195172,1,0,3:0:0:0:
397,169,195344,1,8,0:3:0:0:
402,73,195517,1,8,0:3:0:0:
323,18,195689,1,2,0:0:0:0:
152,24,195862,5,2,3:2:0:0:
149,27,196034,2,0,L|256:21,1,80,0|10,3:0|0:0,0:0:0:0:
107,119,196379,2,0,L|214:113,1,80,2|0,3:2|0:0,0:0:0:0:
65,211,196724,1,10,0:0:0:0:
62,214,196896,6,0,L|169:208,1,80,14|0,0:0|0:0,0:0:0:0:
228,202,197413,1,0,3:0:0:0:
308,199,197586,2,0,L|228:203,1,80,14|0,0:0|0:0,0:0:0:0:
129,210,197931,1,8,0:3:0:0:
84,294,198103,1,4,0:3:0:0:
141,370,198275,1,10,0:0:0:0:
144,373,198362,1,8,0:0:0:0:
147,377,198448,1,0,3:0:0:0:
258,298,198620,5,0,3:0:0:0:
261,302,198793,1,0,3:0:0:0:
256,381,198965,2,0,L|262:274,1,80,8|0,0:0|0:0,0:0:0:0:
370,299,199310,1,0,3:0:0:0:
373,303,199482,1,0,3:0:0:0:
368,382,199655,1,8,0:0:0:0:
512,244,199827,6,0,L|405:238,1,80,0|0,3:0|0:0,0:0:0:0:
473,147,200172,1,0,3:0:0:0:
475,150,200344,6,0,L|368:144,1,80,8|2,0:0|0:0,0:0:0:0:
211,133,200861,1,0,3:0:0:0:
307,139,201034,1,8,0:0:0:0:
259,45,201207,1,8,0:0:0:0:
262,49,201293,1,8,0:0:0:0:
265,53,201379,5,6,3:2:0:0:
125,86,201551,1,8,0:0:0:0:
158,226,201724,1,8,0:0:0:0:
298,193,201896,1,8,0:0:0:0:
211,133,202068,5,8,0:0:0:0:
181,303,202240,1,8,0:0:0:0:
381,163,202413,1,8,0:0:0:0:
351,333,202586,2,0,P|315:373|253:363,1,120.000004577637,8|0,0:0|3:0,0:0:0:0:
434,363,203103,1,0,3:0:0:0:
41,216,204137,6,0,P|107:151|198:165,1,191.999994140625,6|10,3:2|0:0,0:0:0:0:
329,92,204655,2,0,L|357:0,1,95.9999970703126,2|0,0:0|3:0,0:0:0:0:
249,24,205000,1,2,3:2:0:0:
400,157,205172,1,8,0:0:0:0:
195,229,205344,6,0,B|64:190|64:190|86:212|89:240,1,191.999994140625,2|0,3:2|3:0,0:0:0:0:
183,340,205862,2,0,P|220:328|275:312,1,95.9999970703126,8|0,0:0|3:0,0:0:0:0:
326,236,206206,1,0,0:0:0:0:
511,169,206379,5,2,3:2:0:0:
455,109,206551,1,10,0:0:0:0:
375,125,206724,1,2,3:2:0:0:
227,224,206896,6,0,P|206:155|185:86,1,143.999995605469,2|0,3:2|0:0,0:0:0:0:
149,45,207241,2,0,P|156:67|163:91,1,47.9999985351563,10|0,0:0|0:0,0:0:0:0:
283,96,207413,1,10,0:0:0:0:
302,72,207500,1,8,0:0:0:0:
295,40,207586,1,8,0:0:0:0:
466,121,207758,2,0,P|431:132|375:151,1,95.9999970703126,2|0,3:2|0:0,0:0:0:0:
190,318,208103,6,0,P|250:247|342:253,1,191.999994140625,6|0,3:2|3:0,0:0:0:0:
448,384,208620,2,0,P|461:344|478:293,1,95.9999970703126,8|0,0:0|0:0,0:0:0:0:
309,342,208965,1,2,3:2:0:0:
458,211,209137,1,0,3:0:0:0:
280,133,209310,1,10,0:0:0:0:
326,224,209482,1,0,0:0:0:0:
182,299,209655,6,0,P|136:283|90:268,1,95.9999970703126,2|0,3:2|3:0,0:0:0:0:
75,276,209913,1,0,3:0:0:0:
68,279,210000,1,10,0:0:0:0:
147,99,210172,2,0,L|177:190,1,95.9999970703126,2|0,3:2|0:0,0:0:0:0:
366,304,210517,2,0,L|334:213,1,95.9999970703126,2|8,3:2|0:0,0:0:0:0:
512,43,210862,6,0,P|459:118|367:116,1,191.999994140625,2|0,3:2|3:0,0:0:0:0:
181,27,211379,1,10,0:0:0:0:
235,186,211551,2,0,P|249:143|265:95,1,95.9999970703126,2|0,3:2|0:0,0:0:0:0:
104,240,211896,2,0,P|62:226|13:210,1,95.9999970703126,2|8,3:2|0:0,0:0:0:0:
143,345,212241,5,2,0:0:0:0:
173,322,212327,1,2,0:0:0:0:
212,326,212413,1,0,3:0:0:0:
288,376,212586,1,0,3:0:0:0:
442,249,212931,6,0,L|457:295,1,47.9999985351563,2|0,3:2|0:0,0:0:0:0:
287,102,213275,2,0,L|272:56,1,47.9999985351563,2|0,3:2|0:0,0:0:0:0:
461,145,213620,6,0,P|392:167|278:204,1,191.999994140625,6|0,3:2|3:0,0:0:0:0:
78,178,214137,2,0,P|112:145|158:138,1,95.9999970703126,8|0,0:0|0:0,0:0:0:0:
220,74,214482,1,0,3:0:0:0:
84,266,214655,1,8,0:0:0:0:
231,338,214827,1,10,0:0:0:0:
224,315,214913,1,8,0:0:0:0:
217,292,214999,1,0,3:0:0:0:
28,188,215172,6,0,P|-10:287|48:349,1,191.999994140625,6|10,3:2|0:0,0:0:0:0:
179,271,215689,2,0,L|64:264,1,95.9999970703126,2|0,3:2|0:0,0:0:0:0:
239,362,216034,2,0,L|334:367,1,95.9999970703126,2|8,3:2|0:0,0:0:0:0:
451,182,216379,6,0,P|451:278|440:379,1,191.999994140625,2|0,3:2|3:0,0:0:0:0:
338,259,216896,1,8,0:0:0:0:
338,259,217068,2,0,L|344:155,1,95.9999970703126,0|0,3:0|0:0,0:0:0:0:
280,44,217413,1,2,3:2:0:0:
184,51,217585,1,10,0:0:0:0:
89,58,217758,1,2,0:0:0:0:
30,290,217931,6,0,L|38:146,1,143.999995605469,2|0,3:2|0:0,0:0:0:0:
33,133,218275,2,0,P|5:149|-9:166,1,47.9999985351563,10|0,0:0|0:0,0:0:0:0:
119,254,218448,1,10,0:0:0:0:
132,258,218534,1,8,0:0:0:0:
146,256,218620,1,8,0:0:0:0:
226,150,218793,2,0,L|130:172,1,95.9999970703126,2|0,3:2|0:0,0:0:0:0:
258,362,219137,6,0,P|313:306|413:354,1,191.999994140625,6|0,3:2|3:0,0:0:0:0:
302,287,219655,2,0,P|317:237|298:177,1,95.9999970703126,8|0,0:0|0:0,0:0:0:0:
272,105,220000,1,2,3:2:0:0:
399,232,220172,1,0,3:0:0:0:
272,105,220344,2,0,L|177:92,1,95.9999970703126,10|0,0:0|0:0,0:0:0:0:
56,220,220689,6,0,L|151:233,1,95.9999970703126,2|0,3:2|3:0,0:0:0:0:
165,231,220948,1,0,3:0:0:0:
169,228,221034,1,8,0:0:0:0:
81,44,221206,6,0,L|88:171,1,95.9999970703126,2|0,3:2|0:0,0:0:0:0:
262,340,221551,2,0,L|255:240,1,95.9999970703126,2|8,3:2|0:0,0:0:0:0:
310,43,221896,6,0,P|259:110|167:72,1,191.999994140625,2|0,3:2|3:0,0:0:0:0:
284,133,222413,2,0,P|322:160|344:202,1,95.9999970703126,10|0,0:0|3:0,0:0:0:0:
276,353,222758,2,0,L|266:258,1,95.9999970703126,2|0,0:0|3:0,0:0:0:0:
436,182,223103,2,0,L|446:277,1,95.9999970703126,10|0,0:0|0:0,0:0:0:0:
386,93,223448,5,2,3:2:0:0:
366,333,223620,2,0,L|359:271,1,47.9999985351563,0|0,3:0|0:0,0:0:0:0:
234,33,223965,2,0,L|239:80,1,47.9999985351563,2|0,3:2|0:0,0:0:0:0:
111,324,224310,1,2,3:2:0:0:
276,353,224482,1,2,0:0:0:0:
110,323,224655,6,0,P|38:270|62:183,1,191.999994140625,6|0,3:2|3:0,0:0:0:0:
239,80,225172,2,0,L|122:88,1,95.9999970703126,8|0,0:0|0:0,0:0:0:0:
296,174,225517,1,0,3:0:0:0:
344,33,225689,5,8,0:0:0:0:
363,57,225775,1,8,0:0:0:0:
372,88,225861,1,10,0:0:0:0:
368,120,225947,1,8,0:0:0:0:
351,147,226033,1,8,0:0:0:0:
326,166,226120,1,8,0:0:0:0:
296,174,226206,6,0,B|249:208|231:342|316:373|372:315|323:245|210:192|129:260,1,391.99998803711,6|2,3:2|0:0,0:0:0:0:
134,256,228620,6,0,L|124:225,1,32,8|0,0:0|0:0,0:0:0:0:
82,319,228965,1,2,3:2:0:0:
175,161,229137,1,0,3:0:0:0:
74,141,229310,1,10,0:0:0:0:
181,337,229482,1,2,3:2:0:0:
358,103,229827,1,2,3:2:0:0:
512,275,230172,6,0,B|422:247|422:247|389:293|328:285,1,200,6|2,3:2|0:0,0:0:0:0:
127,194,231206,5,8,0:0:0:0:
207,131,231379,2,0,L|231:207,1,80,8|8,0:0|0:0,0:0:0:0:
244,215,231637,1,8,0:0:0:0:
250,219,231724,1,6,3:2:0:0:
389,338,231896,5,0,0:0:0:0:
304,308,232069,1,8,0:0:0:0:
370,250,232241,1,0,3:0:0:0:
375,245,232328,1,8,0:0:0:0:
380,240,232413,1,0,3:0:0:0:
221,384,232586,2,0,L|192:292,1,95.9999970703126,0|8,3:0|0:0,0:0:0:0:
111,252,232931,1,0,3:0:0:0:
194,100,233103,5,0,0:0:0:0:
261,141,233275,1,0,3:0:0:0:
250,219,233448,1,8,0:0:0:0:
270,137,233793,5,0,3:0:0:0:
322,81,233966,1,0,3:0:0:0:
396,63,234138,1,8,0:0:0:0:
467,90,234310,1,0,0:0:0:0:
380,321,234655,5,0,0:0:0:0:
460,252,234827,2,0,L|368:223,1,95.9999970703126,8|0,0:0|0:0,0:0:0:0:
361,210,235086,1,8,0:0:0:0:
357,204,235172,1,0,3:0:0:0:
219,170,235344,2,0,L|248:262,1,95.9999970703126,0|8,3:0|0:0,0:0:0:0:
293,105,235689,1,0,3:0:0:0:
142,249,235862,5,0,0:0:0:0:
74,200,236034,1,0,3:0:0:0:
83,123,236206,1,8,0:0:0:0:
57,353,236551,6,0,P|119:285|210:301,1,191.999994140625,2|8,0:0|0:0,0:0:0:0:
209,300,236982,1,8,0:0:0:0:
206,309,237068,1,8,0:0:0:0:
203,317,237155,1,8,0:0:0:0:
201,327,237241,5,4,3:2:0:0:
154,187,237413,1,0,0:0:0:0:
361,201,237586,1,8,0:0:0:0:
262,239,237758,1,0,3:0:0:0:
260,235,237844,1,8,0:0:0:0:
258,231,237931,1,0,3:0:0:0:
382,95,238103,1,0,3:0:0:0:
449,296,238275,2,0,L|349:305,1,95.9999970703126,8|0,0:0|3:0,0:0:0:0:
172,294,238620,6,0,P|164:337|185:387,2,95.9999970703126,0|0|8,0:0|3:0|0:0,0:0:0:0:
253,160,239310,1,0,3:0:0:0:
99,174,239482,1,0,3:0:0:0:
256,156,239655,2,0,P|264:113|243:63,1,95.9999970703126,8|0,0:0|0:0,0:0:0:0:
27,21,240000,6,0,B|84:27|84:27|107:46|107:46|174:51,1,143.999995605469,0|0,3:0|0:0,0:0:0:0:
170,56,240344,1,8,0:0:0:0:
370,110,240517,1,0,3:0:0:0:
368,114,240604,1,8,0:0:0:0:
366,118,240690,1,0,3:0:0:0:
293,0,240862,1,0,3:0:0:0:
256,156,241034,2,0,L|267:258,1,95.9999970703126,8|0,0:0|3:0,0:0:0:0:
439,334,241379,6,0,P|459:291|443:241,2,95.9999970703126,0|0|8,0:0|3:0|0:0,0:0:0:0:
286,368,241896,1,0,3:0:0:0:
34,371,242068,6,0,B|110:378|110:378|180:357,1,143.999995605469,2|0,0:0|0:0,0:0:0:0:
189,360,242413,2,0,L|173:232,1,95.9999970703126,10|0,0:0|0:0,0:0:0:0:
8,49,242758,5,4,3:2:0:0:
118,148,242930,1,8,0:0:0:0:
86,2,243103,1,8,0:0:0:0:
25,138,243275,1,8,0:0:0:0:
154,64,243448,1,8,0:0:0:0:
8,49,243620,1,0,3:0:0:0:
8,49,243965,5,8,0:0:0:0:
4,52,244051,1,8,0:0:0:0:
0,56,244137,1,12,0:0:0:0:
154,64,244310,1,8,0:0:0:0:
25,138,244482,1,8,0:0:0:0:
86,2,244655,1,4,3:2:0:0:
256,192,244827,12,0,249655,0:0:0:0:
