osu file format v14

[General]
AudioFilename: sorairo days.mp3
AudioLeadIn: 0
PreviewTime: 48010
Countdown: 0
SampleSet: Normal
StackLeniency: 0.7
Mode: 2
LetterboxInBreaks: 0
WidescreenStoryboard: 0

[Editor]
Bookmarks: 5596,15251,26285,37320,48354,75941
DistanceSpacing: 1.3
BeatDivisor: 4
GridSize: 16
TimelineZoom: 1.8

[Metadata]
Title:Sorairo Days
TitleUnicode:空色デイズ
Artist:Nakagawa Shoko
ArtistUnicode:中川翔子
Creator:Zak
Version:Platter
Source:天元突破グレンラガン
Tags:kjwkjw Tenshichan Tengen Toppa Gurren Lagann tv size Big Bang Shouko OP opening theme rock shokotan srcl-6573 meg rock gainax tokyo hot blood robot fight final universe super drill
BeatmapID:366196
BeatmapSetID:147991

[Difficulty]
HPDrainRate:5
CircleSize:3.5
OverallDifficulty:8
ApproachRate:8
SliderMultiplier:2
SliderTickRate:1

[Events]
//Background and Video events
0,0,"bg.png",0,0
//Break Periods
//Storyboard Layer 0 (Background)
//Storyboard Layer 1 (Fail)
//Storyboard Layer 2 (Pass)
//Storyboard Layer 3 (Foreground)
//Storyboard Sound Samples

[TimingPoints]
75,344.827586206897,4,1,0,100,1,0
11109,-100,4,1,0,50,0,0
11281,-100,4,1,0,60,0,0
11454,-100,4,1,0,70,0,0
11626,-100,4,1,0,80,0,0
11799,-100,4,1,0,90,0,0
11971,-100,4,1,0,100,0,0
15247,-133.333333333333,4,1,0,50,0,0
19212,-100,4,1,0,10,0,0
19385,-100,4,1,0,20,0,0
19557,-100,4,1,0,30,0,0
19730,-100,4,1,0,40,0,0
19902,-100,4,1,0,50,0,0
20075,-100,4,1,0,60,0,0
20247,-100,4,1,0,70,0,0
20419,-100,4,1,0,80,0,0
20592,-100,4,1,0,90,0,0
20764,-133.333333333333,4,1,0,100,0,0
23178,-100,4,1,0,50,0,0
23350,-100,4,1,0,100,0,0
24557,-100,4,1,0,100,0,0
25592,-100,4,1,0,100,0,0
45592,-100,4,1,0,40,0,0
45764,-100,4,1,0,45,0,0
45937,-100,4,1,0,50,0,0
46109,-100,4,1,0,55,0,0
46281,-100,4,1,0,60,0,0
46454,-100,4,1,0,65,0,0
46626,-100,4,1,0,70,0,0
46799,-100,4,1,0,75,0,0
46971,-100,4,1,0,80,0,0
47143,-100,4,1,0,85,0,0
47316,-100,4,1,0,90,0,0
47488,-100,4,1,0,95,0,0
47661,-100,4,1,0,100,0,0
48350,-100,4,1,0,100,0,1
70419,-100,4,1,0,100,0,0
74385,-200,4,1,0,100,0,0
75937,-100,4,1,0,100,0,0
81454,-100,4,1,0,50,0,0
81626,-100,4,1,0,60,0,0
81799,-100,4,1,0,70,0,0
81971,-100,4,1,0,80,0,0
82143,-100,4,1,0,90,0,0
82316,-100,4,1,0,100,0,0
88350,-100,4,1,0,60,0,0

[Colours]
Combo1 : 204,51,55
Combo2 : 41,56,160
Combo3 : 209,128,84
Combo4 : 181,77,189

[HitObjects]
320,288,4902,5,0,0:0:0:0:
480,288,5247,1,0,0:0:0:0:
256,192,5592,5,4,0:0:0:0:
352,192,5764,1,0,0:0:0:0:
448,192,5937,1,0,0:0:0:0:
352,192,6109,1,8,0:0:0:0:
256,192,6281,1,0,0:0:0:0:
160,192,6454,1,0,0:0:0:0:
32,192,6799,5,0,0:0:0:0:
128,192,6971,1,0,0:0:0:0:
224,192,7143,1,8,0:0:0:0:
320,192,7316,1,0,0:0:0:0:
160,112,7661,5,0,0:0:0:0:
64,112,7833,1,0,0:0:0:0:
160,112,8006,1,8,0:0:0:0:
64,112,8178,1,0,0:0:0:0:
352,112,8523,5,4,0:0:0:0:
448,112,8695,1,0,0:0:0:0:
352,112,8868,1,0,0:0:0:0:
448,112,9040,1,8,0:0:0:0:
304,112,9212,1,0,0:0:0:0:
80,192,9557,5,0,0:0:0:0:
160,192,9730,1,0,0:0:0:0:
240,192,9902,1,8,0:0:0:0:
160,192,10075,1,0,0:0:0:0:
480,192,10419,5,0,0:0:0:0:
368,192,10592,1,0,0:0:0:0:
480,192,10764,1,2,0:0:0:0:
240,128,11109,5,0,0:0:0:0:
288,112,11281,1,0,0:0:0:0:
208,96,11454,1,0,0:0:0:0:
336,80,11626,1,0,0:0:0:0:
160,64,11799,1,0,0:0:0:0:
400,48,11971,1,0,0:0:0:0:
192,192,12316,5,0,0:0:0:0:
320,192,12488,1,8,0:0:0:0:
192,192,12661,1,0,0:0:0:0:
320,192,12833,1,8,0:0:0:0:
192,192,13006,1,4,0:0:0:0:
256,192,13178,12,0,14902,0:0:0:0:
256,192,15247,6,0,P|110:177|32:80,1,225.000008583069,4|0,0:0|0:0,0:0:0:0:
208,64,15937,1,8,0:0:0:0:
448,192,16454,2,0,L|256:192,1,150.000005722046
80,320,17143,1,2,0:0:0:0:
208,320,17316,1,0,0:0:0:0:
336,208,17661,1,0,0:0:0:0:
32,272,18006,6,0,P|128:176|224:160,1,225.000008583069
368,144,18695,1,8,0:0:0:0:
112,96,19040,1,0,0:0:0:0:
208,96,19212,1,0,0:0:0:0:
112,192,19385,5,0,0:0:0:0:
16,192,19557,1,0,0:0:0:0:
112,192,19730,1,0,0:0:0:0:
208,192,19902,1,0,0:0:0:0:
304,192,20075,1,2,0:0:0:0:
400,192,20247,1,0,0:0:0:0:
304,192,20419,1,0,0:0:0:0:
208,192,20592,1,0,0:0:0:0:
400,192,20764,6,0,B|432:48|304:48|272:64,1,225.000008583069,4|0,0:0|0:0,0:0:0:0:
416,64,21454,1,8,0:0:0:0:
224,64,21971,2,0,L|64:64,1,150.000005722046
352,128,22661,1,0,0:0:0:0:
464,128,22833,1,0,0:0:0:0:
208,192,23350,5,0,0:0:0:0:
80,192,23523,1,8,0:0:0:0:
304,192,23867,1,0,0:0:0:0:
432,192,24040,1,8,0:0:0:0:
304,80,24385,1,0,0:0:0:0:
448,80,24557,2,2,B|240:80|240:80|352:80|352:80|64:80,1,600
208,128,25764,5,0,0:0:0:0:
128,128,25937,2,0,L|96:176,4,50,0|0|0|0|4,0:0|0:0|0:0|0:0|0:0,0:0:0:0:
464,128,26626,5,0,0:0:0:0:
368,128,26799,1,0,0:0:0:0:
464,128,26971,1,8,0:0:0:0:
256,128,27316,1,0,0:0:0:0:
96,128,27488,1,4,0:0:0:0:
256,128,27833,1,0,0:0:0:0:
464,128,28178,1,0,0:0:0:0:
368,128,28350,1,0,0:0:0:0:
256,128,28523,1,0,0:0:0:0:
144,128,28695,1,8,0:0:0:0:
416,192,29040,5,4,0:0:0:0:
224,192,29385,1,0,0:0:0:0:
352,192,29557,1,0,0:0:0:0:
224,192,29730,1,8,0:0:0:0:
64,192,30075,1,0,0:0:0:0:
192,192,30247,1,8,0:0:0:0:
416,192,30592,1,0,0:0:0:0:
288,192,30764,1,0,0:0:0:0:
32,192,31109,5,4,0:0:0:0:
304,192,31454,1,0,0:0:0:0:
208,192,31626,1,0,0:0:0:0:
112,192,31799,1,8,0:0:0:0:
208,288,32143,5,0,0:0:0:0:
304,288,32316,1,0,0:0:0:0:
400,288,32488,1,8,0:0:0:0:
128,288,32833,1,0,0:0:0:0:
256,288,33006,1,8,0:0:0:0:
32,288,33350,1,4,0:0:0:0:
288,288,33695,1,0,0:0:0:0:
400,288,33868,1,0,0:0:0:0:
288,288,34040,1,0,0:0:0:0:
176,288,34212,2,0,L|64:288,2,100
496,192,35075,5,4,0:0:0:0:
32,192,35419,1,0,0:0:0:0:
112,192,35592,1,0,0:0:0:0:
32,192,35764,2,2,L|352:192,1,300
226,184,36626,2,0,L|170:151,3,50
253,200,36971,2,0,L|309:232,3,50
368,192,37316,1,2,0:0:0:0:
112,192,37661,5,0,0:0:0:0:
208,192,37833,1,0,0:0:0:0:
112,192,38006,1,8,0:0:0:0:
352,192,38350,1,0,0:0:0:0:
496,192,38523,2,0,L|288:192,1,200
208,192,39040,1,0,0:0:0:0:
272,192,39212,1,0,0:0:0:0:
416,192,39385,2,0,L|192:192,1,200
64,80,39902,5,0,0:0:0:0:
176,80,40075,2,0,L|384:80,1,200
512,80,40592,2,0,L|304:80,1,200
48,80,41281,1,8,0:0:0:0:
256,80,41626,2,0,B|144:80|144:80|336:80,1,300
432,80,42316,2,0,L|482:80,2,50
352,80,42661,2,0,L|288:80,2,50
160,256,43178,5,0,0:0:0:0:
256,256,43350,1,0,0:0:0:0:
352,256,43523,1,8,0:0:0:0:
176,192,43868,1,0,0:0:0:0:
320,192,44040,2,0,L|512:256,1,200
400,192,44557,1,0,0:0:0:0:
304,192,44730,1,0,0:0:0:0:
208,192,44902,2,0,L|0:256,1,200
128,192,45419,1,8,0:0:0:0:
128,96,45592,6,0,L|240:96,3,100
400,160,46281,2,0,L|300:160,3,100
208,32,46971,2,0,L|96:32,3,100
288,192,47661,1,4,0:0:0:0:
32,192,48006,5,8,0:0:0:0:
480,64,48350,2,2,L|272:64,1,200
128,64,48868,1,0,0:0:0:0:
320,64,49212,1,8,0:0:0:0:
480,64,49557,2,2,B|320:64|320:64|416:64|416:64|256:64,1,400
144,272,50592,5,0,0:0:0:0:
288,272,50764,1,0,0:0:0:0:
224,272,50937,1,8,0:0:0:0:
368,192,51109,2,2,L|128:192,1,200
416,192,51626,1,4,0:0:0:0:
208,192,51971,1,8,0:0:0:0:
288,192,52316,2,2,B|176:192|176:192|384:192,1,300
480,192,53178,1,0,0:0:0:0:
128,192,53523,1,0,0:0:0:0:
352,192,53868,6,0,L|128:192,1,200
400,192,54385,1,0,0:0:0:0:
208,192,54730,1,8,0:0:0:0:
336,192,55075,2,0,B|400:192|400:192|160:192,1,300
32,192,55764,1,0,0:0:0:0:
240,192,56109,1,4,0:0:0:0:
416,192,56454,6,0,B|192:192|192:192|272:192,1,300
368,192,57143,1,0,0:0:0:0:
32,192,57488,1,0,0:0:0:0:
144,192,57661,1,0,0:0:0:0:
32,192,57833,2,8,B|336:192|336:192|272:192,1,300
224,192,58695,5,0,0:0:0:0:
348,192,58868,1,0,0:0:0:0:
464,192,59040,2,0,L|528:192,2,50
224,304,59385,2,2,B|128:272|112:224|192:208|176:144,1,200
32,304,59902,1,0,0:0:0:0:
336,304,60247,1,8,0:0:0:0:
176,304,60592,2,2,B|496:304|496:304|400:304,1,400
128,304,61626,5,0,0:0:0:0:
240,304,61799,1,0,0:0:0:0:
352,304,61971,1,8,0:0:0:0:
464,304,62143,2,2,L|240:304,1,200
112,304,62661,1,4,0:0:0:0:
400,304,63006,1,8,0:0:0:0:
176,304,63350,2,2,L|480:304,1,300
224,192,64212,5,0,0:0:0:0:
464,192,64557,1,0,0:0:0:0:
304,192,64902,2,0,L|96:192,1,200
272,192,65419,1,8,0:0:0:0:
32,192,65764,1,4,0:0:0:0:
208,192,66109,2,0,B|272:192|272:192|128:192,1,200
416,192,66626,1,8,0:0:0:0:
224,128,66971,1,4,0:0:0:0:
416,192,67316,1,8,0:0:0:0:
80,192,67661,6,8,L|288:192,1,200
432,192,68178,1,0,0:0:0:0:
272,192,68523,1,0,0:0:0:0:
448,272,68868,2,0,L|80:112,1,400
336,192,69902,6,2,L|400:192,6,50,0|0|0|0|0|0|0,0:0|0:0|0:0|0:0|0:0|0:0|0:0,0:0:0:0:
256,192,70764,12,0,72488,0:0:0:0:
128,192,72833,5,8,0:0:0:0:
384,192,73178,1,4,0:0:0:0:
80,192,73523,1,0,0:0:0:0:
192,192,73695,1,0,0:0:0:0:
448,192,74040,1,0,0:0:0:0:
304,192,74385,2,2,L|80:192,1,200
368,192,75247,1,0,0:0:0:0:
256,192,75937,12,0,78350,0:0:0:0:
96,192,78868,5,4,0:0:0:0:
208,192,79040,1,0,0:0:0:0:
320,192,79212,1,0,0:0:0:0:
432,192,79385,1,8,0:0:0:0:
320,192,79557,1,0,0:0:0:0:
425,289,79902,5,0,0:0:0:0:
313,289,80075,1,0,0:0:0:0:
201,289,80247,1,8,0:0:0:0:
89,289,80419,1,0,0:0:0:0:
320,80,80764,5,0,0:0:0:0:
192,80,80937,1,0,0:0:0:0:
320,80,81109,1,2,0:0:0:0:
272,128,81454,5,0,0:0:0:0:
224,112,81626,1,0,0:0:0:0:
304,96,81799,1,0,0:0:0:0:
176,80,81971,1,0,0:0:0:0:
352,64,82144,1,0,0:0:0:0:
112,48,82316,1,0,0:0:0:0:
320,192,82661,5,0,0:0:0:0:
192,192,82833,1,8,0:0:0:0:
320,192,83006,1,0,0:0:0:0:
192,192,83178,1,8,0:0:0:0:
320,192,83350,1,4,0:0:0:0:
256,192,83523,12,0,88350,0:0:0:0:
