osu file format v14

[General]
AudioFilename: audio.mp3
AudioLeadIn: 0
PreviewTime: 51197
Countdown: 0
SampleSet: Soft
StackLeniency: 0.7
Mode: 0
LetterboxInBreaks: 0
WidescreenStoryboard: 0

[Editor]
DistanceSpacing: 1.3
BeatDivisor: 4
GridSize: 32
TimelineZoom: 1.28

[Metadata]
Title:Dori Dori (TV Size)
TitleUnicode:ドリドリ (TV Size)
Artist:Nakagawa Shoko
ArtistUnicode:中川翔子
Creator:Wanpachi
Version:Princess Key
Source:ポケットモンスターXY
Tags:shouko shokotan rgb 〜true color〜 ending ed xyz pocket pokemon pokémon xy monsters serena japanese pop j-pop jpop anime doridori makiguchi mayuki セレナ 牧口 真幸 dreamdream dream kalos cycopton xinely
BeatmapID:2580286
BeatmapSetID:1241138

[Difficulty]
HPDrainRate:6
CircleSize:4
OverallDifficulty:8.6
ApproachRate:9.2
SliderMultiplier:1.8
SliderTickRate:1

[Events]
//Background and Video events
0,0,"1ser.jpg",0,0
//Break Periods
//Storyboard Layer 0 (Background)
//Storyboard Layer 1 (Fail)
//Storyboard Layer 2 (Pass)
//Storyboard Layer 3 (Foreground)
//Storyboard Layer 4 (Overlay)
//Storyboard Sound Samples

[TimingPoints]
2237,337.078651685393,4,2,1,60,1,0
2237,-125,4,2,1,60,0,0
7461,-90.9090909090909,4,2,1,70,0,0
16225,-90.9090909090909,4,2,3,70,0,0
16899,-100,4,2,1,70,0,0
18416,-111.111111111111,4,2,1,60,0,0
27686,-100,4,2,1,60,0,0
27939,-100,4,2,1,5,0,0
28023,-95.2380952380952,4,2,1,60,0,0
28276,-100,4,2,1,5,0,0
28360,-90.9090909090909,4,2,1,60,0,0
28613,-100,4,2,1,5,0,0
28697,-100,4,2,1,60,0,0
29203,-100,4,2,1,70,0,0
31562,-100,4,2,2,70,0,0
31647,-100,4,2,1,70,0,0
34259,-100,4,2,2,70,0,0
34343,-100,4,2,1,70,0,0
36956,-100,4,2,2,70,0,0
37040,-100,4,2,1,70,0,0
39989,-125,4,2,1,50,0,0
41590,-125,4,2,1,5,0,0
41675,-125,4,2,1,50,0,0
42939,-125,4,2,1,5,0,0
43023,-125,4,2,1,50,0,0
45298,-125,4,2,1,5,0,0
45383,-100,4,2,1,60,0,0
48079,-100,4,2,1,70,0,0
52124,-83.3333333333333,4,2,1,80,0,1
74877,-125,4,2,1,80,0,1
76225,-90.9090909090909,4,2,1,70,0,0
79596,-90.9090909090909,4,2,3,70,0,0
80270,-90.9090909090909,4,2,1,70,0,0
81703,-90.9090909090909,4,2,1,5,0,0

[Colours]
Combo1 : 89,135,219
Combo2 : 241,124,124
Combo3 : 116,203,218
Combo4 : 235,184,235

[HitObjects]
98,108,2237,5,10,0:0:0:0:
322,64,2405,1,10,0:0:0:0:
220,230,2574,2,0,L|226:135,1,72,2|0,0:0|0:0,0:0:0:0:
360,214,2911,1,2,0:0:0:0:
360,214,3079,2,0,L|364:285,1,72,2|0,0:0|0:0,0:0:0:0:
108,344,3416,5,10,0:0:0:0:
175,98,3753,1,10,0:0:0:0:
288,242,3922,2,0,P|247:256|205:260,1,72,10|0,0:0|0:0,0:0:0:0:
75,167,4259,2,0,P|110:172|144:184,2,72,2|0|2,0:0|0:0|0:0,0:0:0:0:
33,270,4765,1,2,0:0:0:0:
235,175,4933,5,10,0:0:0:0:
64,84,5102,1,10,0:0:0:0:
212,26,5270,2,0,L|305:34,1,72,2|0,0:0|0:0,0:0:0:0:
424,123,5607,1,2,0:0:0:0:
424,123,5776,2,0,L|331:131,1,72,2|0,0:0|0:0,0:0:0:0:
208,320,6113,5,10,0:0:0:0:
296,46,6450,1,10,0:0:0:0:
336,253,6619,1,10,0:0:0:0:
98,286,6956,2,0,P|91:250|78:217,1,72,2|2,0:0|0:0,0:0:0:0:
43,120,7293,1,10,0:0:0:0:
344,162,7461,6,0,L|148:132,1,198.000006042481,4|0,3:2|0:0,0:0:0:0:
393,46,7967,1,10,0:0:0:0:
415,260,8135,2,0,L|532:242,1,99.0000030212403,2|0,0:0|3:0,0:0:0:0:
327,353,8472,2,0,L|209:335,1,99.0000030212403,2|8,0:0|0:0,0:0:0:0:
124,110,8810,6,0,P|163:189|105:284,1,198.000006042481,2|0,0:0|0:0,0:0:0:0:
20,119,9315,1,10,0:0:0:0:
178,27,9484,2,0,P|230:1|293:39,1,99.0000030212403,2|0,0:0|3:2,0:0:0:0:
362,184,9821,2,0,P|309:209|246:171,1,99.0000030212403,2|8,0:0|0:0,0:0:0:0:
465,35,10158,6,0,L|448:240,1,198.000006042481,2|0,0:0|0:0,0:0:0:0:
275,374,10663,1,10,0:0:0:0:
174,192,10832,2,0,L|276:200,1,99.0000030212403,2|0,0:0|3:0,0:0:0:0:
111,341,11169,2,0,L|8:332,1,99.0000030212403,2|8,0:0|0:0,0:0:0:0:
111,87,11506,6,0,P|152:62|199:75,1,99.0000030212403,6|0,3:2|0:0,0:0:0:0:
111,341,11843,2,0,P|69:316|56:270,1,99.0000030212403,2|8,3:2|0:0,0:0:0:0:
331,215,12180,2,0,P|331:263|297:297,1,99.0000030212403,6|0,3:2|0:0,0:0:0:0:
106,178,12517,1,10,0:0:0:0:
106,178,12602,1,8,0:0:0:0:
106,178,12686,1,8,0:0:0:0:
350,132,12854,6,0,L|335:334,1,198.000006042481,6|0,3:2|0:0,0:0:0:0:
106,178,13360,1,14,0:0:0:0:
289,32,13529,2,0,L|410:23,1,99.0000030212403,2|0,0:0|3:2,0:0:0:0:
204,185,13866,2,0,L|82:176,1,99.0000030212403,2|8,0:0|0:0,0:0:0:0:
420,384,14203,6,0,P|445:341|440:293,1,99.0000030212403,2|0,0:0|3:2,0:0:0:0:
152,230,14540,2,0,P|177:272|221:292,1,99.0000030212403,2|8,0:0|0:0,0:0:0:0:
419,75,14877,2,0,P|371:75|331:103,1,99.0000030212403,2|0,0:0|3:2,0:0:0:0:
221,292,15214,1,2,0:0:0:0:
396,150,15383,1,10,0:0:0:0:
358,320,15551,1,2,0:0:0:0:
205,94,15720,5,10,3:3:0:0:
484,176,15888,1,10,0:0:0:0:
484,176,15972,1,8,0:0:0:0:
484,176,16057,1,10,0:0:0:0:
147,292,16225,2,0,L|246:301,1,99.0000030212403,2|0,3:3|0:0,0:0:0:0:
484,176,16562,2,0,L|385:184,1,99.0000030212403,2|0,3:3|0:0,0:0:0:0:
121,30,16899,5,6,3:2:0:0:
256,192,16984,12,0,18079,0:0:0:0:
75,67,18248,5,2,0:0:0:0:
75,67,18416,2,0,P|102:151|120:242,1,161.999995056153,6|2,3:2|3:2,0:0:0:0:
26,368,18922,2,0,P|35:328|48:290,1,80.9999975280763,2|0,1:2|3:2,0:0:0:0:
221,292,19259,2,0,L|143:314,1,80.9999975280763,2|0,0:0|3:0,0:0:0:0:
224,173,19596,6,0,L|301:195,1,80.9999975280763,2|0,0:0|3:0,0:0:0:0:
348,43,19933,2,0,P|310:62|290:99,1,80.9999975280763,2|0,1:2|3:0,0:0:0:0:
398,215,20270,2,0,P|399:172|378:136,1,80.9999975280763,2|0,0:0|3:0,0:0:0:0:
392,312,20607,2,0,L|469:290,1,80.9999975280763,2|8,0:0|0:0,0:0:0:0:
398,215,20944,1,2,0:0:0:0:
286,331,21113,6,0,L|131:287,1,161.999995056153,2|2,3:2|3:2,0:0:0:0:
228,150,21619,2,0,P|243:186|238:226,1,80.9999975280763,2|0,1:2|3:2,0:0:0:0:
119,173,21956,2,0,P|114:133|129:96,1,80.9999975280763,2|0,0:0|3:2,0:0:0:0:
144,272,22293,6,0,L|59:284,1,80.9999975280763,2|0,0:0|3:2,0:0:0:0:
217,343,22630,2,0,L|301:355,1,80.9999975280763,2|0,1:2|3:2,0:0:0:0:
319,215,22967,2,0,L|234:227,1,80.9999975280763,2|0,0:0|3:2,0:0:0:0:
395,366,23304,2,0,P|391:324|363:287,1,80.9999975280763,2|8,0:0|3:2,0:0:0:0:
399,170,23641,1,2,0:0:0:0:
238,226,23810,6,0,P|193:159|188:79,1,161.999995056153,2|2,3:2|3:2,0:0:0:0:
305,40,24315,2,0,L|286:141,1,80.9999975280763,2|0,1:2|3:0,0:0:0:0:
443,158,24652,2,0,L|365:91,1,80.9999975280763,2|0,0:0|3:0,0:0:0:0:
271,218,24989,6,0,P|311:217|348:201,1,80.9999975280763,2|0,0:0|3:0,0:0:0:0:
290,119,25326,2,0,P|252:103|212:102,1,80.9999975280763,2|0,1:2|3:0,0:0:0:0:
132,247,25663,2,0,P|164:222|185:188,1,80.9999975280763,2|0,0:0|3:0,0:0:0:0:
130,61,26001,1,2,0:0:0:0:
91,161,26169,1,10,3:2:0:0:
31,54,26338,1,2,0:0:0:0:
33,305,26506,6,0,L|5:145,1,161.999995056153,2|2,3:2|3:2,0:0:0:0:
204,278,27012,2,0,P|156:273|110:271,1,80.9999975280763,2|0,1:2|3:2,0:0:0:0:
280,167,27349,1,10,0:0:0:0:
280,167,27433,1,8,0:0:0:0:
280,167,27517,1,8,0:0:0:0:
327,352,27686,6,0,B|379:355|403:362|403:362|426:334|418:308,1,135,6|0,3:2|0:0,0:0:0:0:
351,156,28023,2,0,B|320:201|300:218|300:218|314:255|340:261,1,141.749995674133,6|0,3:2|0:0,0:0:0:0:
512,283,28360,2,0,B|485:231|480:203|480:203|439:197|420:215,1,148.50000453186,6|0,3:2|0:0,0:0:0:0:
416,231,28697,5,8,0:3:0:0:
442,72,28866,1,12,3:3:0:0:
265,139,29034,1,6,0:3:0:0:
265,139,29119,1,4,0:3:0:0:
265,139,29203,6,0,L|80:99,1,180,6|2,3:2|3:2,0:0:0:0:
67,250,29708,2,0,P|102:222|122:182,1,90,2|0,0:0|3:0,0:0:0:0:
0,85,30045,2,0,P|6:129|31:167,1,90,2|0,0:0|3:0,0:0:0:0:
177,81,30383,6,0,L|89:100,1,90,2|0,0:0|3:2,0:0:0:0:
234,182,30720,2,0,L|321:201,1,90,2|0,1:2|3:2,0:0:0:0:
362,38,31057,2,0,P|322:60|301:104,1,90,2|0,0:0|3:2,0:0:0:0:
422,220,31394,2,0,P|422:174|394:134,1,90,2|2,0:0|3:3,0:0:0:0:
302,98,31731,1,2,0:0:0:0:
312,288,31899,6,0,P|387:336|475:334,1,180,2|2,3:2|3:2,0:0:0:0:
321,201,32405,2,0,L|232:187,1,90,2|0,1:2|3:0,0:0:0:0:
108,286,32742,2,0,L|196:272,1,90,2|0,0:0|3:0,0:0:0:0:
178,119,33079,6,0,P|149:153|145:202,1,90,2|0,0:0|3:0,0:0:0:0:
282,255,33416,2,0,P|267:212|226:184,1,90,2|0,1:2|3:0,0:0:0:0:
254,340,33753,2,0,P|297:347|342:326,1,90,2|0,0:0|3:0,0:0:0:0:
418,175,34090,2,0,P|382:201|366:243,1,90,2|2,0:0|3:3,0:0:0:0:
462,267,34428,1,2,0:0:0:0:
377,89,34596,6,0,L|199:120,1,180,2|2,3:2|3:2,0:0:0:0:
269,274,35102,2,0,P|276:225|258:182,1,90,2|0,1:2|3:2,0:0:0:0:
115,202,35439,2,0,P|153:232|200:238,1,90,2|0,0:0|3:2,0:0:0:0:
288,103,35776,6,0,L|199:119,1,90,2|0,0:0|3:2,0:0:0:0:
269,274,36113,2,0,L|358:258,1,90,2|0,1:2|3:2,0:0:0:0:
382,62,36450,2,0,P|364:103|365:148,1,90,2|0,0:0|3:0,0:0:0:0:
429,284,36787,1,2,0:0:0:0:
450,121,36956,1,2,3:3:0:0:
283,189,37124,1,2,0:0:0:0:
488,339,37293,6,0,P|503:255|428:204,1,180,2|10,3:2|0:0,0:0:0:0:
154,140,37798,1,2,3:2:0:0:
148,134,38135,1,2,3:2:0:0:
208,358,38304,1,2,0:0:0:0:
325,99,38472,6,0,L|148:135,1,180,6|0,3:2|0:0,0:0:0:0:
309,294,38978,1,10,0:0:0:0:
325,99,39147,1,10,0:3:0:0:
239,191,39315,5,10,0:3:0:0:
309,294,39484,1,8,0:3:0:0:
236,373,39652,2,0,L|147:355,1,90,4|4,0:3|0:3,0:0:0:0:
430,301,39989,6,0,P|481:254|491:179,1,144,2|8,3:2|0:0,0:0:0:0:
376,97,40495,1,10,0:3:0:0:
318,181,40663,2,0,L|223:167,1,72,6|0,0:3|3:2,0:0:0:0:
220,50,41001,2,0,L|315:36,1,72,8|0,0:0|3:2,0:0:0:0:
234,179,41338,6,0,L|127:162,1,108,0|0,3:2|0:0,0:0:0:0:
105,185,41675,2,0,L|30:196,1,72,10|8,0:0|0:3,0:0:0:0:
211,331,42012,2,0,P|226:295|230:254,1,72,6|0,0:3|3:2,0:0:0:0:
105,185,42349,2,0,P|110:220|124:253,1,72,10|0,0:0|3:2,0:0:0:0:
337,342,42686,6,0,P|390:336|442:321,1,108,2|0,3:2|0:0,0:0:0:0:
463,302,43023,1,10,0:0:0:0:
358,176,43192,2,0,L|372:246,1,72,10|4,0:3|0:3,0:0:0:0:
512,202,43529,1,2,3:2:0:0:
442,91,43697,1,10,0:0:0:0:
372,246,43866,1,2,3:2:0:0:
442,91,44034,6,0,P|387:49|313:61,1,144,2|8,3:2|0:0,0:0:0:0:
295,247,44540,1,8,0:3:0:0:
289,253,44877,1,0,3:2:0:0:
109,190,45045,2,0,L|127:67,1,108,8|0,0:0|0:0,0:0:0:0:
104,57,45383,5,6,3:2:0:0:
289,253,45551,1,2,0:0:0:0:
348,39,45720,1,10,0:0:0:0:
109,190,45888,2,0,P|151:180|197:176,1,90,6|0,3:2|0:0,0:0:0:0:
438,195,46225,5,2,3:2:0:0:
171,263,46394,1,10,0:0:0:0:
343,58,46562,2,0,L|322:154,1,90,6|0,3:2|0:0,0:0:0:0:
383,327,46899,5,2,3:2:0:0:
426,98,47068,1,10,0:0:0:0:
213,269,47236,2,0,P|129:291|62:235,1,180,6|0,3:2|0:0,0:0:0:0:
225,106,47742,2,0,L|246:202,1,90,8|8,0:0|0:3,0:0:0:0:
270,211,47995,1,4,0:3:0:0:
270,211,48079,5,2,3:2:0:0:
113,108,48248,1,2,3:2:0:0:
410,180,48416,5,10,0:0:0:0:
287,360,48585,1,10,3:2:0:0:
225,106,48753,5,10,0:0:0:0:
415,291,48922,1,10,3:2:0:0:
213,269,49090,1,10,0:0:0:0:
487,57,49259,6,0,L|477:247,1,180,6|2,3:2|3:2,0:0:0:0:
287,360,49765,1,10,0:0:0:0:
203,163,49933,1,2,3:2:0:0:
409,347,50102,1,10,0:0:0:0:
146,311,50270,1,2,3:2:0:0:
146,311,50354,1,0,3:2:0:0:
146,311,50439,5,10,0:0:0:0:
249,42,50607,1,6,3:2:0:0:
255,36,50944,5,2,3:2:0:0:
338,252,51113,1,2,3:2:0:0:
42,302,52124,6,0,L|268:266,1,215.999993408203,6|10,3:2|0:0,0:0:0:0:
105,69,52630,2,0,P|90:123|108:170,1,107.999996704102,2|0,0:0|3:2,0:0:0:0:
365,327,52967,2,0,P|380:273|362:226,1,107.999996704102,2|8,0:0|0:0,0:0:0:0:
182,123,53304,1,10,0:0:0:0:
182,123,53388,1,8,0:0:0:0:
182,123,53472,5,2,3:2:0:0:
421,16,53641,1,2,0:0:0:0:
242,209,53810,1,10,0:0:0:0:
501,340,53978,2,0,L|513:232,1,107.999996704102,2|0,0:0|3:2,0:0:0:0:
331,80,54315,2,0,L|343:187,1,107.999996704102,2|8,0:0|0:0,0:0:0:0:
234,349,54652,1,2,0:0:0:0:
29,239,54821,6,0,P|112:177|210:211,1,215.999993408203,2|10,3:2|0:0,0:0:0:0:
414,300,55326,2,0,P|436:244|429:191,1,107.999996704102,2|0,0:0|3:2,0:0:0:0:
246,10,55663,2,0,P|224:66|231:119,1,107.999996704102,2|8,0:0|0:0,0:0:0:0:
512,151,56001,6,0,L|290:176,1,215.999993408203,2|2,0:0|0:0,0:0:0:0:
207,304,56506,1,10,0:0:0:0:
95,74,56675,2,0,L|228:89,1,107.999996704102,2|0,0:0|3:2,0:0:0:0:
73,242,57012,1,2,0:0:0:0:
95,74,57180,1,10,0:0:0:0:
305,295,57349,1,10,0:0:0:0:
305,295,57433,1,8,0:0:0:0:
305,295,57517,6,0,P|401:311|463:214,1,215.999993408203,6|10,3:2|0:0,0:0:0:0:
302,47,58023,2,0,L|330:162,1,107.999996704102,2|0,0:0|3:0,0:0:0:0:
182,334,58360,2,0,L|208:229,1,107.999996704102,2|8,0:0|0:0,0:0:0:0:
36,149,58697,1,10,0:0:0:0:
36,149,58781,1,8,0:0:0:0:
36,149,58866,5,2,3:2:0:0:
307,119,59034,1,2,0:0:0:0:
74,265,59203,1,10,0:0:0:0:
245,35,59371,2,0,P|298:16|354:29,1,107.999996704102,2|0,0:0|3:0,0:0:0:0:
483,234,59708,2,0,P|430:253|374:240,1,107.999996704102,2|8,0:0|0:0,0:0:0:0:
307,119,60045,1,2,0:0:0:0:
183,373,60214,6,0,L|137:158,1,215.999993408203,2|10,3:2|0:0,0:0:0:0:
0,18,60720,2,0,L|105:40,1,107.999996704102,2|0,0:0|3:2,0:0:0:0:
307,119,61057,1,2,0:0:0:0:
16,198,61225,1,10,0:0:0:0:
212,42,61394,6,0,P|309:4|403:51,1,215.999993408203,6|2,3:2|3:2,0:0:0:0:
494,170,61899,1,10,0:0:0:0:
261,350,62068,2,0,L|246:236,1,107.999996704102,6|0,3:2|0:0,0:0:0:0:
436,116,62405,1,10,0:0:0:0:
452,137,62489,1,8,0:0:0:0:
462,162,62574,1,10,0:0:0:0:
463,189,62658,1,8,0:0:0:0:
455,215,62742,1,10,0:0:0:0:
440,238,62826,1,8,0:0:0:0:
419,253,62911,5,6,3:2:0:0:
176,95,63079,1,2,0:0:0:0:
436,116,63248,1,10,0:0:0:0:
231,330,63416,2,0,P|206:282|213:230,1,107.999996704102,2|0,0:0|3:0,0:0:0:0:
314,20,63753,2,0,P|340:86|318:140,1,107.999996704102,2|8,0:0|0:0,0:0:0:0:
122,363,64090,1,10,0:0:0:0:
122,363,64175,1,8,0:0:0:0:
122,363,64259,6,0,L|357:336,1,215.999993408203,2|10,3:2|0:0,0:0:0:0:
242,95,64765,2,0,L|230:202,1,107.999996704102,2|0,0:0|3:2,0:0:0:0:
427,380,65102,2,0,L|415:272,1,107.999996704102,2|8,0:0|0:0,0:0:0:0:
320,158,65439,1,2,0:0:0:0:
131,247,65607,6,0,P|82:267|34:246,1,107.999996704102,2|0,3:2|0:0,0:0:0:0:
196,26,65944,2,0,P|244:6|293:27,1,107.999996704102,10|0,0:0|0:0,0:0:0:0:
429,172,66281,1,2,3:2:0:0:
257,292,66450,2,0,L|244:184,1,107.999996704102,2|8,0:0|0:0,0:0:0:0:
472,76,66787,6,0,L|447:290,1,215.999993408203,2|2,0:0|0:0,0:0:0:0:
265,377,67293,1,10,0:0:0:0:
192,124,67461,2,0,P|241:105|291:123,1,107.999996704102,2|0,0:0|3:0,0:0:0:0:
427,239,67798,1,8,0:0:0:0:
176,244,67967,1,10,0:0:0:0:
415,122,68135,1,8,0:0:0:0:
415,122,68220,1,8,0:0:0:0:
415,122,68304,6,0,L|403:7,1,107.999996704102,6|0,3:2|0:0,0:0:0:0:
188,136,68641,2,0,L|176:243,1,107.999996704102,10|0,0:0|0:0,0:0:0:0:
503,231,68978,5,10,0:0:0:0:
253,197,69147,1,2,3:2:0:0:
411,13,69315,5,10,0:0:0:0:
378,262,69484,1,2,3:2:0:0:
239,62,69652,5,8,0:0:0:0:
488,95,69821,1,2,3:2:0:0:
104,180,69989,5,10,0:0:0:0:
354,147,70158,1,2,3:2:0:0:
116,53,70326,6,0,L|123:107,1,53.9999983520508,8|0,0:0|3:0,0:0:0:0:
149,303,70495,1,2,3:2:0:0:
149,303,70579,1,0,3:2:0:0:
149,303,70663,1,10,0:0:0:0:
263,54,70832,1,2,3:2:0:0:
350,359,71001,5,12,0:0:0:0:
197,124,71169,1,0,3:2:0:0:
168,339,71338,1,2,3:2:0:0:
368,165,71506,5,14,0:0:0:0:
89,179,71675,1,0,3:2:0:0:
261,311,71843,1,2,3:2:0:0:
211,51,72012,5,14,0:0:0:0:
82,300,72180,1,2,3:2:0:0:
389,139,72349,5,8,0:0:0:0:
168,339,72517,1,8,0:0:0:0:
35,29,72686,1,8,0:0:0:0:
431,302,73697,6,0,P|447:196|483:94,1,215.999993408203,6|10,3:2|0:0,0:0:0:0:
213,168,74203,2,0,L|356:182,1,107.999996704102,2|0,3:2|0:0,0:0:0:0:
109,41,74540,2,0,L|2:52,1,107.999996704102,2|0,3:2|0:0,0:0:0:0:
134,314,74877,6,0,B|191:338|264:312|297:254|297:254|281:303|312:349,1,288,6|0,3:2|0:0,0:0:0:0:
454,266,75720,2,0,P|418:271|385:285,1,72,10|10,0:0|0:3,0:0:0:0:
454,363,76057,1,6,0:3:0:0:
270,58,76225,6,0,L|296:254,1,198.000006042481,4|0,3:2|0:0,0:0:0:0:
122,370,76731,1,10,0:0:0:0:
29,192,76899,2,0,P|78:192|126:205,1,99.0000030212403,2|0,0:0|3:0,0:0:0:0:
270,58,77236,2,0,P|220:58|172:45,1,99.0000030212403,2|8,0:0|0:0,0:0:0:0:
333,311,77574,6,0,L|349:208,1,99.0000030212403,2|0,0:0|3:2,0:0:0:0:
110,107,77911,2,0,L|126:210,1,99.0000030212403,2|8,0:0|0:0,0:0:0:0:
405,121,78248,2,0,L|302:137,1,99.0000030212403,2|0,0:0|3:2,0:0:0:0:
201,313,78585,1,2,0:0:0:0:
381,267,78753,1,10,0:0:0:0:
215,69,78922,1,2,0:0:0:0:
319,353,79090,5,10,3:3:0:0:
456,202,79259,1,10,0:0:0:0:
456,202,79343,1,8,0:0:0:0:
456,202,79428,1,10,0:0:0:0:
230,26,79596,2,0,L|242:124,1,99.0000030212403,2|0,3:3|0:0,0:0:0:0:
75,311,79933,2,0,L|87:212,1,99.0000030212403,2|0,3:3|0:0,0:0:0:0:
381,267,80270,5,6,3:2:0:0:
256,192,80354,12,0,81703,0:0:0:0:
