osu file format v14

[General]
AudioFilename: audio.mp3
AudioLeadIn: 0
PreviewTime: 51197
Countdown: 0
SampleSet: Soft
StackLeniency: 0.7
Mode: 0
LetterboxInBreaks: 0
WidescreenStoryboard: 1

[Editor]
DistanceSpacing: 1
BeatDivisor: 4
GridSize: 32
TimelineZoom: 0.8799999

[Metadata]
Title:Dori Dori (TV Size)
TitleUnicode:ドリドリ (TV Size)
Artist:Nakagawa Shoko
ArtistUnicode:中川翔子
Creator:Wanpachi
Version:Normal
Source:ポケットモンスターXY
Tags:shouko shokotan rgb 〜true color〜 ending ed xyz pocket pokemon pokémon xy monsters serena japanese pop j-pop jpop anime doridori makiguchi mayuki セレナ 牧口 真幸 dreamdream dream kalos cycopton xinely
BeatmapID:2580285
BeatmapSetID:1241138

[Difficulty]
HPDrainRate:4
CircleSize:3
OverallDifficulty:4.5
ApproachRate:5.5
SliderMultiplier:0.999999999999999
SliderTickRate:1

[Events]
//Background and Video events
0,0,"1ser.jpg",0,0
//Break Periods
//Storyboard Layer 0 (Background)
//Storyboard Layer 1 (Fail)
//Storyboard Layer 2 (Pass)
//Storyboard Layer 3 (Foreground)
//Storyboard Layer 4 (Overlay)
//Storyboard Sound Samples

[TimingPoints]
2237,337.078651685393,4,2,1,60,1,0
2237,-100,4,2,1,60,0,0
7461,-100,4,2,1,70,0,0
16225,-100,4,2,3,70,0,0
16899,-100,4,2,1,70,0,0
18416,-111.111111111111,4,2,1,60,0,0
27686,-111.111111111111,4,2,1,60,0,0
29203,-100,4,2,1,70,0,0
31562,-100,4,2,2,70,0,0
31647,-100,4,2,1,70,0,0
34259,-100,4,2,2,70,0,0
34343,-100,4,2,1,70,0,0
36956,-100,4,2,2,70,0,0
37040,-100,4,2,1,70,0,0
39989,-111.111111111111,4,2,1,50,0,0
45383,-100,4,2,1,60,0,0
48079,-100,4,2,1,70,0,0
52124,-100,4,2,1,80,0,1
74877,-100,4,2,1,80,0,1
76225,-100,4,2,1,70,0,0
79596,-100,4,2,3,70,0,0
80270,-100,4,2,1,70,0,0
81703,-100,4,2,1,50,0,0

[Colours]
Combo1 : 89,135,219
Combo2 : 241,124,124
Combo3 : 116,203,218
Combo4 : 235,184,235
234,147,2697,2,0,L|285 :
153,1,50

[HitObjects]
66,90,2237,6,0,L|169:77,1,100,10|2,0:0|0:0,0:0:0:0:
235,148,2911,2,0,L|286:154,1,50,2|2,0:0|0:0,0:0:0:0:
383,166,3416,2,0,P|401:226|387:269,1,100,10|10,0:0|0:0,0:0:0:0:
356,296,3922,1,10,0:0:0:0:
264,255,4259,2,0,P|233:251|206:250,1,50,2|2,0:0|0:0,0:0:0:0:
177,283,4596,2,0,P|146:287|119:288,1,50,2|2,0:0|0:0,0:0:0:0:
91,252,4933,6,0,B|80:203|80:203|90:152,1,100,10|2,0:0|0:0,0:0:0:0:
160,83,5607,2,0,L|227:78,1,50,2|2,0:0|0:0,0:0:0:0:
280,150,6113,2,0,P|336:164|385:161,1,100,10|10,0:0|0:0,0:0:0:0:
413,126,6619,1,10,0:0:0:0:
463,39,6956,2,0,L|514:45,2,50,2|2|10,0:0|0:0|0:0,0:0:0:0:
427,3,7461,6,0,P|357:18|325:70,1,100,4|0,3:2|0:0,0:0:0:0:
324,84,7967,1,10,0:0:0:0:
324,84,8135,2,0,L|338:190,1,100,2|2,0:0|0:0,0:0:0:0:
331,283,8810,2,0,B|288:307|288:307|224:304,1,100,2|0,0:0|0:0,0:0:0:0:
202,268,9315,1,10,0:0:0:0:
202,268,9484,2,0,B|159:244|159:244|95:247,1,100,2|2,0:0|0:0,0:0:0:0:
37,175,10158,6,0,P|31:112|63:69,1,100,2|0,0:0|0:0,0:0:0:0:
83,46,10663,1,10,0:0:0:0:
83,46,10832,2,0,P|146:40|189:72,1,100,2|2,0:0|0:0,0:0:0:0:
246,128,11506,2,0,L|346:116,1,100,6|2,3:2|3:2,0:0:0:0:
362,214,12180,2,0,L|262:226,1,100,6|10,3:2|0:0,0:0:0:0:
177,277,12854,6,0,P|167:322|191:379,1,99.9999999999999,6|0,3:2|0:0,0:0:0:0:
234,377,13360,1,14,0:0:0:0:
234,377,13529,2,0,B|284:367|284:367|338:384,1,100,2|2,0:0|0:0,0:0:0:0:
415,329,14203,2,0,L|434:222,1,100,2|2,0:0|0:0,0:0:0:0:
394,137,14877,1,2,0:0:0:0:
454,57,15214,2,0,P|481:61|505:63,2,50,2|10|2,0:0|0:0|0:0,0:0:0:0:
418,21,15720,6,0,P|390:16|367:15,1,50,10|10,3:3|0:0,0:0:0:0:
323,36,16057,1,10,0:0:0:0:
323,36,16225,1,2,3:3:0:0:
224,16,16562,1,2,3:3:0:0:
208,114,16899,2,0,B|156:139|111:116|111:116|81:152|81:152|18:167|-13:263|37:327,1,350,6|0,3:2|0:0,0:0:0:0:
68,354,18248,1,2,0:0:0:0:
68,354,18416,6,0,L|162:365,1,89.999997253418,6|2,3:2|3:2,0:0:0:0:
202,362,18922,1,2,0:0:0:0:
256,290,19259,1,2,0:0:0:0:
338,326,19596,2,0,P|386:334|434:324,1,89.999997253418,2|2,0:0|0:0,0:0:0:0:
430,237,20270,2,0,P|382:229|334:240,1,89.999997253418,2|2,0:0|0:0,0:0:0:0:
264,285,20944,1,2,0:0:0:0:
264,285,21113,6,0,B|253:236|253:236|267:192,1,89.999997253418,2|2,3:2|3:2,0:0:0:0:
295,165,21619,1,2,0:0:0:0:
326,80,21956,1,2,0:0:0:0:
237,65,22293,2,0,L|141:76,1,89.999997253418,2|2,0:0|0:0,0:0:0:0:
119,160,22967,2,0,L|24:171,1,89.999997253418,2|2,0:0|0:0,0:0:0:0:
72,249,23641,1,2,0:0:0:0:
72,249,23810,6,0,P|81:310|65:353,1,89.999997253418,2|2,3:2|3:2,0:0:0:0:
113,356,24315,1,2,0:0:0:0:
179,294,24652,1,2,0:0:0:0:
268,305,24989,2,0,L|365:316,2,89.999997253418,2|2|2,0:0|0:0|0:0,0:0:0:0:
278,216,26001,1,2,0:0:0:0:
278,216,26169,2,0,P|272:186|273:165,1,44.999998626709,10|2,3:2|0:0,0:0:0:0:
309,147,26506,6,0,P|322:88|320:47,1,89.999997253418,2|2,3:2|3:2,0:0:0:0:
286,31,27012,1,2,0:0:0:0:
205,71,27349,1,10,0:0:0:0:
127,25,27686,5,6,3:2:0:0:
62,88,28023,1,6,3:2:0:0:
95,171,28360,1,6,3:2:0:0:
185,183,28697,1,8,0:3:0:0:
185,183,28866,2,0,P|191:204|191:227,1,44.999998626709,12|4,3:3|0:3,0:0:0:0:
199,276,29203,6,0,P|248:295|304:289,1,100,6|2,3:2|3:2,0:0:0:0:
327,255,29709,1,2,0:0:0:0:
405,316,30046,1,2,0:0:0:0:
450,225,30383,2,0,B|460:176|460:176|449:127,1,100,2|2,0:0|0:0,0:0:0:0:
378,56,31057,2,0,B|329:46|329:46|280:57,1,100,2|2,0:0|0:0,0:0:0:0:
209,127,31731,1,2,0:0:0:0:
209,127,31899,6,0,L|108:116,1,100,2|2,3:2|3:2,0:0:0:0:
72,82,32406,1,2,0:0:0:0:
7,158,32743,1,2,0:0:0:0:
68,236,33080,2,0,P|69:288|56:342,1,100,2|2,0:0|0:0,0:0:0:0:
146,381,33753,2,0,P|190:353|243:338,1,100,2|2,0:0|0:0,0:0:0:0:
233,241,34428,1,2,0:0:0:0:
233,241,34596,6,0,P|187:216|147:177,1,100,2|2,3:2|3:2,0:0:0:0:
124,142,35102,1,2,0:0:0:0:
142,43,35439,1,2,0:0:0:0:
242,56,35776,2,0,L|350:43,1,100,2|2,0:0|0:0,0:0:0:0:
429,91,36450,1,2,0:0:0:0:
418,190,36788,1,2,0:0:0:0:
418,190,36956,2,0,L|424:244,1,50,2|2,3:3|0:0,0:0:0:0:
407,286,37293,6,0,B|364:313|364:313|311:310,1,100,2|10,3:2|0:0,0:0:0:0:
270,286,37798,1,2,3:2:0:0:
184,337,38135,2,0,P|170:305|167:278,1,50,2|2,3:2|0:0,0:0:0:0:
140,247,38472,1,6,3:2:0:0:
171,152,38810,1,2,3:2:0:0:
171,152,38978,2,0,P|202:145|224:145,1,50,10|10,0:0|0:3,0:0:0:0:
269,138,39315,2,0,P|276:107|276:85,1,50,10|8,0:3|0:3,0:0:0:0:
290,40,39652,1,4,0:3:0:0:
208,1,39989,6,0,L|115:8,1,89.999997253418,2|8,3:2|0:0,0:0:0:0:
81,34,40495,1,10,0:3:0:0:
81,34,40663,2,0,P|77:94|86:129,1,89.999997253418,6|8,0:3|0:0,0:0:0:0:
151,183,41338,1,0,3:2:0:0:
118,265,41675,2,0,L|69:262,1,44.999998626709,10|8,0:0|0:3,0:0:0:0:
30,246,42012,2,0,L|44:343,1,89.999997253418,6|10,0:3|0:0,0:0:0:0:
130,357,42686,6,0,B|173:346|173:346|203:310,1,89.999997253418,2|10,3:2|0:0,0:0:0:0:
232,278,43192,2,0,B|275:289|275:289|306:325,1,89.999997253418,10|2,0:3|3:2,0:0:0:0:
336,354,43697,2,0,P|353:335|371:321,1,44.999998626709,10|2,0:0|3:2,0:0:0:0:
402,294,44034,1,2,3:2:0:0:
427,210,44371,1,8,0:0:0:0:
427,210,44540,2,0,L|409:103,1,89.999997253418,8|0,0:3|3:2,0:0:0:0:
384,85,45045,2,0,P|354:78|338:70,1,44.999998626709,8|0,0:0|0:0,0:0:0:0:
303,38,45383,6,0,P|236:31|195:56,1,100,6|10,3:2|0:0,0:0:0:0:
166,71,45888,2,0,B|151:119|151:119|168:174,1,100,6|2,3:2|3:2,0:0:0:0:
238,233,46562,2,0,L|138:262,1,100,6|2,3:2|3:2,0:0:0:0:
93,275,47068,1,10,0:0:0:0:
93,275,47236,2,0,P|64:237|64:175,1,100,6|0,3:2|3:2,0:0:0:0:
18,158,47742,1,8,0:0:0:0:
68,71,48079,6,0,L|184:53,1,100,2|10,3:2|0:0,0:0:0:0:
203,148,48753,2,0,L|261:157,1,50,10|10,0:0|3:2,0:0:0:0:
268,203,49090,1,10,0:0:0:0:
268,203,49259,2,0,P|258:257|274:306,1,100,6|2,3:2|3:2,0:0:0:0:
282,348,49765,5,10,0:0:0:0:
381,335,50102,2,0,L|390:389,2,50,10|2|10,0:0|3:2|0:0,0:0:0:0:
408,293,50607,1,6,3:2:0:0:
507,305,50944,1,2,3:2:0:0:
507,305,51113,1,2,3:2:0:0:
379,34,52124,6,0,B|329:41|329:41|280:24,1,100,6|10,3:2|0:0,0:0:0:0:
244,58,52630,1,2,0:0:0:0:
270,154,52967,1,2,0:0:0:0:
189,211,53304,1,10,0:0:0:0:
189,211,53472,2,0,L|195:262,2,50,2|2|10,3:2|0:0|0:0,0:0:0:0:
141,200,53978,1,2,0:0:0:0:
51,241,54315,1,2,0:0:0:0:
62,340,54652,1,2,0:0:0:0:
62,340,54821,6,0,P|110:362|163:365,1,100,2|10,3:2|0:0,0:0:0:0:
192,330,55326,1,2,0:0:0:0:
278,381,55663,1,2,0:0:0:0:
343,303,56001,2,0,B|323:257|323:257|340:207,1,100,2|2,0:0|0:0,0:0:0:0:
375,174,56506,1,10,0:0:0:0:
375,174,56675,1,2,0:0:0:0:
318,92,57012,1,2,0:0:0:0:
318,92,57180,2,0,L|256:81,1,50,10|10,0:0|0:0,0:0:0:0:
220,92,57517,6,0,P|163:136|97:125,1,100,6|10,3:2|0:0,0:0:0:0:
93,115,58023,1,2,0:0:0:0:
50,205,58360,1,2,0:0:0:0:
111,284,58697,1,10,0:0:0:0:
111,284,58866,2,0,P|102:326|101:347,2,50,2|2|10,3:2|0:0|0:0,0:0:0:0:
159,270,59371,1,2,0:0:0:0:
238,331,59708,1,2,0:0:0:0:
315,266,60045,1,2,0:0:0:0:
315,266,60214,6,0,P|368:250|422:255,1,100,2|10,3:2|0:0,0:0:0:0:
452,283,60720,1,2,0:0:0:0:
490,190,61057,2,0,L|479:138,1,50,2|10,0:0|0:0,0:0:0:0:
440,110,61394,2,0,B|390:99|390:99|341:125,1,100,6|2,3:2|3:2,0:0:0:0:
303,99,61899,1,10,0:0:0:0:
303,99,62068,1,6,3:2:0:0:
213,145,62405,1,10,0:0:0:0:
213,145,62574,2,0,L|217:199,1,50,10|10,0:0|0:0,0:0:0:0:
241,239,62911,6,0,P|279:231|304:232,2,50,6|2|10,3:2|0:0|0:0,0:0:0:0:
213,279,63416,2,0,P|160:294|99:263,1,100,2|2,0:0|0:0,0:0:0:0:
20,252,64090,1,10,0:0:0:0:
20,252,64259,2,0,L|38:353,1,100,2|10,3:2|0:0,0:0:0:0:
80,377,64765,1,2,0:0:0:0:
180,379,65102,1,2,0:0:0:0:
266,333,65439,1,2,0:0:0:0:
266,333,65607,6,0,P|286:252|274:217,1,100,2|10,3:2|0:0,0:0:0:0:
327,154,66281,1,2,3:2:0:0:
327,154,66450,1,2,0:0:0:0:
291,63,66787,2,0,B|241:72|241:72|189:58,1,100,2|2,0:0|0:0,0:0:0:0:
146,44,67293,1,10,0:0:0:0:
146,44,67461,2,0,L|34:60,1,99.9999999999999,2|8,0:0|0:0,0:0:0:0:
17,97,67967,1,10,0:0:0:0:
32,195,68304,6,0,P|86:206|137:195,1,100,6|10,3:2|0:0,0:0:0:0:
185,114,68978,1,10,0:0:0:0:
185,114,69147,2,0,L|241:106,1,50,2|10,3:2|0:0,0:0:0:0:
270,142,69484,2,0,L|382:158,1,100,2|2,3:2|3:2,0:0:0:0:
405,120,69989,1,10,0:0:0:0:
405,120,70158,1,2,3:2:0:0:
494,166,70495,2,0,P|503:142|507:112,2,50,2|10|2,3:2|0:0|3:2,0:0:0:0:
472,210,71001,6,0,P|469:263|494:315,1,100,12|2,0:0|3:2,0:0:0:0:
452,340,71506,2,0,L|333:327,1,100,14|2,0:0|3:2,0:0:0:0:
312,300,72012,1,14,0:0:0:0:
241,370,72349,2,0,L|185:375,2,50,8|8|8,0:0|0:0|0:0,0:0:0:0:
333,84,73697,6,0,B|288:58|288:58|228:65,1,100,6|10,3:2|0:0,0:0:0:0:
205,99,74203,1,2,3:2:0:0:
106,99,74540,1,2,3:2:0:0:
65,189,74877,2,0,B|70:229|109:250|109:250|106:289|129:320,1,150,6|0,3:2|0:0,0:0:0:0:
227,335,75720,2,0,P|221:359|221:386,2,50,10|10|6,0:0|0:3|0:3,0:0:0:0:
263,299,76225,6,0,L|363:305,1,100,4|0,3:2|0:0,0:0:0:0:
399,270,76731,1,10,0:0:0:0:
399,270,76899,2,0,B|381:221|381:221|396:161,1,100,2|2,0:0|0:0,0:0:0:0:
330,96,77574,2,0,P|287:117|223:115,1,100,2|2,0:0|0:0,0:0:0:0:
157,57,78248,1,2,0:0:0:0:
76,114,78585,2,0,L|25:120,2,50,2|10|2,0:0|0:0|0:0,0:0:0:0:
104,155,79091,6,0,P|109:183|109:205,1,50,10|10,3:3|0:0,0:0:0:0:
86,248,79428,1,10,0:0:0:0:
86,248,79596,1,2,3:3:0:0:
166,308,79933,1,2,3:3:0:0:
256,262,80270,1,6,3:2:0:0:
256,192,80439,12,0,81703,0:0:0:0:
