osu file format v14

[General]
AudioFilename: audio.mp3
AudioLeadIn: 0
PreviewTime: 51197
Countdown: 0
SampleSet: Soft
StackLeniency: 0.7
Mode: 0
LetterboxInBreaks: 0
WidescreenStoryboard: 1

[Editor]
Bookmarks: 18416,29203,62911,76225
DistanceSpacing: 1.3
BeatDivisor: 4
GridSize: 4
TimelineZoom: 1.28

[Metadata]
Title:Dori Dori (TV Size)
TitleUnicode:ドリドリ (TV Size)
Artist:Nakagawa Shoko
ArtistUnicode:中川翔子
Creator:Wanpachi
Version:Nely's Insane
Source:ポケットモンスターXY
Tags:shouko shokotan rgb 〜true color〜 ending ed xyz pocket pokemon pokémon xy monsters serena japanese pop j-pop jpop anime doridori makiguchi mayuki セレナ 牧口 真幸 dreamdream dream kalos cycopton xinely
BeatmapID:2649031
BeatmapSetID:1241138

[Difficulty]
HPDrainRate:5.5
CircleSize:4
OverallDifficulty:7.5
ApproachRate:9
SliderMultiplier:1.6
SliderTickRate:1

[Events]
//Background and Video events
0,0,"1ser.jpg",0,0
//Break Periods
//Storyboard Layer 0 (Background)
//Storyboard Layer 1 (Fail)
//Storyboard Layer 2 (Pass)
//Storyboard Layer 3 (Foreground)
//Storyboard Layer 4 (Overlay)
//Storyboard Sound Samples

[TimingPoints]
2237,337.078651685393,4,2,1,60,1,0
2237,-125,4,2,1,60,0,0
7461,-100,4,2,1,70,0,0
16225,-100,4,2,3,70,0,0
16899,-100,4,2,1,70,0,0
18416,-100,4,2,1,60,0,0
27686,-90.9090909090909,4,2,1,60,0,0
27939,-90.9090909090909,4,2,1,5,0,0
28023,-83.3333333333333,4,2,1,60,0,0
28276,-83.3333333333333,4,2,1,5,0,0
28360,-76.9230769230769,4,2,1,60,0,0
28613,-76.9230769230769,4,2,1,5,0,0
28697,-100,4,2,1,60,0,0
29203,-100,4,2,1,70,0,0
31562,-100,4,2,2,70,0,0
31647,-100,4,2,1,70,0,0
34259,-100,4,2,2,70,0,0
34343,-100,4,2,1,70,0,0
36956,-100,4,2,2,70,0,0
37040,-100,4,2,1,70,0,0
39989,-100,4,2,1,50,0,0
45298,-100,4,2,1,5,0,0
45383,-100,4,2,1,60,0,0
48079,-100,4,2,1,70,0,0
51281,-133.333333333333,4,2,1,70,0,0
52124,-90.9090909090909,4,2,1,80,0,1
74877,-100,4,2,1,80,0,1
76225,-100,4,2,1,70,0,0
79596,-100,4,2,3,70,0,0
80270,-100,4,2,1,70,0,0
81703,-100,4,2,1,50,0,0

[Colours]
Combo1 : 89,135,219
Combo2 : 241,124,124
Combo3 : 116,203,218
Combo4 : 235,184,235

[HitObjects]
257,255,2237,5,10,0:0:0:0:
295,166,2405,1,10,0:0:0:0:
243,88,2574,1,2,0:0:0:0:
243,88,2911,2,0,L|157:89,1,64,2|2,0:0|0:0,0:0:0:0:
257,255,3416,6,0,L|341:257,1,64,10|0,0:0|0:0,0:0:0:0:
453,256,3753,1,10,0:0:0:0:
401,137,3922,1,10,0:0:0:0:
401,137,4259,2,0,L|313:137,1,64,2|2,0:0|0:0,0:0:0:0:
337,48,4596,2,0,L|415:47,1,64,2|2,0:0|0:0,0:0:0:0:
273,217,4933,5,10,0:0:0:0:
215,124,5102,1,10,0:0:0:0:
157,215,5270,1,2,0:0:0:0:
157,215,5607,2,0,L|157:308,1,64,2|2,0:0|0:0,0:0:0:0:
375,281,6113,6,0,L|375:218,1,64,10|0,0:0|0:0,0:0:0:0:
299,111,6450,1,10,0:0:0:0:
430,110,6619,1,10,0:0:0:0:
430,110,6956,2,0,L|496:103,2,64,2|2|10,0:0|0:0|0:0,0:0:0:0:
299,111,7461,6,0,P|208:146|179:215,1,160,4|0,3:2|0:0,0:0:0:0:
216,289,7967,1,10,0:0:0:0:
360,232,8135,2,0,L|447:216,1,80,2|0,0:0|3:2,0:0:0:0:
294,303,8472,2,0,L|207:287,1,80,2|8,0:0|0:0,0:0:0:0:
55,230,8810,6,0,P|31:161|86:101,1,160,2|0,0:0|0:0,0:0:0:0:
182,163,9315,1,10,0:0:0:0:
279,52,9484,2,0,P|318:36|381:45,1,80,2|0,0:0|3:2,0:0:0:0:
442,169,9821,2,0,P|405:184|365:184,1,80,2|8,0:0|0:0,0:0:0:0:
182,163,10158,6,0,L|198:346,1,160,2|0,0:0|0:0,0:0:0:0:
317,294,10663,1,10,0:0:0:0:
258,112,10832,2,0,P|204:78|93:129,1,160,2|2,0:0|0:0,0:0:0:0:
112,209,11338,1,8,0:0:0:0:
299,195,11506,6,0,L|387:190,1,80,6|0,3:2|0:0,0:0:0:0:
296,307,11843,2,0,L|194:310,1,80,2|8,3:2|0:0,0:0:0:0:
112,209,12180,2,0,L|209:201,1,80,6|0,3:2|0:0,0:0:0:0:
146,348,12517,1,10,0:0:0:0:
146,348,12602,1,8,0:0:0:0:
146,348,12686,1,8,0:0:0:0:
329,282,12854,6,0,B|389:251|389:251|375:192|324:170,1,160,6|0,3:2|0:0,0:0:0:0:
236,203,13360,1,14,0:0:0:0:
109,136,13529,2,0,P|104:96|108:56,1,80,2|0,0:0|3:2,0:0:0:0:
230,24,13866,2,0,P|233:63|228:103,1,80,2|8,0:0|0:0,0:0:0:0:
342,197,14203,6,0,L|439:191,1,80,2|0,0:0|3:2,0:0:0:0:
480,291,14540,2,0,L|383:299,1,80,2|8,0:0|0:0,0:0:0:0:
234,259,14877,2,0,P|215:180|233:91,1,160,2|2,0:0|0:0,0:0:0:0:
339,57,15383,1,10,0:0:0:0:
202,27,15551,1,2,0:0:0:0:
391,157,15720,6,0,L|398:263,1,80,10|10,3:3|0:0,0:0:0:0:
397,267,15972,1,8,0:0:0:0:
394,298,16057,1,10,0:0:0:0:
228,161,16225,2,0,L|219:74,1,80,2|0,3:3|0:0,0:0:0:0:
400,77,16562,2,0,L|391:156,1,80,2|0,3:3|0:0,0:0:0:0:
262,304,16899,1,6,3:2:0:0:
256,192,17068,12,2,18248,0:0:0:0:
144,279,18416,6,0,P|208:305|309:305,1,160,6|2,3:2|3:2,0:0:0:0:
376,252,18922,2,0,P|386:211|378:156,1,80,2|0,1:2|3:2,0:0:0:0:
211,67,19259,2,0,L|313:64,1,80,2|0,0:0|3:2,0:0:0:0:
384,94,19596,6,0,P|387:140|381:182,1,80,2|0,0:0|3:2,0:0:0:0:
288,194,19933,2,0,L|190:195,1,80,2|0,1:2|3:2,0:0:0:0:
117,238,20270,2,0,B|109:203|109:203|112:158,1,80,2|0,0:0|3:2,0:0:0:0:
240,270,20607,2,0,P|251:307|248:359,1,80,2|8,0:0|3:2,0:0:0:0:
162,372,20944,1,2,0:0:0:0:
117,238,21113,6,0,L|127:60,1,160,2|2,3:2|3:2,0:0:0:0:
222,41,21619,2,0,P|261:31|312:42,1,80,2|0,1:2|3:2,0:0:0:0:
309,132,21956,2,0,P|270:142|219:131,1,80,2|0,0:0|3:2,0:0:0:0:
374,55,22293,2,0,P|398:80|416:139,1,80,2|0,0:0|3:2,0:0:0:0:
308,248,22630,6,0,L|196:245,1,80,2|0,1:2|3:2,0:0:0:0:
104,205,22967,2,0,P|93:167|114:109,1,80,2|0,0:0|3:2,0:0:0:0:
220,94,23304,2,0,P|231:132|210:190,1,80,2|8,0:0|3:2,0:0:0:0:
178,268,23641,1,2,0:0:0:0:
323,301,23810,6,0,L|509:287,1,160,2|2,3:2|3:2,0:0:0:0:
395,203,24315,2,0,L|297:196,1,80,2|0,1:2|3:2,0:0:0:0:
391,121,24652,2,0,L|492:100,1,80,2|0,0:0|3:2,0:0:0:0:
240,55,24989,6,0,P|231:93|234:133,1,80,2|0,0:0|3:2,0:0:0:0:
147,192,25326,2,0,P|103:175|65:173,1,80,2|0,1:2|3:2,0:0:0:0:
149,290,25663,2,0,P|193:307|231:309,1,80,2|0,0:0|3:2,0:0:0:0:
310,285,26001,1,2,0:0:0:0:
391,159,26169,1,10,3:2:0:0:
425,262,26338,1,2,0:0:0:0:
266,123,26506,6,0,P|195:112|104:167,1,160,2|2,3:2|3:2,0:0:0:0:
44,255,27012,2,0,P|30:216|28:166,1,80,2|0,1:2|3:2,0:0:0:0:
130,287,27349,1,10,0:0:0:0:
130,287,27433,1,8,0:0:0:0:
130,287,27517,1,8,0:0:0:0:
196,207,27686,6,0,B|244:213|276:191|276:191|336:206,1,132.00000402832,6|0,3:2|0:0,0:0:0:0:
384,265,28023,2,0,B|357:214|357:214|399:123,1,143.999995605469,6|0,3:2|0:0,0:0:0:0:
470,98,28360,2,0,B|418:118|418:118|298:89,1,155.999992858887,6|0,3:2|0:0,0:0:0:0:
279,84,28697,5,8,0:3:0:0:
377,31,28866,1,12,3:3:0:0:
283,182,29034,1,4,0:3:0:0:
83,186,29203,6,0,P|60:86|92:6,1,160,6|2,3:2|3:2,0:0:0:0:
178,153,29708,2,0,L|186:267,1,80,2|0,1:2|3:2,0:0:0:0:
342,76,30045,2,0,P|378:60|406:24,1,80,2|0,0:0|3:2,0:0:0:0:
288,158,30383,6,0,P|260:129|244:92,1,80,2|0,0:0|3:2,0:0:0:0:
382,232,30720,2,0,L|484:230,1,80,2|0,1:2|3:2,0:0:0:0:
382,333,31057,2,0,L|287:336,1,80,2|0,0:0|3:2,0:0:0:0:
180,229,31394,1,2,0:0:0:0:
307,219,31562,1,2,3:3:0:0:
232,118,31731,1,2,0:0:0:0:
63,320,31899,6,0,B|108:347|156:311|156:311|216:320,1,160,2|2,3:2|3:2,0:0:0:0:
307,219,32405,2,0,P|307:147|293:116,1,80,2|0,1:2|3:2,0:0:0:0:
130,199,32742,2,0,P|165:213|215:208,1,80,2|0,0:0|3:2,0:0:0:0:
304,140,33079,2,0,L|301:46,1,80,2|0,0:0|3:2,0:0:0:0:
118,39,33416,6,0,L|109:127,1,80,2|0,1:2|3:2,0:0:0:0:
100,287,33753,2,0,P|140:280|202:296,1,80,2|0,0:0|3:2,0:0:0:0:
350,293,34090,1,2,0:0:0:0:
258,362,34259,1,2,3:3:0:0:
290,201,34428,1,2,0:0:0:0:
460,322,34596,6,0,B|424:270|424:270|453:149,1,160,2|2,3:2|3:2,0:0:0:0:
510,62,35102,2,0,L|402:33,1,80,2|0,1:2|3:2,0:0:0:0:
328,99,35439,2,0,P|323:145|332:205,1,80,2|0,0:0|3:2,0:0:0:0:
178,57,35776,6,0,P|134:50|82:55,1,80,2|0,0:0|3:2,0:0:0:0:
187,184,36113,2,0,P|152:155|104:134,1,80,2|0,1:2|3:2,0:0:0:0:
159,303,36450,2,0,P|143:261|112:218,1,80,2|0,0:0|3:2,0:0:0:0:
27,224,36787,1,2,0:0:0:0:
159,303,36956,1,2,3:3:0:0:
44,327,37124,1,2,0:0:0:0:
193,181,37293,6,0,P|283:173|352:187,1,160,2|10,3:2|0:0,0:0:0:0:
245,354,37798,2,0,P|244:317|239:264,1,80,2|0,3:2|0:0,0:0:0:0:
282,105,38135,1,2,3:2:0:0:
361,270,38304,1,2,0:0:0:0:
103,252,38472,6,0,P|107:176|132:69,1,160,6|2,3:2|3:2,0:0:0:0:
297,167,38978,1,10,0:0:0:0:
237,62,39147,1,10,0:3:0:0:
182,166,39315,1,10,0:3:0:0:
368,125,39484,1,8,0:3:0:0:
374,283,39652,1,4,0:3:0:0:
235,237,39821,1,4,3:3:0:0:
440,55,39989,6,0,P|479:121|457:196,1,160,6|8,3:2|0:0,0:0:0:0:
374,283,40495,1,10,0:3:0:0:
277,170,40663,2,0,L|189:159,1,80,6|0,0:3|3:2,0:0:0:0:
248,270,41001,1,8,0:0:0:0:
343,207,41169,1,0,3:2:0:0:
143,226,41338,6,0,L|143:357,1,120,0|0,3:2|0:0,0:0:0:0:
225,357,41675,2,0,P|269:345|313:343,1,80,10|8,0:0|0:3,0:0:0:0:
413,243,42012,2,0,P|376:218|321:204,1,80,6|0,0:3|3:2,0:0:0:0:
242,159,42349,1,10,0:0:0:0:
323,96,42517,1,0,3:2:0:0:
242,262,42686,6,0,P|168:269|89:219,1,160,2|10,3:2|0:0,0:0:0:0:
34,64,43192,2,0,L|28:151,1,80,10|4,0:3|0:3,0:0:0:0:
13,253,43529,1,2,3:2:0:0:
86,322,43697,1,10,0:0:0:0:
270,309,43866,6,0,P|308:239|268:161,1,160,2|0,3:2|0:0,0:0:0:0:
172,147,44371,1,8,0:0:0:0:
270,77,44540,1,8,0:3:0:0:
181,256,44708,2,0,P|143:255|103:235,1,80,4|0,0:3|3:2,0:0:0:0:
174,350,45045,1,8,0:0:0:0:
271,258,45214,1,0,3:2:0:0:
111,81,45383,6,0,L|200:67,1,80,6|2,3:2|0:0,0:0:0:0:
300,66,45720,1,10,0:0:0:0:
103,175,45888,2,0,P|138:212|176:221,1,80,6|0,3:2|0:0,0:0:0:0:
274,247,46225,1,2,3:2:0:0:
349,167,46394,1,10,0:0:0:0:
103,175,46562,6,0,P|82:216|82:268,1,80,6|0,3:2|0:0,0:0:0:0:
157,342,46899,1,2,3:2:0:0:
281,316,47068,1,10,0:0:0:0:
103,175,47236,2,0,P|60:190|8:194,1,80,6|0,3:2|0:0,0:0:0:0:
60,80,47574,1,0,3:2:0:0:
215,118,47742,1,8,0:0:0:0:
159,26,47911,1,10,0:3:0:0:
334,185,48079,6,0,L|347:105,1,80,2|2,3:2|3:2,0:0:0:0:
180,203,48416,2,0,L|200:305,1,80,10|10,0:0|3:2,0:0:0:0:
350,281,48753,1,10,0:0:0:0:
457,186,48922,1,10,3:2:0:0:
346,106,49090,1,10,0:0:0:0:
196,282,49259,6,0,P|275:301|361:273,1,160,6|2,3:2|3:2,0:0:0:0:
399,143,49765,1,10,0:0:0:0:
283,121,49933,1,2,3:2:0:0:
412,215,50102,1,10,0:0:0:0:
352,70,50270,1,2,3:2:0:0:
251,195,50439,1,10,0:0:0:0:
98,49,50607,6,0,L|91:128,1,80,6|0,3:2|0:0,0:0:0:0:
121,264,50944,1,2,3:2:0:0:
210,79,51113,1,2,3:2:0:0:
326,182,51281,1,2,0:0:0:0:
394,129,51450,2,0,P|388:97|368:65,2,60.0000022888184,2|2|2,0:0|0:0|0:0,0:0:0:0:
412,215,51956,1,2,0:0:0:0:
268,350,52124,6,0,P|205:360|117:288,1,176.000005371094,6|10,3:2|0:0,0:0:0:0:
170,177,52630,2,0,P|171:116|160:76,1,88.000002685547,2|0,0:0|3:2,0:0:0:0:
260,247,52967,2,0,P|284:202|291:158,1,88.000002685547,2|8,0:0|0:0,0:0:0:0:
296,77,53304,1,10,0:0:0:0:
118,27,53472,5,2,3:2:0:0:
170,177,53641,1,2,0:0:0:0:
296,77,53810,1,10,0:0:0:0:
59,104,53978,2,0,P|45:149|54:224,1,88.000002685547,2|0,0:0|3:2,0:0:0:0:
190,261,54315,2,0,P|185:216|157:158,1,88.000002685547,2|8,0:0|0:0,0:0:0:0:
59,104,54652,1,2,0:0:0:0:
78,336,54821,6,0,B|127:329|127:329|182:351|182:351|263:331,1,176.000005371094,2|10,3:2|0:0,0:0:0:0:
404,268,55326,2,0,P|446:282|490:325,1,88.000002685547,2|0,0:0|3:2,0:0:0:0:
354,171,55663,2,0,P|343:131|357:69,1,88.000002685547,2|8,0:0|0:0,0:0:0:0:
274,242,56001,6,0,P|235:257|176:251,1,88.000002685547,2|0,0:0|3:2,0:0:0:0:
109,179,56338,1,2,0:0:0:0:
229,136,56506,1,10,0:0:0:0:
325,355,56675,2,0,B|381:336|381:336|417:371|509:348,1,176.000005371094,2|2,0:0|0:0,0:0:0:0:
497,202,57180,1,10,0:0:0:0:
368,244,57349,1,10,0:0:0:0:
368,244,57433,1,8,0:0:0:0:
368,244,57517,6,0,B|300:239|300:239|242:256|242:256|183:246,1,176.000005371094,6|10,3:2|0:0,0:0:0:0:
251,56,58023,2,0,P|265:98|258:141,1,88.000002685547,2|0,0:0|3:2,0:0:0:0:
90,204,58360,2,0,P|81:161|96:120,1,88.000002685547,2|8,0:0|0:0,0:0:0:0:
195,248,58697,1,10,0:0:0:0:
104,347,58866,6,0,L|-3:348,2,88.000002685547,2|2|10,3:2|0:0|0:0,0:0:0:0:
255,335,59371,2,0,P|295:343|371:330,1,88.000002685547,2|0,0:0|3:2,0:0:0:0:
436,190,59708,2,0,P|396:182|320:195,1,88.000002685547,2|8,0:0|0:0,0:0:0:0:
390,272,60045,1,2,0:0:0:0:
481,120,60214,6,0,P|396:93|295:122,1,176.000005371094,2|10,3:2|0:0,0:0:0:0:
167,171,60720,2,0,P|152:134|152:73,1,88.000002685547,2|0,0:0|3:2,0:0:0:0:
258,50,61057,1,2,0:0:0:0:
275,190,61225,1,10,0:0:0:0:
129,260,61394,6,0,P|103:229|87:182,1,88.000002685547,6|0,3:2|0:0,0:0:0:0:
64,76,61731,1,2,3:2:0:0:
176,14,61899,1,10,0:0:0:0:
220,262,62068,2,0,B|303:287|303:287|389:246,1,176.000005371094,6|10,3:2|0:0,0:0:0:0:
424,217,62489,1,8,0:0:0:0:
445,177,62574,1,8,3:0:0:0:
441,131,62658,1,8,3:0:0:0:
416,96,62742,1,8,0:0:0:0:
380,72,62826,1,8,3:0:0:0:
337,67,62911,6,0,L|243:67,2,88.000002685547,6|2|10,3:2|0:0|0:0,0:0:0:0:
171,116,63416,2,0,P|156:75|162:31,1,88.000002685547,2|0,0:0|3:2,0:0:0:0:
332,153,63753,2,0,P|338:196|323:237,1,88.000002685547,2|8,0:0|0:0,0:0:0:0:
246,283,64090,1,10,0:0:0:0:
417,135,64259,6,0,P|426:219|380:303,1,176.000005371094,2|10,3:2|0:0,0:0:0:0:
246,283,64765,2,0,P|208:259|153:248,1,88.000002685547,2|0,0:0|3:2,0:0:0:0:
49,159,65102,2,0,P|82:128|134:108,1,88.000002685547,2|8,0:0|0:0,0:0:0:0:
259,160,65439,1,2,0:0:0:0:
421,297,65607,6,0,P|321:339|245:290,1,176.000005371094,2|10,3:2|0:0,0:0:0:0:
190,241,66113,1,0,0:0:0:0:
259,160,66281,1,2,3:2:0:0:
391,222,66450,2,0,P|400:180|384:133,1,88.000002685547,2|8,0:0|0:0,0:0:0:0:
263,66,66787,6,0,B|188:105|145:37|91:82,1,176.000005371094,2|2,0:0|0:0,0:0:0:0:
34,169,67293,1,10,0:0:0:0:
100,308,67461,2,0,B|166:267|166:267|184:216|151:168,1,176.000005371094,2|8,0:0|0:0,0:0:0:0:
93,79,67967,1,10,0:0:0:0:
236,128,68135,1,8,0:0:0:0:
236,128,68220,1,8,0:0:0:0:
236,128,68304,6,0,L|337:122,1,88.000002685547,6|0,3:2|0:0,0:0:0:0:
153,216,68641,2,0,L|65:221,1,88.000002685547,10|0,0:0|0:0,0:0:0:0:
245,303,68978,2,0,L|346:297,1,88.000002685547,10|2,0:0|3:2,0:0:0:0:
437,148,69315,1,10,0:0:0:0:
474,308,69484,1,2,3:2:0:0:
305,124,69652,5,8,0:0:0:0:
305,124,69821,1,2,3:2:0:0:
231,269,69989,1,10,0:0:0:0:
231,269,70158,1,2,3:2:0:0:
404,263,70326,1,8,0:0:0:0:
404,263,70495,1,2,3:2:0:0:
337,49,70663,1,10,0:0:0:0:
486,134,70832,1,2,3:2:0:0:
311,258,71001,6,0,L|128:240,1,176.000005371094,12|2,0:0|3:2,0:0:0:0:
298,113,71506,2,0,P|347:188|310:258,1,176.000005371094,14|2,0:0|3:2,0:0:0:0:
190,332,72012,2,0,L|102:319,1,88.000002685547,14|2,0:0|3:2,0:0:0:0:
263,183,72349,5,8,0:0:0:0:
99,212,72517,1,8,0:0:0:0:
296,352,72686,1,8,0:0:0:0:
296,352,73697,6,0,L|300:166,1,176.000005371094,6|10,3:2|0:0,0:0:0:0:
193,325,74203,2,0,L|196:238,1,88.000002685547,2|0,3:2|0:0,0:0:0:0:
391,240,74540,2,0,L|391:328,1,88.000002685547,2|0,3:2|0:0,0:0:0:0:
299,176,74877,1,6,3:2:0:0:
299,176,75720,2,0,L|401:170,2,80,10|10|6,0:0|0:3|0:3,0:0:0:0:
113,208,76225,6,0,P|66:142|113:74,1,160,4|0,3:2|0:0,0:0:0:0:
205,60,76731,1,10,0:0:0:0:
299,176,76899,2,0,P|310:217|293:269,1,80,2|0,0:0|3:2,0:0:0:0:
190,336,77236,2,0,P|179:295|196:243,1,80,2|8,0:0|0:0,0:0:0:0:
290,117,77574,6,0,L|374:94,1,80,2|0,0:0|3:2,0:0:0:0:
198,169,77911,2,0,L|112:160,1,80,2|8,0:0|0:0,0:0:0:0:
302,253,78248,2,0,L|399:233,1,80,2|0,0:0|3:2,0:0:0:0:
395,339,78585,1,2,0:0:0:0:
457,208,78753,1,10,0:0:0:0:
510,328,78922,1,2,0:0:0:0:
267,344,79090,5,10,3:3:0:0:
217,193,79259,1,10,0:0:0:0:
217,193,79343,1,8,0:0:0:0:
217,193,79428,1,10,0:0:0:0:
364,59,79596,2,0,P|368:98|365:159,1,80,2|0,3:3|0:0,0:0:0:0:
128,260,79933,2,0,P|124:222|129:161,1,80,2|0,3:3|0:0,0:0:0:0:
351,272,80270,5,6,3:2:0:0:
256,192,80354,12,0,81703,0:0:0:0:
