osu file format v14

[General]
AudioFilename: audio.mp3
AudioLeadIn: 0
PreviewTime: 51197
Countdown: 0
SampleSet: Soft
StackLeniency: 0.7
Mode: 0
LetterboxInBreaks: 0
WidescreenStoryboard: 1

[Editor]
DistanceSpacing: 1.3
BeatDivisor: 4
GridSize: 32
TimelineZoom: 1.48

[Metadata]
Title:Dori Dori (TV Size)
TitleUnicode:ドリドリ (TV Size)
Artist:Nakagawa Shoko
ArtistUnicode:中川翔子
Creator:Wanpachi
Version:Hard
Source:ポケットモンスターXY
Tags:shouko shokotan rgb 〜true color〜 ending ed xyz pocket pokemon pokémon xy monsters serena japanese pop j-pop jpop anime doridori makiguchi mayuki セレナ 牧口 真幸 dreamdream dream kalos cycopton xinely
BeatmapID:2580283
BeatmapSetID:1241138

[Difficulty]
HPDrainRate:5
CircleSize:3.6
OverallDifficulty:6
ApproachRate:8
SliderMultiplier:1.4
SliderTickRate:1

[Events]
//Background and Video events
0,0,"1ser.jpg",0,0
//Break Periods
//Storyboard Layer 0 (Background)
//Storyboard Layer 1 (Fail)
//Storyboard Layer 2 (Pass)
//Storyboard Layer 3 (Foreground)
//Storyboard Layer 4 (Overlay)
//Storyboard Sound Samples

[TimingPoints]
2237,337.078651685393,4,2,1,60,1,0
2237,-125,4,2,1,60,0,0
7461,-100,4,2,1,70,0,0
16225,-100,4,2,3,70,0,0
16899,-100,4,2,1,70,0,0
18416,-111.111111111111,4,2,1,60,0,0
29203,-100,4,2,1,70,0,0
31562,-100,4,2,2,70,0,0
31647,-100,4,2,1,70,0,0
34259,-100,4,2,2,70,0,0
34343,-100,4,2,1,70,0,0
36956,-100,4,2,2,70,0,0
37040,-100,4,2,1,70,0,0
39989,-125,4,2,1,50,0,0
45383,-100,4,2,1,60,0,0
48079,-100,4,2,1,70,0,0
52124,-90.9090909090909,4,2,1,80,0,1
74877,-90.9090909090909,4,2,1,80,0,1
76225,-100,4,2,1,70,0,0
79596,-100,4,2,3,70,0,0
80270,-100,4,2,1,70,0,0
81703,-100,4,2,1,50,0,0

[Colours]
Combo1 : 89,135,219
Combo2 : 241,124,124
Combo3 : 116,203,218
Combo4 : 235,184,235
234,147,2697,2,0,L|285 :
153,1,50

[HitObjects]
96,88,2237,6,0,L|111:160,1,56,10|10,0:0|0:0,0:0:0:0:
67,211,2574,1,2,0:0:0:0:
167,338,2911,1,2,0:0:0:0:
167,338,3079,1,2,0:0:0:0:
287,238,3416,6,0,P|341:236|380:273,1,112,10|10,0:0|0:0,0:0:0:0:
436,329,3922,1,10,0:0:0:0:
466,175,4259,2,0,L|445:103,1,56,2|2,0:0|0:0,0:0:0:0:
384,78,4596,2,0,L|312:98,1,56,2|2,0:0|0:0,0:0:0:0:
274,148,4933,6,0,P|247:135|208:127,1,56,10|10,0:0|0:0,0:0:0:0:
163,76,5270,1,2,0:0:0:0:
86,214,5607,1,2,0:0:0:0:
86,214,5776,1,2,0:0:0:0:
209,310,6113,6,0,L|328:293,1,112,10|10,0:0|0:0,0:0:0:0:
391,327,6619,1,10,0:0:0:0:
421,173,6956,2,0,L|476:180,2,56,2|2|10,0:0|0:0|0:0,0:0:0:0:
367,101,7461,6,0,B|333:84|300:101|300:101|266:117|233:101,1,140,4|0,3:2|0:0,0:0:0:0:
153,54,7967,1,10,0:0:0:0:
91,120,8135,2,0,L|114:214,1,70,2|0,0:0|3:2,0:0:0:0:
177,246,8472,2,0,L|154:340,1,70,2|8,0:0|0:0,0:0:0:0:
237,363,8810,6,0,P|294:320|370:332,1,140,2|0,0:0|0:0,0:0:0:0:
448,341,9315,1,10,0:0:0:0:
501,267,9484,2,0,P|508:233|499:199,1,70,2|0,0:0|3:2,0:0:0:0:
435,135,9821,2,0,P|401:127|367:136,1,70,2|8,0:0|0:0,0:0:0:0:
303,200,10158,6,0,B|261:230|261:230|142:208,1,140,2|0,0:0|0:0,0:0:0:0:
91,250,10663,1,10,0:0:0:0:
25,185,10832,2,0,L|30:115,1,70,2|0,0:0|3:2,0:0:0:0:
95,50,11169,2,0,L|164:55,1,70,2|8,0:0|0:0,0:0:0:0:
229,120,11506,6,0,P|287:132|359:65,1,140,6|2,3:2|3:2,0:0:0:0:
437,61,12012,1,8,0:0:0:0:
486,136,12180,2,0,L|477:291,1,140,6|10,3:2|0:0,0:0:0:0:
489,287,12602,1,8,0:0:0:0:
501,299,12686,1,8,0:0:0:0:
434,361,12854,6,0,P|367:376|306:344,1,140,6|0,3:2|0:0,0:0:0:0:
250,272,13360,1,14,0:0:0:0:
174,322,13529,2,0,L|95:327,1,70,2|0,0:0|3:2,0:0:0:0:
95,235,13866,2,0,L|164:230,1,70,2|8,0:0|0:0,0:0:0:0:
243,184,14203,6,0,B|259:138|259:138|232:46,1,140,2|2,0:0|0:0,0:0:0:0:
317,16,14708,1,8,0:0:0:0:
405,38,14877,2,0,P|467:80|449:163,1,140,2|2,0:0|0:0,0:0:0:0:
413,213,15383,1,10,0:0:0:0:
469,283,15551,1,2,0:0:0:0:
399,342,15720,6,0,L|311:352,1,70,10|10,3:3|0:0,0:0:0:0:
317,337,15972,1,8,0:0:0:0:
305,325,16057,1,10,0:0:0:0:
217,349,16225,1,2,3:3:0:0:
67,245,16562,1,2,3:3:0:0:
164,91,16899,1,6,3:2:0:0:
256,192,16984,12,0,18079,0:0:0:0:
438,303,18416,6,0,P|422:241|421:179,1,125.999996154785,6|2,3:2|3:2,0:0:0:0:
465,109,18922,2,0,L|453:25,1,62.9999980773926,2|0,0:0|3:2,0:0:0:0:
379,15,19259,2,0,P|352:32|322:42,1,62.9999980773926,2|0,0:0|3:2,0:0:0:0:
264,101,19596,6,0,P|210:68|151:47,1,125.999996154785,2|2,0:0|0:0,0:0:0:0:
11,132,20270,2,0,L|30:281,1,125.999996154785,2|2,0:0|0:0,0:0:0:0:
30,339,20776,1,8,3:2:0:0:
103,302,20944,1,2,0:0:0:0:
169,351,21113,6,0,B|216:364|216:364|298:339,1,125.999996154785,2|2,3:2|3:2,0:0:0:0:
368,318,21619,2,0,P|363:350|368:384,1,62.9999980773926,2|0,0:0|3:2,0:0:0:0:
449,380,21956,2,0,P|453:347|449:314,1,62.9999980773926,2|0,0:0|3:2,0:0:0:0:
408,246,22293,6,0,L|413:109,1,125.999996154785,2|2,0:0|0:0,0:0:0:0:
285,16,22967,2,0,B|254:0|224:16|224:16|194:30|164:16,1,125.999996154785,2|2,0:0|0:0,0:0:0:0:
124,87,23472,1,8,3:2:0:0:
82,16,23641,1,2,0:0:0:0:
23,77,23810,6,0,L|50:227,1,125.999996154785,2|2,3:2|3:2,0:0:0:0:
106,254,24315,2,0,P|135:264|166:269,1,62.9999980773926,2|0,0:0|3:2,0:0:0:0:
216,204,24652,2,0,L|276:188,1,62.9999980773926,2|0,0:0|3:2,0:0:0:0:
359,191,24989,6,0,L|324:311,1,125.999996154785,2|2,0:0|0:0,0:0:0:0:
473,378,25663,2,0,P|497:318|469:248,1,125.999996154785,2|2,0:0|0:0,0:0:0:0:
437,191,26169,1,10,3:2:0:0:
470,116,26338,1,2,0:0:0:0:
408,62,26506,6,0,B|357:45|357:45|268:64,1,125.999996154785,2|2,3:2|3:2,0:0:0:0:
208,35,27012,2,0,P|201:74|209:105,1,62.9999980773926,2|0,0:0|3:2,0:0:0:0:
222,176,27349,1,10,0:0:0:0:
210,188,27433,1,8,0:0:0:0:
198,200,27517,1,8,0:0:0:0:
177,279,27686,6,0,L|114:289,1,62.9999980773926,6|0,3:2|0:0,0:0:0:0:
124,370,28023,2,0,L|186:360,1,62.9999980773926,6|0,3:2|0:0,0:0:0:0:
253,313,28360,2,0,L|315:323,1,62.9999980773926,6|0,3:2|0:0,0:0:0:0:
396,332,28697,1,8,0:3:0:0:
396,332,28866,2,0,P|386:302|384:270,1,62.9999980773926,12|4,3:3|0:3,0:0:0:0:
300,233,29203,6,0,P|322:161|327:85,1,140,6|2,3:2|3:2,0:0:0:0:
365,14,29708,2,0,L|433:1,1,70,2|0,0:0|3:2,0:0:0:0:
503,59,30045,2,0,L|491:127,1,70,2|0,0:0|3:2,0:0:0:0:
436,201,30383,6,0,P|403:264|412:347,1,140,2|2,0:0|0:0,0:0:0:0:
227,365,31057,2,0,B|177:381|177:381|83:361,1,140,2|2,0:0|0:0,0:0:0:0:
22,304,31562,1,2,3:3:0:0:
94,250,31731,1,2,0:0:0:0:
29,187,31899,6,0,B|11:152|29:119|29:119|44:86|29:52,1,140,2|2,3:2|3:2,0:0:0:0:
112,15,32405,2,0,P|145:5|178:14,1,70,2|0,0:0|3:2,0:0:0:0:
245,76,32742,2,0,P|278:85|311:76,1,70,2|0,0:0|3:2,0:0:0:0:
390,29,33079,6,0,L|410:183,1,140,2|2,0:0|0:0,0:0:0:0:
302,316,33753,2,0,B|278:267|278:267|296:184,1,140,2|2,0:0|0:0,0:0:0:0:
207,161,34259,1,2,3:3:0:0:
158,238,34428,1,2,0:0:0:0:
76,199,34596,6,0,P|44:134|86:74,1,140,2|2,3:2|3:2,0:0:0:0:
126,5,35102,2,0,L|203:15,1,70,2|0,0:0|3:2,0:0:0:0:
250,87,35439,2,0,L|327:97,1,70,2|0,0:0|3:2,0:0:0:0:
404,63,35776,6,0,L|421:201,1,140,2|2,0:0|0:0,0:0:0:0:
313,348,36450,2,0,B|263:363|263:363|164:333,1,140,2|2,0:0|0:0,0:0:0:0:
121,267,36956,1,2,3:3:0:0:
46,319,37124,1,2,0:0:0:0:
38,228,37293,6,0,L|55:89,1,140,2|10,3:2|0:0,0:0:0:0:
116,21,37798,2,0,P|179:63|247:40,1,140,2|2,3:2|3:2,0:0:0:0:
320,10,38304,1,2,0:0:0:0:
394,62,38473,6,0,B|411:96|394:129|394:129|378:162|394:196,1,140,6|2,3:2|3:2,0:0:0:0:
424,282,38978,1,10,0:0:0:0:
424,282,39147,1,10,0:3:0:0:
373,357,39315,2,0,B|322:338|322:338|233:351,1,140,10|4,0:3|0:3,0:0:0:0:
184,215,39989,6,0,B|294:198,1,112,2|8,3:2|0:0,0:0:0:0:
367,228,40495,1,10,0:3:0:0:
432,186,40663,2,0,P|449:123|425:70,1,112,6|8,0:3|0:0,0:0:0:0:
291,14,41338,5,0,3:2:0:0:
161,101,41675,2,0,P|114:89|95:86,1,56,10|8,0:0|0:3,0:0:0:0:
28,79,42012,2,0,L|56:202,1,112,6|10,0:3|0:0,0:0:0:0:
30,343,42686,6,0,P|92:311|140:335,1,112,2|10,3:2|0:0,0:0:0:0:
200,354,43192,2,0,B|243:365|243:365|317:342,1,112,10|2,0:3|3:2,0:0:0:0:
369,297,43697,2,0,L|443:307,1,56,10|2,0:0|3:2,0:0:0:0:
502,314,44034,5,2,3:2:0:0:
512,161,44371,1,8,0:0:0:0:
512,161,44540,1,8,0:3:0:0:
388,73,44877,1,0,3:2:0:0:
388,73,45045,2,0,L|315:87,1,56,8|0,0:0|0:0,0:0:0:0:
241,91,45383,6,0,P|224:56|203:23,2,70,6|2|10,3:2|0:0|0:0,0:0:0:0:
294,164,45888,2,0,P|253:227|220:296,1,140,6|2,3:2|3:2,0:0:0:0:
256,371,46394,1,10,0:0:0:0:
165,380,46562,2,0,L|24:368,1,140,6|2,3:2|3:2,0:0:0:0:
0,280,47068,1,10,0:0:0:0:
70,223,47236,2,0,P|99:167|60:104,1,140,6|0,3:2|3:2,0:0:0:0:
10,31,47742,1,8,0:0:0:0:
193,44,48079,6,0,L|273:31,1,70,2|2,3:2|3:2,0:0:0:0:
336,85,48416,2,0,L|416:72,1,70,10|10,0:0|3:2,0:0:0:0:
472,135,48753,2,0,L|459:215,1,70,10|10,0:0|3:2,0:0:0:0:
425,288,49090,1,10,0:0:0:0:
339,257,49259,6,0,B|305:240|272:257|272:257|239:273|205:257,1,140,6|2,3:2|3:2,0:0:0:0:
123,299,49765,2,0,L|129:368,1,70,10|2,0:0|3:2,0:0:0:0:
38,374,50102,2,0,L|31:304,1,70,10|2,0:0|3:2,0:0:0:0:
69,221,50439,1,10,0:0:0:0:
23,142,50607,6,0,P|10:72|77:32,1,140,6|2,3:2|3:2,0:0:0:0:
149,31,51113,1,2,3:2:0:0:
254,349,52124,6,0,L|262:195,1,154.000004699707,6|10,3:2|0:0,0:0:0:0:
332,124,52630,2,0,L|327:31,1,77.0000023498536,2|0,0:0|3:2,0:0:0:0:
235,9,52967,2,0,P|197:27|149:32,1,77.0000023498536,2|8,0:0|0:0,0:0:0:0:
91,103,53304,1,10,0:0:0:0:
136,192,53472,6,0,L|53:213,2,77.0000023498536,2|2|10,3:2|0:0|0:0,0:0:0:0:
206,262,53978,2,0,L|185:345,1,77.0000023498536,2|0,0:0|3:2,0:0:0:0:
278,377,54315,2,0,P|315:361|358:357,1,77.0000023498536,2|8,0:0|0:0,0:0:0:0:
451,366,54652,1,2,0:0:0:0:
494,250,54821,6,0,B|513:204|513:204|484:97,1,154.000004699707,2|10,3:2|0:0,0:0:0:0:
401,49,55326,2,0,L|305:31,1,77.0000023498536,2|0,0:0|3:2,0:0:0:0:
244,94,55663,2,0,L|148:76,1,77.0000023498536,2|8,0:0|0:0,0:0:0:0:
78,125,56001,6,0,P|130:195|95:271,1,154.000004699707,2|2,0:0|0:0,0:0:0:0:
174,332,56506,1,10,0:0:0:0:
257,275,56675,2,0,L|410:246,1,154.000004699707,2|2,0:0|0:0,0:0:0:0:
473,170,57180,1,10,0:0:0:0:
429,79,57349,1,10,0:0:0:0:
417,67,57433,1,8,0:0:0:0:
405,55,57517,6,0,B|321:34|342:96|259:75,1,154.000004699707,6|10,3:2|0:0,0:0:0:0:
163,41,58023,2,0,L|181:134,1,77.0000023498536,2|0,0:0|3:2,0:0:0:0:
128,204,58360,2,0,L|110:297,1,77.0000023498536,2|8,0:0|0:0,0:0:0:0:
184,350,58697,1,10,0:0:0:0:
254,279,58866,6,0,P|249:240|233:206,2,77.0000023498536,2|2|10,3:2|0:0|0:0,0:0:0:0:
331,342,59371,2,0,L|431:329,1,77.0000023498536,2|0,0:0|3:2,0:0:0:0:
465,250,59708,2,0,L|365:237,1,77.0000023498536,2|8,0:0|0:0,0:0:0:0:
326,161,60045,1,2,0:0:0:0:
396,89,60214,6,0,P|375:14|304:9,1,154.000004699707,2|10,3:2|0:0,0:0:0:0:
219,53,60720,2,0,L|48:34,1,154.000004699707,2|2,0:0|0:0,0:0:0:0:
6,116,61225,1,10,0:0:0:0:
106,188,61394,6,0,B|130:243|130:243|90:352,1,154.000004699707,6|2,3:2|3:2,0:0:0:0:
189,374,61899,1,10,0:0:0:0:
241,262,62068,2,0,P|298:239|369:298,1,154.000004699707,6|10,3:2|0:0,0:0:0:0:
452,343,62574,1,10,0:0:0:0:
464,331,62658,1,8,0:0:0:0:
476,319,62742,2,0,L|464:268,1,38.5000011749268,10|8,0:0|0:0,0:0:0:0:
364,212,62911,6,0,L|383:127,2,77.0000023498536,6|2|10,3:2|0:0|0:0,0:0:0:0:
357,310,63416,2,0,L|272:329,1,77.0000023498536,2|0,0:0|3:2,0:0:0:0:
192,373,63753,2,0,L|107:353,1,77.0000023498536,2|8,0:0|0:0,0:0:0:0:
42,289,64090,1,10,0:0:0:0:
103,209,64259,6,0,P|139:124|108:55,1,154.000004699707,2|10,3:2|0:0,0:0:0:0:
205,17,64765,2,0,P|242:29|285:33,1,77.0000023498536,2|0,0:0|3:2,0:0:0:0:
351,104,65102,2,0,P|387:92|430:88,1,77.0000023498536,2|8,0:0|0:0,0:0:0:0:
500,155,65439,1,2,0:0:0:0:
437,260,65607,6,0,L|452:339,1,77.0000023498536,2|0,3:2|0:0,0:0:0:0:
351,346,65944,2,0,L|336:270,1,77.0000023498536,10|0,0:0|0:0,0:0:0:0:
266,198,66281,1,2,3:2:0:0:
207,279,66450,2,0,P|166:285|121:271,1,77.0000023498536,2|8,0:0|0:0,0:0:0:0:
54,340,66787,6,0,B|18:308|18:308|28:185,1,154.000004699707,2|2,0:0|0:0,0:0:0:0:
1,105,67293,1,10,0:0:0:0:
91,62,67461,2,0,B|174:41|153:103|236:82,1,154.000004699707,2|8,0:0|0:0,0:0:0:0:
320,26,67967,1,10,0:0:0:0:
405,77,68135,1,8,0:0:0:0:
417,89,68220,1,8,0:0:0:0:
429,101,68304,6,0,L|420:198,1,77.0000023498536,6|0,3:2|0:0,0:0:0:0:
482,257,68641,2,0,L|473:354,1,77.0000023498536,10|0,0:0|0:0,0:0:0:0:
385,378,68978,1,10,0:0:0:0:
303,319,69147,2,0,P|265:309|227:313,1,77.0000023498536,2|10,3:2|0:0,0:0:0:0:
134,350,69484,6,0,P|153:275|144:199,1,154.000004699707,2|2,3:2|3:2,0:0:0:0:
58,149,69989,1,10,0:0:0:0:
118,69,70158,2,0,L|290:47,1,154.000004699707,2|2,3:2|3:2,0:0:0:0:
345,115,70663,1,10,0:0:0:0:
443,93,70832,1,2,3:2:0:0:
455,192,71001,6,0,P|490:270|457:332,1,154.000004699707,12|2,0:0|3:2,0:0:0:0:
363,334,71506,2,0,B|306:315|306:315|199:353,1,154.000004699707,14|2,0:0|3:2,0:0:0:0:
125,306,72012,2,0,P|142:272|142:234,1,77.0000023498536,14|2,0:0|3:2,0:0:0:0:
118,136,72349,1,8,0:0:0:0:
118,136,72517,1,8,0:0:0:0:
27,93,72686,1,8,0:0:0:0:
247,88,73697,6,0,L|400:68,1,154.000004699707,6|10,3:2|0:0,0:0:0:0:
497,44,74203,1,2,3:2:0:0:
508,243,74540,1,2,3:2:0:0:
332,339,74877,2,0,B|206:370|238:276|112:308,1,231.000007049561,6|0,3:2|0:0,0:0:0:0:
69,111,75720,2,0,P|57:67|31:26,2,77.0000023498536,10|10|6,0:0|0:3|0:3,0:0:0:0:
133,175,76225,6,0,P|97:234|79:302,1,140,4|0,3:2|0:0,0:0:0:0:
152,357,76731,1,10,0:0:0:0:
224,302,76899,2,0,L|316:313,1,70,2|0,0:0|3:2,0:0:0:0:
365,254,77236,2,0,L|376:162,1,70,2|8,0:0|0:0,0:0:0:0:
438,119,77574,6,0,B|396:90|396:90|307:101,1,140,2|2,0:0|0:0,0:0:0:0:
234,47,78079,1,8,0:0:0:0:
158,98,78248,2,0,P|128:165|173:226,1,140,2|2,0:0|0:0,0:0:0:0:
89,276,78753,2,0,L|12:286,1,70,10|2,0:0|0:0,0:0:0:0:
60,366,79090,6,0,L|129:356,1,70,10|10,3:3|0:0,0:0:0:0:
141,368,79343,1,8,0:0:0:0:
153,380,79428,1,10,0:0:0:0:
226,327,79596,1,2,3:3:0:0:
406,350,79933,1,2,3:3:0:0:
452,174,80270,1,6,3:2:0:0:
256,192,80354,12,0,81703,0:0:0:0:
