osu file format v14

[General]
AudioFilename: audio.mp3
AudioLeadIn: 0
PreviewTime: 48611
Countdown: 0
SampleSet: Normal
StackLeniency: 0.7
Mode: 1
LetterboxInBreaks: 0
WidescreenStoryboard: 0

[Editor]
DistanceSpacing: 0.3
BeatDivisor: 4
GridSize: 32
TimelineZoom: 1

[Metadata]
Title:Summer Boy
TitleUnicode:サマーボーイ
Artist:Nakagawa Kanon (CV: Toyama Nao)
ArtistUnicode:中川かのん (CV: 東山奈央)
Creator:Jaltzu
Version:Oni
Source:神のみぞ知るセカイ 4人とアイドル
Tags:anime japanese touyama colors character song natsuiro surprise kami nomi zo shiru sekai the world god only knows cut short version kaminomi 夏色サプライズ yonin to idol
BeatmapID:1319062
BeatmapSetID:625749

[Difficulty]
HPDrainRate:5
CircleSize:2
OverallDifficulty:6
ApproachRate:0
SliderMultiplier:1.4
SliderTickRate:1

[Events]
//Background and Video events
0,0,"BG.jpg",0,60
//Break Periods
//Storyboard Layer 0 (Background)
//Storyboard Layer 1 (Fail)
//Storyboard Layer 2 (Pass)
//Storyboard Layer 3 (Foreground)
//Storyboard Layer 4 (Overlay)
//Storyboard Sound Samples

[TimingPoints]
3911,400,4,1,0,60,1,0
4311,-100,4,1,0,65,0,0
4711,-100,4,1,0,70,0,0
5111,-100,4,1,0,75,0,0
5511,-100,4,1,0,80,0,0
15111,-100,4,1,0,70,0,0
16711,-100,4,1,0,60,0,0
18311,-100,4,1,0,70,0,0
19911,-100,4,1,0,60,0,0
21511,-100,4,1,0,70,0,0
47311,-100,4,1,0,50,0,0
48311,-100,4,1,0,70,0,0
48711,-100,4,1,0,80,0,1
73111,-100,4,1,0,60,0,0
75911,-100,4,1,0,70,0,0
77511,-100,4,1,0,80,0,0
87111,-100,4,1,0,70,0,0
93711,-100,4,1,0,60,0,0
94311,-100,4,1,0,55,0,0
95111,-100,4,1,0,50,0,0
95911,-100,4,1,0,45,0,0
96711,-100,4,1,0,40,0,0
97511,-100,4,1,0,35,0,0
98311,-100,4,1,0,30,0,0
99111,-100,4,1,0,25,0,0
99911,-100,4,1,0,20,0,0
100711,-100,4,1,0,15,0,0

[HitObjects]
256,192,4177,5,0,0:0:0:0:
256,192,4444,1,0,0:0:0:0:
256,192,4711,1,8,0:0:0:0:
256,192,4977,1,0,0:0:0:0:
256,192,5244,1,0,0:0:0:0:
256,192,5511,1,12,0:0:0:0:
256,192,5911,1,8,0:0:0:0:
256,192,6111,1,8,0:0:0:0:
256,192,6211,1,0,0:0:0:0:
256,192,6311,1,8,0:0:0:0:
256,192,6511,1,0,0:0:0:0:
256,192,6711,1,0,0:0:0:0:
256,192,6911,1,8,0:0:0:0:
256,192,7511,1,8,0:0:0:0:
256,192,7711,1,8,0:0:0:0:
256,192,7811,1,0,0:0:0:0:
256,192,7911,1,8,0:0:0:0:
256,192,8111,1,0,0:0:0:0:
256,192,8177,1,0,0:0:0:0:
256,192,8244,1,0,0:0:0:0:
256,192,8311,1,8,0:0:0:0:
256,192,8511,1,0,0:0:0:0:
256,192,8711,1,0,0:0:0:0:
256,192,9111,1,8,0:0:0:0:
256,192,9311,1,0,0:0:0:0:
256,192,9411,1,8,0:0:0:0:
256,192,9511,1,0,0:0:0:0:
256,192,9711,1,8,0:0:0:0:
256,192,9911,1,0,0:0:0:0:
256,192,10111,1,8,0:0:0:0:
256,192,10711,1,8,0:0:0:0:
256,192,10911,1,8,0:0:0:0:
256,192,11011,1,8,0:0:0:0:
256,192,11111,1,0,0:0:0:0:
256,192,11311,1,0,0:0:0:0:
256,192,11511,1,8,0:0:0:0:
256,192,11711,1,8,0:0:0:0:
256,192,11911,1,0,0:0:0:0:
256,192,12311,1,8,0:0:0:0:
256,192,12511,1,8,0:0:0:0:
256,192,12611,1,0,0:0:0:0:
256,192,12711,1,8,0:0:0:0:
256,192,12911,1,0,0:0:0:0:
256,192,13111,1,8,0:0:0:0:
256,192,13311,1,8,0:0:0:0:
256,192,13511,1,0,0:0:0:0:
256,192,13911,1,8,0:0:0:0:
256,192,14111,1,8,0:0:0:0:
256,192,14211,1,0,0:0:0:0:
256,192,14311,1,0,0:0:0:0:
256,192,14511,1,0,0:0:0:0:
256,192,14711,1,8,0:0:0:0:
256,192,15111,1,12,0:0:0:0:
256,192,15311,1,4,0:0:0:0:
256,192,15711,1,12,0:0:0:0:
256,192,15911,1,4,0:0:0:0:
256,192,16311,1,12,0:0:0:0:
256,192,16511,1,4,0:0:0:0:
256,192,16911,1,0,0:0:0:0:
256,192,17111,1,8,0:0:0:0:
256,192,17311,1,0,0:0:0:0:
256,192,17511,1,0,0:0:0:0:
256,192,17611,1,0,0:0:0:0:
256,192,17711,1,8,0:0:0:0:
256,192,17911,1,8,0:0:0:0:
256,192,18011,1,8,0:0:0:0:
256,192,18111,1,0,0:0:0:0:
256,192,18311,1,12,0:0:0:0:
256,192,18511,1,4,0:0:0:0:
256,192,18911,1,12,0:0:0:0:
256,192,19111,1,4,0:0:0:0:
256,192,19511,1,12,0:0:0:0:
256,192,19711,1,4,0:0:0:0:
256,192,20111,1,0,0:0:0:0:
256,192,20311,1,8,0:0:0:0:
256,192,20511,1,0,0:0:0:0:
256,192,20711,1,0,0:0:0:0:
256,192,20911,1,8,0:0:0:0:
256,192,21511,1,4,0:0:0:0:
256,192,21711,1,8,0:0:0:0:
256,192,22111,1,8,0:0:0:0:
256,192,22211,1,0,0:0:0:0:
256,192,22311,1,0,0:0:0:0:
256,192,22511,1,0,0:0:0:0:
256,192,22711,1,8,0:0:0:0:
256,192,22911,1,8,0:0:0:0:
256,192,23111,1,0,0:0:0:0:
256,192,23511,1,8,0:0:0:0:
256,192,23711,1,0,0:0:0:0:
256,192,23811,1,0,0:0:0:0:
256,192,23911,1,0,0:0:0:0:
256,192,24011,1,0,0:0:0:0:
256,192,24111,1,8,0:0:0:0:
256,192,24311,1,8,0:0:0:0:
256,192,24511,1,8,0:0:0:0:
256,192,24611,1,8,0:0:0:0:
256,192,24711,1,0,0:0:0:0:
256,192,25111,1,8,0:0:0:0:
256,192,25311,1,0,0:0:0:0:
256,192,25411,1,0,0:0:0:0:
256,192,25511,1,0,0:0:0:0:
256,192,25711,1,0,0:0:0:0:
256,192,25911,1,8,0:0:0:0:
256,192,26111,1,0,0:0:0:0:
256,192,26311,1,0,0:0:0:0:
256,192,26511,1,0,0:0:0:0:
256,192,26711,1,8,0:0:0:0:
256,192,26911,1,0,0:0:0:0:
256,192,27011,1,0,0:0:0:0:
256,192,27111,1,0,0:0:0:0:
256,192,27211,1,8,0:0:0:0:
256,192,27311,1,0,0:0:0:0:
256,192,27511,1,8,0:0:0:0:
256,192,27711,1,0,0:0:0:0:
256,192,27811,1,8,0:0:0:0:
256,192,27911,1,0,0:0:0:0:
256,192,28111,1,8,0:0:0:0:
256,192,28511,1,8,0:0:0:0:
256,192,28611,1,0,0:0:0:0:
256,192,28711,1,0,0:0:0:0:
256,192,28911,1,0,0:0:0:0:
256,192,29111,1,8,0:0:0:0:
256,192,29311,1,8,0:0:0:0:
256,192,29511,1,0,0:0:0:0:
256,192,29911,1,8,0:0:0:0:
256,192,30111,1,0,0:0:0:0:
256,192,30211,1,8,0:0:0:0:
256,192,30311,1,0,0:0:0:0:
256,192,30411,1,8,0:0:0:0:
256,192,30511,1,8,0:0:0:0:
256,192,30711,1,8,0:0:0:0:
256,192,30911,1,8,0:0:0:0:
256,192,31011,1,0,0:0:0:0:
256,192,31111,1,0,0:0:0:0:
256,192,31511,1,8,0:0:0:0:
256,192,31711,1,0,0:0:0:0:
256,192,31811,1,0,0:0:0:0:
256,192,31911,1,0,0:0:0:0:
256,192,32111,1,0,0:0:0:0:
256,192,32311,1,8,0:0:0:0:
256,192,32511,1,8,0:0:0:0:
256,192,32711,1,0,0:0:0:0:
256,192,32911,1,0,0:0:0:0:
256,192,33111,1,0,0:0:0:0:
256,192,33311,1,12,0:0:0:0:
256,192,33911,1,8,0:0:0:0:
256,192,34311,1,4,0:0:0:0:
256,192,34711,1,8,0:0:0:0:
256,192,34911,1,0,0:0:0:0:
256,192,35011,1,0,0:0:0:0:
256,192,35111,1,0,0:0:0:0:
256,192,35311,1,0,0:0:0:0:
256,192,35511,1,8,0:0:0:0:
256,192,35711,1,8,0:0:0:0:
256,192,35911,1,0,0:0:0:0:
256,192,36311,1,8,0:0:0:0:
256,192,36511,1,0,0:0:0:0:
256,192,36611,1,8,0:0:0:0:
256,192,36711,1,0,0:0:0:0:
256,192,36911,1,0,0:0:0:0:
256,192,37111,1,8,0:0:0:0:
256,192,37511,1,0,0:0:0:0:
256,192,37711,1,0,0:0:0:0:
256,192,37911,1,8,0:0:0:0:
256,192,38111,1,0,0:0:0:0:
256,192,38211,1,0,0:0:0:0:
256,192,38311,1,0,0:0:0:0:
256,192,38511,1,0,0:0:0:0:
256,192,38711,1,8,0:0:0:0:
256,192,38911,1,8,0:0:0:0:
256,192,39111,1,0,0:0:0:0:
256,192,39511,1,8,0:0:0:0:
256,192,39711,1,8,0:0:0:0:
256,192,39811,1,8,0:0:0:0:
256,192,39911,1,0,0:0:0:0:
256,192,40111,1,0,0:0:0:0:
256,192,40311,1,8,0:0:0:0:
256,192,40511,1,8,0:0:0:0:
256,192,40611,1,8,0:0:0:0:
256,192,40711,1,0,0:0:0:0:
256,192,40911,1,0,0:0:0:0:
256,192,41111,1,8,0:0:0:0:
256,192,41311,1,0,0:0:0:0:
256,192,41411,1,8,0:0:0:0:
256,192,41511,1,0,0:0:0:0:
256,192,41711,1,0,0:0:0:0:
256,192,41911,1,8,0:0:0:0:
256,192,42111,1,0,0:0:0:0:
256,192,42311,1,12,0:0:0:0:
256,192,42711,1,0,0:0:0:0:
256,192,42911,1,12,0:0:0:0:
256,192,43311,1,8,0:0:0:0:
256,192,43511,1,8,0:0:0:0:
256,192,43711,1,8,0:0:0:0:
256,192,43911,1,4,0:0:0:0:
256,192,44311,1,8,0:0:0:0:
256,192,44511,1,8,0:0:0:0:
256,192,44611,1,0,0:0:0:0:
256,192,44711,1,0,0:0:0:0:
256,192,44911,1,0,0:0:0:0:
256,192,45111,1,8,0:0:0:0:
256,192,45511,1,0,0:0:0:0:
256,192,45911,1,12,0:0:0:0:
256,192,46711,1,12,0:0:0:0:
256,192,47111,1,4,0:0:0:0:
256,192,47311,1,8,0:0:0:0:
256,192,47511,1,8,0:0:0:0:
256,192,47711,1,8,0:0:0:0:
256,192,47911,1,0,0:0:0:0:
256,192,48111,1,0,0:0:0:0:
256,192,48177,1,0,0:0:0:0:
256,192,48244,1,0,0:0:0:0:
256,192,48311,1,8,0:0:0:0:
256,192,48711,1,12,0:0:0:0:
256,192,49111,1,8,0:0:0:0:
256,192,49311,1,8,0:0:0:0:
256,192,49411,1,0,0:0:0:0:
256,192,49511,1,8,0:0:0:0:
256,192,49711,1,0,0:0:0:0:
256,192,49911,1,8,0:0:0:0:
256,192,50111,1,0,0:0:0:0:
256,192,50211,1,0,0:0:0:0:
256,192,50311,1,0,0:0:0:0:
256,192,50511,1,8,0:0:0:0:
256,192,50711,1,8,0:0:0:0:
256,192,50911,1,8,0:0:0:0:
256,192,51011,1,0,0:0:0:0:
256,192,51111,1,0,0:0:0:0:
256,192,51211,1,0,0:0:0:0:
256,192,51311,1,0,0:0:0:0:
256,192,51511,1,8,0:0:0:0:
256,192,51711,1,8,0:0:0:0:
256,192,51911,1,0,0:0:0:0:
256,192,52311,1,12,0:0:0:0:
256,192,52511,1,8,0:0:0:0:
256,192,52611,1,8,0:0:0:0:
256,192,52711,1,0,0:0:0:0:
256,192,52911,1,0,0:0:0:0:
256,192,53111,1,12,0:0:0:0:
256,192,53511,1,0,0:0:0:0:
256,192,53711,1,0,0:0:0:0:
256,192,53811,1,0,0:0:0:0:
256,192,53911,1,8,0:0:0:0:
256,192,54111,1,0,0:0:0:0:
256,192,54311,1,0,0:0:0:0:
256,192,54511,1,12,0:0:0:0:
256,192,54711,1,4,0:0:0:0:
256,192,55111,1,12,0:0:0:0:
256,192,55511,1,8,0:0:0:0:
256,192,55711,1,8,0:0:0:0:
256,192,55811,1,8,0:0:0:0:
256,192,55911,1,0,0:0:0:0:
256,192,56111,1,0,0:0:0:0:
256,192,56311,1,8,0:0:0:0:
256,192,56511,1,0,0:0:0:0:
256,192,56611,1,8,0:0:0:0:
256,192,56711,1,0,0:0:0:0:
256,192,56911,1,8,0:0:0:0:
256,192,57111,1,0,0:0:0:0:
256,192,57311,1,8,0:0:0:0:
256,192,57411,1,0,0:0:0:0:
256,192,57511,1,0,0:0:0:0:
256,192,57611,1,0,0:0:0:0:
256,192,57711,1,8,0:0:0:0:
256,192,57911,1,8,0:0:0:0:
256,192,58111,1,0,0:0:0:0:
256,192,58311,1,0,0:0:0:0:
256,192,58711,1,12,0:0:0:0:
256,192,58911,1,8,0:0:0:0:
256,192,59011,1,8,0:0:0:0:
256,192,59111,1,0,0:0:0:0:
256,192,59311,1,0,0:0:0:0:
256,192,59511,1,12,0:0:0:0:
256,192,59911,1,0,0:0:0:0:
256,192,60111,1,0,0:0:0:0:
256,192,60311,1,8,0:0:0:0:
256,192,60511,1,0,0:0:0:0:
256,192,60611,1,0,0:0:0:0:
256,192,60711,1,8,0:0:0:0:
256,192,60811,1,0,0:0:0:0:
256,192,60911,1,0,0:0:0:0:
256,192,61011,1,0,0:0:0:0:
256,192,61111,1,8,0:0:0:0:
256,192,61511,1,12,0:0:0:0:
256,192,61711,1,0,0:0:0:0:
256,192,61911,1,8,0:0:0:0:
256,192,62111,1,8,0:0:0:0:
256,192,62211,1,8,0:0:0:0:
256,192,62311,1,0,0:0:0:0:
256,192,62511,1,0,0:0:0:0:
256,192,62711,1,8,0:0:0:0:
256,192,62911,1,8,0:0:0:0:
256,192,63111,1,0,0:0:0:0:
256,192,63511,1,8,0:0:0:0:
256,192,63711,1,8,0:0:0:0:
256,192,63911,1,0,0:0:0:0:
256,192,64011,1,0,0:0:0:0:
256,192,64111,1,0,0:0:0:0:
256,192,64311,1,8,0:0:0:0:
256,192,64711,1,4,0:0:0:0:
256,192,64911,1,0,0:0:0:0:
256,192,65111,1,8,0:0:0:0:
256,192,65311,1,8,0:0:0:0:
256,192,65411,1,8,0:0:0:0:
256,192,65511,1,0,0:0:0:0:
256,192,65711,1,0,0:0:0:0:
256,192,65911,1,8,0:0:0:0:
256,192,66111,1,4,0:0:0:0:
256,192,66511,1,0,0:0:0:0:
256,192,66711,1,12,0:0:0:0:
256,192,66911,1,8,0:0:0:0:
256,192,67111,1,0,0:0:0:0:
256,192,67211,1,0,0:0:0:0:
256,192,67311,1,0,0:0:0:0:
256,192,67511,1,8,0:0:0:0:
256,192,67711,1,8,0:0:0:0:
256,192,67811,1,8,0:0:0:0:
256,192,67911,1,0,0:0:0:0:
256,192,68311,1,8,0:0:0:0:
256,192,68511,1,8,0:0:0:0:
256,192,68611,1,0,0:0:0:0:
256,192,68711,1,0,0:0:0:0:
256,192,68911,1,0,0:0:0:0:
256,192,69111,1,8,0:0:0:0:
256,192,69311,1,8,0:0:0:0:
256,192,69511,1,4,0:0:0:0:
256,192,69711,1,8,0:0:0:0:
256,192,69911,1,0,0:0:0:0:
256,192,70111,1,12,0:0:0:0:
256,192,70511,1,8,0:0:0:0:
256,192,70711,1,8,0:0:0:0:
256,192,70911,1,0,0:0:0:0:
256,192,71111,1,4,0:0:0:0:
256,192,71511,1,0,0:0:0:0:
256,192,71711,1,8,0:0:0:0:
256,192,71911,1,0,0:0:0:0:
256,192,72111,1,0,0:0:0:0:
256,192,72311,1,8,0:0:0:0:
256,192,72511,1,4,0:0:0:0:
256,192,72911,1,4,0:0:0:0:
256,192,73111,1,12,0:0:0:0:
256,192,73511,1,8,0:0:0:0:
256,192,73711,1,0,0:0:0:0:
256,192,73911,1,0,0:0:0:0:
256,192,74111,1,8,0:0:0:0:
256,192,74311,1,8,0:0:0:0:
256,192,74911,1,0,0:0:0:0:
256,192,75511,1,8,0:0:0:0:
256,192,75911,1,4,0:0:0:0:
256,192,76111,1,4,0:0:0:0:
256,192,77311,1,0,0:0:0:0:
256,192,77411,1,0,0:0:0:0:
256,192,77511,1,8,0:0:0:0:
256,192,77911,1,8,0:0:0:0:
256,192,78111,1,8,0:0:0:0:
256,192,78211,1,0,0:0:0:0:
256,192,78311,1,8,0:0:0:0:
256,192,78511,1,0,0:0:0:0:
256,192,78711,1,0,0:0:0:0:
256,192,78911,1,8,0:0:0:0:
256,192,79511,1,8,0:0:0:0:
256,192,79711,1,8,0:0:0:0:
256,192,79811,1,0,0:0:0:0:
256,192,79911,1,8,0:0:0:0:
256,192,80111,1,0,0:0:0:0:
256,192,80178,1,0,0:0:0:0:
256,192,80245,1,0,0:0:0:0:
256,192,80311,1,8,0:0:0:0:
256,192,80511,1,0,0:0:0:0:
256,192,80711,1,0,0:0:0:0:
256,192,81111,1,8,0:0:0:0:
256,192,81311,1,0,0:0:0:0:
256,192,81411,1,8,0:0:0:0:
256,192,81511,1,0,0:0:0:0:
256,192,81711,1,8,0:0:0:0:
256,192,81911,1,0,0:0:0:0:
256,192,82111,1,8,0:0:0:0:
256,192,82711,1,8,0:0:0:0:
256,192,82911,1,8,0:0:0:0:
256,192,83011,1,8,0:0:0:0:
256,192,83111,1,0,0:0:0:0:
256,192,83311,1,8,0:0:0:0:
256,192,83511,1,8,0:0:0:0:
256,192,83711,1,0,0:0:0:0:
256,192,83911,1,8,0:0:0:0:
256,192,84311,1,8,0:0:0:0:
256,192,84511,1,8,0:0:0:0:
256,192,84611,1,0,0:0:0:0:
256,192,84711,1,8,0:0:0:0:
256,192,84911,1,0,0:0:0:0:
256,192,85111,1,8,0:0:0:0:
256,192,85311,1,8,0:0:0:0:
256,192,85911,1,0,0:0:0:0:
256,192,86111,1,8,0:0:0:0:
256,192,86211,1,0,0:0:0:0:
256,192,86311,1,0,0:0:0:0:
256,192,86511,1,0,0:0:0:0:
256,192,86711,1,8,0:0:0:0:
256,192,86911,1,0,0:0:0:0:
256,192,87111,1,12,0:0:0:0:
256,192,87311,1,4,0:0:0:0:
256,192,87711,1,12,0:0:0:0:
256,192,87911,1,4,0:0:0:0:
256,192,88311,1,12,0:0:0:0:
256,192,88511,1,4,0:0:0:0:
256,192,88911,1,8,0:0:0:0:
256,192,89111,1,8,0:0:0:0:
256,192,89311,1,0,0:0:0:0:
256,192,89511,1,0,0:0:0:0:
256,192,89611,1,0,0:0:0:0:
256,192,89711,1,8,0:0:0:0:
256,192,89911,1,8,0:0:0:0:
256,192,90011,1,8,0:0:0:0:
256,192,90111,1,0,0:0:0:0:
256,192,90311,1,12,0:0:0:0:
256,192,90511,1,4,0:0:0:0:
256,192,90911,1,12,0:0:0:0:
256,192,91111,1,4,0:0:0:0:
256,192,91511,1,12,0:0:0:0:
256,192,91911,1,4,0:0:0:0:
256,192,93511,1,4,0:0:0:0:
256,192,93711,12,0,101511,0:0:0:0:
