osu file format v14

[General]
AudioFilename: audio.mp3
AudioLeadIn: 2000
PreviewTime: 52381
Countdown: 0
SampleSet: Soft
StackLeniency: 0.7
Mode: 3
LetterboxInBreaks: 0
SpecialStyle: 0
WidescreenStoryboard: 1

[Editor]
Bookmarks: 530,13863,25715,37937,52381,64233,77567,83492,95344,107011,122011,147196,158863,172381,197567,209418
DistanceSpacing: 1.6
BeatDivisor: 4
GridSize: 4
TimelineZoom: 1

[Metadata]
Title:Happy Crescent
TitleUnicode:ハッピークレセント
Artist:Nakagawa Kanon (CV: Toyama Nao)
ArtistUnicode:中川かのん (CV: 東山奈央)
Creator:dudehacker
Version:Normal
Source:神のみぞ知るセカイ
Tags:The World God Only Knows kami nomi zo shiru sekai Anime Japanese Birth 1stコンサート2012 Ribbon Revolution 神のみキャラCD.3
BeatmapID:1834819
BeatmapSetID:877573

[Difficulty]
HPDrainRate:7
CircleSize:4
OverallDifficulty:7
ApproachRate:5
SliderMultiplier:1.4
SliderTickRate:1

[Events]
//Background and Video events
0,0,"67597623_p0.jpg",0,0
//Break Periods
//Storyboard Layer 0 (Background)
//Storyboard Layer 1 (Fail)
//Storyboard Layer 2 (Pass)
//Storyboard Layer 3 (Foreground)
//Storyboard Layer 4 (Overlay)
//Storyboard Sound Samples
Sample,31270,0,"LR_Snare Drum 3.wav",70
Sample,44974,0,"LR_Kick Drum Fast.wav",70
Sample,45159,0,"LR_Kick Drum Fast.wav",70
Sample,45344,0,"LR_Kick Drum Fast.wav",70
Sample,45529,0,"LR_CymbalG.wav",70
Sample,49418,0,"LR_Kick Drum Fast.wav",70
Sample,49789,0,"LR_Kick Drum Fast.wav",70
Sample,50159,0,"LR_Kick Drum Fast.wav",70
Sample,50344,0,"LR_Kick Drum Fast.wav",70
Sample,50529,0,"LR_Kick Drum Fast.wav",70
Sample,50900,0,"LR_Kick Drum Fast.wav",70
Sample,51085,0,"LR_Kick Drum Fast.wav",70
Sample,51270,0,"LR_Kick Drum Fast.wav",70
Sample,51455,0,"LR_Kick Drum Fast.wav",70
Sample,89233,0,"LR_CymbalG.wav",70
Sample,110159,0,"LR_CymbalG.wav",70
Sample,114604,0,"LR_Kick Drum Fast.wav",70
Sample,114789,0,"LR_Kick Drum Fast.wav",70
Sample,115159,0,"LR_CymbalG.wav",70
Sample,119048,0,"LR_Kick Drum Fast.wav",70
Sample,119418,0,"LR_Kick Drum Fast.wav",70
Sample,119789,0,"LR_Kick Drum Fast.wav",70
Sample,119974,0,"LR_Kick Drum Fast.wav",70
Sample,120159,0,"LR_Kick Drum Fast.wav",70
Sample,120529,0,"LR_Kick Drum Fast.wav",70
Sample,120715,0,"LR_Kick Drum Fast.wav",70
Sample,120900,0,"LR_Kick Drum Fast.wav",70
Sample,121085,0,"LR_Kick Drum Fast.wav",70
Sample,126270,0,"LR_CymbalG.wav",70
Sample,132196,0,"LR_CymbalG.wav",70
Sample,167937,0,"LR_Kick Drum Fast.wav",70
Sample,168307,0,"LR_Kick Drum Fast.wav",70
Sample,168678,0,"LR_Kick Drum Fast.wav",70
Sample,168863,0,"LR_Kick Drum Fast.wav",70
Sample,169048,0,"LR_Kick Drum Fast.wav",70
Sample,169418,0,"LR_Kick Drum Fast.wav",70
Sample,169604,0,"LR_Kick Drum Fast.wav",70
Sample,169789,0,"LR_Kick Drum Fast.wav",70
Sample,178307,0,"LR_CymbalG.wav",70

[TimingPoints]
530,370.37037037037,4,2,1,100,1,0
4789,-100,4,1,1,100,0,0
52196,-100,4,1,1,100,0,1
76641,-100,4,1,1,100,0,0
121826,-100,4,1,1,100,0,1
146270,-100,4,2,1,100,0,0
157567,-100,4,1,1,100,0,0
172196,-100,4,1,1,100,0,1
196641,-100,4,1,1,100,0,0

[HitObjects]
64,192,530,5,0,0:0:0:0:
192,192,715,1,0,0:0:0:0:
448,192,900,1,0,0:0:0:0:
192,192,1085,1,0,0:0:0:0:
320,192,1270,1,0,0:0:0:0:
64,192,1455,1,0,0:0:0:0:
320,192,1826,128,0,2196:0:0:0:0:
192,192,2196,1,0,0:0:0:0:
448,192,2381,1,0,0:0:0:0:
192,192,2567,1,0,0:0:0:0:
320,192,2752,1,0,0:0:0:0:
64,192,2937,1,0,0:0:0:0:
64,192,3307,128,0,3678:0:0:0:0:
192,192,3678,1,0,0:0:0:0:
448,192,3863,1,0,0:0:0:0:
192,192,4048,1,0,0:0:0:0:
320,192,4233,1,0,0:0:0:0:
64,192,4418,1,0,0:0:0:0:
192,192,4604,1,0,0:0:0:0:
320,192,4789,1,2,0:0:0:0:
448,192,4974,1,0,0:0:0:70:LR_Kick Drum Fast.wav
320,192,5159,1,0,0:0:0:70:LR_Kick Drum Fast.wav
192,192,5344,1,0,0:0:0:0:
64,192,5529,128,2,5715:0:0:0:0:
320,192,5900,128,2,6085:0:0:0:0:
64,192,6270,128,0,6641:0:0:0:70:LR_Clap kick.wav
448,192,6270,1,0,0:0:0:0:
192,192,6641,1,2,0:0:0:0:
448,192,6826,1,4,0:0:0:0:
192,192,7011,1,0,0:0:0:0:
320,192,7196,1,4,0:0:0:0:
64,192,7381,1,2,0:0:0:0:
320,192,7752,128,2,8122:0:0:0:0:
192,192,8122,1,2,0:0:0:0:
448,192,8307,1,4,0:0:0:0:
192,192,8492,1,2,0:0:0:0:
320,192,8678,1,4,0:0:0:0:
64,192,8863,1,2,0:0:0:0:
192,192,9048,1,4,0:0:0:0:
320,192,9233,1,0,0:0:0:0:
64,192,9418,1,2,0:0:0:0:
448,192,9418,1,0,0:0:0:70:LR_CymbalG.wav
320,192,9604,1,2,0:0:0:0:
192,192,9789,1,4,0:0:0:0:
64,192,9974,128,2,10344:0:0:0:0:
448,192,9974,1,0,0:0:0:70:LR_CymbalG.wav
192,192,10344,1,2,0:0:0:0:
320,192,10529,1,4,0:0:0:0:
64,192,10715,1,2,0:0:0:0:
448,192,10715,128,0,12381:0:0:0:70:LR_CymbalG.wav
192,192,11085,1,2,0:0:0:0:
320,192,11455,1,2,0:0:0:0:
192,192,11826,1,2,0:0:0:0:
320,192,12196,1,2,0:0:0:0:
64,192,12381,1,2,0:0:0:0:
192,192,12381,1,4,0:0:0:0:
64,192,12567,1,2,0:0:0:0:
192,192,12567,1,4,0:0:0:0:
320,192,12937,128,0,13863:0:0:0:0:
64,192,13863,1,2,0:0:0:0:
192,192,13863,1,0,0:0:0:70:LR_CymbalG.wav
320,192,14233,1,0,0:0:0:70:LR_Snare Drum 3.wav
448,192,14604,1,0,0:0:0:0:
64,192,14789,1,2,0:0:0:0:
192,192,14789,1,0,0:0:0:70:LR_Clap Fast Low.wav
64,192,14974,1,0,0:0:0:70:LR_Clap Fast Low.wav
192,192,14974,1,0,0:0:0:70:LR_Snare Drum 3.wav
448,192,15344,1,2,0:0:0:0:
448,192,15529,1,2,0:0:0:0:
192,192,15715,1,0,0:0:0:70:LR_Snare Drum 3.wav
320,192,15900,1,0,0:0:0:0:
64,192,16270,1,2,0:0:0:0:
448,192,16455,1,0,0:0:0:70:LR_Snare Drum 3.wav
320,192,16641,1,2,0:0:0:0:
320,192,16826,1,2,0:0:0:0:
192,192,17196,1,0,0:0:0:70:LR_Snare Drum 3.wav
64,192,17567,1,0,0:0:0:0:
320,192,17752,1,2,0:0:0:0:
448,192,17752,1,0,0:0:0:70:LR_Clap Fast Low.wav
320,192,17937,1,0,0:0:0:70:LR_Clap Fast Low.wav
448,192,17937,1,0,0:0:0:70:LR_Snare Drum 3.wav
64,192,18307,1,2,0:0:0:0:
64,192,18492,1,2,0:0:0:0:
320,192,18678,1,0,0:0:0:70:LR_Snare Drum 3.wav
448,192,18863,1,0,0:0:0:0:
192,192,19233,1,2,0:0:0:0:
320,192,19418,1,0,0:0:0:70:LR_Snare Drum 3.wav
64,192,19604,1,2,0:0:0:0:
448,192,19604,128,0,20159:0:0:0:70:LR_CymbalG.wav
192,192,20159,1,0,0:0:0:70:LR_Snare Drum 3.wav
320,192,20159,1,0,0:0:0:0:
192,192,20529,1,0,0:0:0:70:LR_Snare Drum 3.wav
320,192,20529,1,0,0:0:0:0:
192,192,20900,1,0,0:0:0:70:LR_Snare Drum 3.wav
320,192,20900,1,0,0:0:0:0:
64,192,21270,1,2,0:0:0:0:
448,192,21270,128,0,21455:0:0:0:70:LR_CymbalG.wav
192,192,21641,128,0,21826:0:0:0:70:LR_Snare Drum 3.wav
64,192,22011,128,0,22196:0:0:0:70:LR_Snare Drum 3.wav
192,192,22381,128,0,22567:0:0:0:70:LR_Snare Drum 3.wav
320,192,22752,128,2,23122:0:0:0:0:
448,192,22752,1,0,0:0:0:70:LR_CymbalG.wav
192,192,23307,1,2,0:0:0:0:
448,192,23492,128,0,24048:0:0:0:70:LR_Snare Drum 3.wav
64,192,24233,1,0,0:0:0:70:LR_Kick Drum Fast.wav
192,192,24418,1,0,0:0:0:70:LR_Kick Drum Fast.wav
320,192,24604,1,0,0:0:0:70:LR_Kick Drum Fast.wav
448,192,24789,1,0,0:0:0:70:LR_Kick Drum Fast.wav
64,192,25159,1,0,0:0:0:70:LR_Kick Drop Wet Fast.wav
192,192,25159,1,0,0:0:0:0:
64,192,25344,1,0,0:0:0:70:LR_Kick Drop Wet Fast.wav
192,192,25344,1,0,0:0:0:0:
192,192,25715,1,2,0:0:0:0:
448,192,25715,1,0,0:0:0:70:LR_CymbalG.wav
320,192,26085,1,0,0:0:0:70:LR_Snare Drum 3.wav
448,192,26455,1,0,0:0:0:0:
64,192,26641,1,2,0:0:0:0:
192,192,26641,1,0,0:0:0:70:LR_Clap Fast Low.wav
64,192,26826,1,4,0:0:0:0:
192,192,26826,1,0,0:0:0:70:LR_Clap Fast Low.wav
448,192,27196,1,2,0:0:0:0:
448,192,27381,1,2,0:0:0:0:
192,192,27567,1,0,0:0:0:70:LR_Snare Drum 3.wav
320,192,27752,128,0,28122:0:0:0:0:
64,192,28122,1,2,0:0:0:0:
192,192,28492,1,2,0:0:0:0:
192,192,28678,1,2,0:0:0:0:
448,192,29048,1,0,0:0:0:70:LR_Snare Drum 3.wav
64,192,29418,1,0,0:0:0:0:
320,192,29604,1,2,0:0:0:0:
448,192,29604,1,0,0:0:0:70:LR_Clap Fast Low.wav
320,192,29789,1,4,0:0:0:0:
448,192,29789,1,0,0:0:0:70:LR_Clap Fast Low.wav
64,192,30159,1,2,0:0:0:0:
64,192,30344,1,2,0:0:0:0:
320,192,30529,1,0,0:0:0:70:LR_Snare Drum 3.wav
448,192,30715,1,0,0:0:0:0:
192,192,31085,1,2,0:0:0:0:
320,192,31270,1,4,0:0:0:0:
64,192,31455,1,2,0:0:0:0:
448,192,31455,128,0,32011:0:0:0:70:LR_CymbalG.wav
192,192,32011,1,0,0:0:0:70:LR_Snare Drum 3.wav
320,192,32011,1,0,0:0:0:0:
192,192,32381,1,0,0:0:0:70:LR_Snare Drum 3.wav
320,192,32381,1,0,0:0:0:0:
192,192,32752,1,4,0:0:0:0:
320,192,32752,1,0,0:0:0:0:
64,192,33122,1,2,0:0:0:0:
448,192,33122,128,0,33307:0:0:0:70:LR_CymbalG.wav
320,192,33492,128,4,33678:0:0:0:0:
192,192,33863,128,0,34048:0:0:0:70:LR_Snare Drum 3.wav
320,192,34233,128,4,34418:0:0:0:0:
64,192,34604,1,2,0:0:0:0:
448,192,34604,128,0,34974:0:0:0:70:LR_CymbalG.wav
192,192,35159,1,0,0:0:0:70:LR_Kick Drum Fast.wav
320,192,35344,128,0,35900:0:0:0:0:
192,192,35529,1,0,0:0:0:70:LR_Kick Drum Fast.wav
64,192,35900,1,0,0:0:0:70:LR_Kick Drum Fast.wav
64,192,36270,1,0,0:0:0:70:LR_Kick Drum Fast.wav
64,192,36641,1,0,0:0:0:70:LR_Kick Drum Fast.wav
320,192,36826,1,0,0:0:0:70:LR_Kick Drum Fast.wav
192,192,37011,1,0,0:0:0:70:LR_Kick Drum Fast.wav
64,192,37381,1,0,0:0:0:70:LR_Kick Drum Fast.wav
448,192,37381,1,0,0:0:0:70:LR_CymbalG.wav
320,192,37937,1,2,0:0:0:0:
192,192,38307,1,4,0:0:0:0:
64,192,38678,1,0,0:0:0:0:
192,192,39048,1,0,0:0:0:0:
448,192,39233,1,2,0:0:0:0:
64,192,39418,1,2,0:0:0:0:
320,192,39604,128,0,40159:0:0:0:0:
64,192,40529,1,2,0:0:0:0:
448,192,40529,1,0,0:0:0:70:LR_CymbalG.wav
192,192,40715,1,2,0:0:0:0:
320,192,40900,1,4,0:0:0:0:
64,192,41085,1,2,0:0:0:0:
448,192,41085,128,0,41455:0:0:0:70:LR_CymbalG.wav
192,192,41455,1,2,0:0:0:0:
320,192,41641,1,4,0:0:0:0:
64,192,41826,1,2,0:0:0:0:
192,192,41826,128,0,42196:0:0:0:70:LR_CymbalG.wav
448,192,42567,1,2,0:0:0:0:
320,192,42752,1,0,0:0:0:0:
64,192,42937,1,2,0:0:0:0:
192,192,43122,1,6,0:0:0:0:
320,192,43307,1,2,0:0:0:0:
64,192,43492,1,4,0:0:0:0:
448,192,43492,1,0,0:0:0:70:LR_Kick Drum Fast.wav
64,192,44048,1,4,0:0:0:0:
192,192,44048,1,0,0:0:0:70:LR_Kick Drum Fast.wav
320,192,44233,1,4,0:0:0:0:
448,192,44233,1,0,0:0:0:70:LR_Kick Drum Fast.wav
64,192,44789,1,0,0:0:0:70:LR_Kick Drum Fast.wav
448,192,44974,1,4,0:0:0:0:
320,192,45159,1,4,0:0:0:0:
192,192,45344,1,4,0:0:0:0:
64,192,45529,1,0,0:0:0:70:LR_Kick Drum Fast.wav
192,192,45900,1,2,0:0:0:0:
320,192,46085,1,2,0:0:0:0:
64,192,46270,1,2,0:0:0:0:
448,192,46270,128,0,46826:0:0:0:70:LR_CymbalG.wav
64,192,46826,1,4,0:0:0:0:
320,192,46826,1,0,0:0:0:0:
192,192,47011,1,2,0:0:0:0:
64,192,47196,1,4,0:0:0:0:
448,192,47196,1,0,0:0:0:0:
320,192,47381,1,2,0:0:0:0:
64,192,47567,1,4,0:0:0:0:
448,192,47567,1,0,0:0:0:0:
192,192,47752,1,2,0:0:0:0:
64,192,47937,1,4,0:0:0:0:
448,192,47937,1,0,0:0:0:0:
64,192,48307,1,4,0:0:0:0:
448,192,48307,1,0,0:0:0:0:
192,192,48492,1,2,0:0:0:0:
64,192,48678,1,4,0:0:0:0:
448,192,48678,1,0,0:0:0:0:
320,192,48863,1,2,0:0:0:0:
64,192,49048,1,4,0:0:0:0:
448,192,49048,1,0,0:0:0:0:
192,192,49233,1,2,0:0:0:0:
64,192,49418,128,4,49604:0:0:0:0:
448,192,49789,128,4,49974:0:0:0:0:
192,192,50159,128,4,50344:0:0:0:0:
320,192,50344,128,4,50529:0:0:0:0:
448,192,50529,128,4,50715:0:0:0:0:
192,192,50900,128,4,51085:0:0:0:0:
64,192,51085,128,4,51270:0:0:0:0:
320,192,51270,128,4,51455:0:0:0:0:
448,192,51455,128,4,51641:0:0:0:0:
64,192,51826,1,0,0:0:0:70:laser.wav
64,192,52011,1,0,0:0:0:70:laser.wav
192,192,52381,1,2,0:0:0:0:
320,192,52381,1,0,0:0:0:70:LR_CymbalG.wav
448,192,52567,1,0,0:0:0:0:
192,192,52752,1,4,0:0:0:0:
448,192,52937,1,0,0:0:0:0:
192,192,53122,128,0,53307:0:0:0:0:
64,192,53492,1,4,0:0:0:0:
320,192,53678,128,2,54048:0:0:0:0:
64,192,54048,1,2,0:0:0:0:
448,192,54233,1,4,0:0:0:0:
320,192,54418,1,0,0:0:0:0:
192,192,54604,128,0,54974:0:0:0:0:
448,192,54974,1,4,0:0:0:0:
64,192,55344,1,2,0:0:0:0:
192,192,55529,1,0,0:0:0:0:
320,192,55715,1,4,0:0:0:0:
448,192,55900,1,0,0:0:0:0:
64,192,56085,1,0,0:0:0:0:
192,192,56455,1,4,0:0:0:0:
64,192,56641,1,2,0:0:0:0:
448,192,56641,128,0,57011:0:0:0:70:LR_CymbalG.wav
64,192,57011,1,2,0:0:0:0:
192,192,57196,1,4,0:0:0:0:
320,192,57381,1,0,0:0:0:0:
192,192,57567,1,0,0:0:0:70:LR_CymbalG.wav
448,192,57567,1,0,0:0:0:0:
64,192,57937,1,4,0:0:0:0:
448,192,58122,1,2,0:0:0:0:
192,192,58307,1,2,0:0:0:0:
320,192,58307,128,0,58492:0:0:0:70:LR_CymbalG.wav
64,192,58678,1,4,0:0:0:0:
192,192,58863,1,0,0:0:0:0:
320,192,59048,1,0,0:0:0:0:
448,192,59233,1,2,0:0:0:0:
192,192,59418,1,4,0:0:0:0:
64,192,59604,128,2,59974:0:0:0:0:
448,192,59974,1,2,0:0:0:0:
320,192,60159,1,4,0:0:0:0:
192,192,60344,1,0,0:0:0:0:
64,192,60529,1,0,0:0:0:0:
448,192,60900,1,4,0:0:0:0:
320,192,61085,1,2,0:0:0:0:
192,192,61270,1,2,0:0:0:0:
64,192,61641,1,0,0:0:0:70:LR_Snare Drum 3.wav
192,192,61826,1,2,0:0:0:0:
320,192,62011,1,0,0:0:0:70:LR_Snare Drum 3.wav
448,192,62381,1,0,0:0:0:70:LR_Snare Drum 3.wav
64,192,62567,1,2,0:0:0:0:
192,192,62567,128,0,62937:0:0:0:70:LR_CymbalG.wav
320,192,62937,1,2,0:0:0:0:
448,192,63122,1,0,0:0:0:70:LR_Snare Drum 3.wav
192,192,63307,1,2,0:0:0:0:
64,192,63492,1,0,0:0:0:70:LR_Snare Drum 3.wav
320,192,63678,1,0,0:0:0:70:laser.wav
320,192,63863,1,0,0:0:0:70:laser.wav
64,192,64233,1,2,0:0:0:0:
192,192,64233,1,0,0:0:0:70:LR_CymbalG.wav
448,192,64418,1,0,0:0:0:0:
192,192,64604,1,4,0:0:0:0:
448,192,64789,1,0,0:0:0:0:
192,192,64974,128,0,65159:0:0:0:0:
64,192,65344,1,4,0:0:0:0:
320,192,65529,128,2,65900:0:0:0:0:
64,192,65900,1,2,0:0:0:0:
448,192,66085,1,4,0:0:0:0:
320,192,66270,1,0,0:0:0:0:
192,192,66455,128,0,66826:0:0:0:0:
448,192,66826,1,4,0:0:0:0:
64,192,67196,1,2,0:0:0:0:
192,192,67381,1,0,0:0:0:0:
320,192,67567,1,4,0:0:0:0:
448,192,67752,1,0,0:0:0:0:
64,192,67937,1,0,0:0:0:0:
192,192,68307,1,4,0:0:0:0:
320,192,68492,1,2,0:0:0:0:
448,192,68492,128,0,68863:0:0:0:70:LR_CymbalG.wav
64,192,68863,1,2,0:0:0:0:
192,192,69048,1,4,0:0:0:0:
320,192,69233,1,0,0:0:0:0:
448,192,69418,1,2,0:0:0:0:
64,192,69604,1,2,0:0:0:0:
192,192,69974,1,2,0:0:0:0:
320,192,69974,128,0,70715:0:0:0:70:LR_Clap Long.wav
64,192,71085,1,2,0:0:0:0:
192,192,71270,1,0,0:0:0:0:
320,192,71455,1,2,0:0:0:0:
64,192,71641,1,0,0:0:0:70:LR_CymbalG.wav
448,192,71641,1,0,0:0:0:0:
320,192,71826,1,2,0:0:0:0:
192,192,72011,1,4,0:0:0:0:
64,192,72196,1,0,0:0:0:70:LR_CymbalG.wav
448,192,72196,1,0,0:0:0:0:
320,192,72752,1,4,0:0:0:0:
448,192,72937,1,2,0:0:0:0:
64,192,73122,1,2,0:0:0:0:
192,192,73122,1,0,0:0:0:70:LR_CymbalG.wav
320,192,73307,1,2,0:0:0:0:
448,192,73492,1,4,0:0:0:0:
64,192,73678,1,2,0:0:0:0:
192,192,73678,1,0,0:0:0:70:LR_CymbalG.wav
192,192,74048,1,2,0:0:0:0:
320,192,74233,1,4,0:0:0:0:
64,192,74418,1,2,0:0:0:0:
448,192,74418,128,0,74789:0:0:0:70:LR_CymbalG.wav
192,192,74789,1,2,0:0:0:0:
320,192,74974,1,4,0:0:0:0:
192,192,75344,1,4,0:0:0:0:
320,192,75529,1,2,0:0:0:0:
448,192,75715,1,4,0:0:0:0:
64,192,76085,1,4,0:0:0:0:
192,192,76085,1,0,0:0:0:70:LR_Kick Drum Fast.wav
64,192,76270,1,4,0:0:0:0:
192,192,76270,1,0,0:0:0:70:LR_Kick Drum Fast.wav
64,192,76455,1,4,0:0:0:0:
192,192,76455,1,0,0:0:0:70:LR_Kick Drum Fast.wav
64,192,77567,1,2,0:0:0:0:
320,192,77567,1,0,0:0:0:70:LR_CymbalG.wav
192,192,77752,1,0,0:0:0:0:
448,192,77937,1,4,0:0:0:0:
192,192,78122,1,2,0:0:0:0:
320,192,78307,1,4,0:0:0:0:
64,192,78492,1,2,0:0:0:0:
320,192,78863,128,2,79233:0:0:0:0:
192,192,79233,1,2,0:0:0:0:
448,192,79418,1,4,0:0:0:0:
192,192,79604,1,2,0:0:0:0:
320,192,79789,1,4,0:0:0:0:
64,192,79974,1,2,0:0:0:0:
192,192,80159,1,4,0:0:0:0:
320,192,80344,1,0,0:0:0:0:
64,192,80529,1,2,0:0:0:0:
448,192,80529,1,0,0:0:0:70:LR_CymbalG.wav
192,192,80715,1,2,0:0:0:0:
320,192,80900,1,4,0:0:0:0:
64,192,81085,128,2,81455:0:0:0:0:
448,192,81085,1,0,0:0:0:70:LR_CymbalG.wav
320,192,81455,1,2,0:0:0:0:
192,192,81641,1,4,0:0:0:0:
64,192,81826,1,2,0:0:0:0:
448,192,81826,128,0,82752:0:0:0:70:LR_CymbalG.wav
320,192,82196,1,2,0:0:0:0:
64,192,82381,1,4,0:0:0:0:
192,192,82752,1,2,0:0:0:0:
320,192,82752,1,4,0:0:0:0:
192,192,82937,1,2,0:0:0:0:
320,192,82937,1,4,0:0:0:0:
64,192,83492,1,0,0:0:0:70:LR_Kick Drum Fast.wav
192,192,83492,1,0,0:0:0:70:LR_CymbalG.wav
192,192,83863,1,0,0:0:0:70:LR_Kick Drum Fast.wav
320,192,83863,1,0,0:0:0:0:
320,192,84233,1,0,0:0:0:70:LR_Kick Drum Fast.wav
448,192,84233,1,0,0:0:0:0:
64,192,84418,1,0,0:0:0:70:LR_Clap Fast Low.wav
64,192,84604,1,0,0:0:0:70:LR_Clap Fast Low.wav
192,192,84974,1,0,0:0:0:70:LR_Kick Drum Fast.wav
320,192,84974,1,0,0:0:0:0:
192,192,85159,1,0,0:0:0:70:LR_Kick Drum Fast.wav
320,192,85159,1,0,0:0:0:0:
64,192,85529,1,0,0:0:0:70:LR_Kick Drum Fast.wav
192,192,85529,1,0,0:0:0:0:
320,192,85900,1,0,0:0:0:70:LR_Kick Drum Fast.wav
448,192,85900,1,0,0:0:0:0:
192,192,86085,1,0,0:0:0:0:
448,192,86270,1,2,0:0:0:0:
64,192,86455,1,0,0:0:0:70:LR_Kick Drum Fast.wav
192,192,86455,1,0,0:0:0:0:
192,192,86826,1,0,0:0:0:70:LR_Kick Drum Fast.wav
320,192,86826,1,0,0:0:0:0:
320,192,87196,1,0,0:0:0:70:LR_Kick Drum Fast.wav
448,192,87196,1,0,0:0:0:0:
64,192,87381,1,0,0:0:0:70:LR_Clap Fast Low.wav
64,192,87567,1,0,0:0:0:70:LR_Clap Fast Low.wav
192,192,87937,1,0,0:0:0:70:LR_Kick Drum Fast.wav
320,192,87937,1,0,0:0:0:0:
192,192,88122,1,0,0:0:0:70:LR_Kick Drum Fast.wav
320,192,88122,1,0,0:0:0:0:
64,192,88492,1,0,0:0:0:70:LR_Kick Drum Fast.wav
192,192,88492,1,0,0:0:0:0:
320,192,88863,1,2,0:0:0:0:
448,192,88863,1,0,0:0:0:70:LR_Kick Drum Fast.wav
192,192,89048,1,2,0:0:0:0:
64,192,89233,128,2,89974:0:0:0:0:
448,192,89604,1,2,0:0:0:0:
448,192,89974,1,2,0:0:0:0:
320,192,90344,1,0,0:0:0:0:
192,192,90529,1,0,0:0:0:0:
64,192,90715,1,2,0:0:0:0:
192,192,90900,1,0,0:0:0:70:LR_CymbalG.wav
448,192,90900,1,0,0:0:0:0:
320,192,91270,1,0,0:0:0:0:
192,192,91641,1,0,0:0:0:70:LR_Snare Drum 3.wav
64,192,92011,1,0,0:0:0:0:
320,192,92381,1,2,0:0:0:0:
448,192,92381,128,0,92752:0:0:0:70:LR_CymbalG.wav
192,192,92937,1,2,0:0:0:0:
64,192,93122,128,0,93678:0:0:0:0:
448,192,93863,1,0,0:0:0:70:LR_Kick Drum Fast.wav
320,192,94048,1,0,0:0:0:70:LR_Kick Drum Fast.wav
192,192,94233,1,0,0:0:0:70:LR_Kick Drum Fast.wav
64,192,94418,1,0,0:0:0:70:LR_Kick Drum Fast.wav
320,192,94789,1,0,0:0:0:70:LR_Kick Drop Wet Fast.wav
448,192,94789,1,0,0:0:0:0:
320,192,94974,1,0,0:0:0:70:LR_Kick Drop Wet Fast.wav
448,192,94974,1,0,0:0:0:0:
64,192,95344,1,2,0:0:0:0:
192,192,95344,1,0,0:0:0:70:LR_CymbalG.wav
320,192,95715,1,0,0:0:0:70:LR_Snare Drum 3.wav
448,192,96085,1,0,0:0:0:0:
64,192,96270,1,2,0:0:0:0:
192,192,96270,1,0,0:0:0:70:LR_Clap Fast Low.wav
64,192,96455,1,4,0:0:0:0:
192,192,96455,1,0,0:0:0:70:LR_Clap Fast Low.wav
320,192,96826,1,2,0:0:0:0:
320,192,97011,1,2,0:0:0:0:
192,192,97196,1,0,0:0:0:70:LR_Snare Drum 3.wav
64,192,97381,128,0,97752:0:0:0:0:
448,192,97752,1,2,0:0:0:0:
192,192,98122,1,2,0:0:0:0:
192,192,98307,1,2,0:0:0:0:
320,192,98678,1,0,0:0:0:70:LR_Snare Drum 3.wav
448,192,99048,1,0,0:0:0:0:
64,192,99233,1,2,0:0:0:0:
192,192,99233,1,0,0:0:0:70:LR_Clap Fast Low.wav
64,192,99418,1,4,0:0:0:0:
192,192,99418,1,0,0:0:0:70:LR_Clap Fast Low.wav
320,192,99789,1,2,0:0:0:0:
320,192,99974,1,2,0:0:0:0:
64,192,100159,1,0,0:0:0:70:LR_Snare Drum 3.wav
192,192,100344,1,0,0:0:0:0:
448,192,100715,1,2,0:0:0:0:
320,192,100900,1,4,0:0:0:0:
64,192,101085,128,2,101641:0:0:0:0:
192,192,101085,1,0,0:0:0:70:LR_CymbalG.wav
320,192,101641,1,0,0:0:0:70:LR_Snare Drum 3.wav
448,192,101641,1,0,0:0:0:0:
320,192,102011,1,0,0:0:0:70:LR_Snare Drum 3.wav
448,192,102011,1,0,0:0:0:0:
320,192,102381,1,4,0:0:0:0:
448,192,102381,1,0,0:0:0:0:
192,192,102567,1,2,0:0:0:0:
64,192,102752,1,2,0:0:0:0:
448,192,102752,1,0,0:0:0:70:LR_CymbalG.wav
320,192,103122,1,0,0:0:0:70:LR_Snare Drum 3.wav
192,192,103492,1,0,0:0:0:70:LR_Snare Drum 3.wav
64,192,103863,1,4,0:0:0:0:
192,192,104233,1,0,0:0:0:70:LR_CymbalG.wav
448,192,104233,128,0,104604:0:0:0:0:
192,192,104789,1,2,0:0:0:0:
64,192,104974,1,0,0:0:0:0:
320,192,105159,1,2,0:0:0:0:
448,192,105159,1,0,0:0:0:0:
320,192,105529,1,2,0:0:0:0:
448,192,105529,1,0,0:0:0:0:
320,192,105900,1,2,0:0:0:0:
448,192,105900,1,0,0:0:0:0:
320,192,106270,1,2,0:0:0:0:
448,192,106270,1,0,0:0:0:0:
64,192,106455,1,0,0:0:0:70:LR_Kick Drum Fast.wav
192,192,106641,1,0,0:0:0:70:LR_Kick Drum Fast.wav
64,192,107011,128,2,107567:0:0:0:0:
320,192,107011,1,0,0:0:0:70:LR_CymbalG.wav
448,192,107567,1,2,0:0:0:0:
320,192,107937,1,4,0:0:0:0:
192,192,108307,1,0,0:0:0:0:
64,192,108678,1,0,0:0:0:0:
320,192,108863,1,2,0:0:0:0:
192,192,109048,1,2,0:0:0:0:
448,192,109233,128,0,109789:0:0:0:0:
64,192,110159,1,2,0:0:0:0:
192,192,110344,1,2,0:0:0:0:
320,192,110529,1,4,0:0:0:0:
64,192,110715,1,2,0:0:0:0:
448,192,110715,128,0,111085:0:0:0:70:LR_CymbalG.wav
320,192,111085,1,2,0:0:0:0:
192,192,111270,1,4,0:0:0:0:
64,192,111455,128,2,111826:0:0:0:0:
448,192,111455,1,0,0:0:0:70:LR_CymbalG.wav
320,192,112196,1,2,0:0:0:0:
64,192,112381,1,0,0:0:0:0:
320,192,112567,1,2,0:0:0:0:
64,192,112752,1,6,0:0:0:0:
448,192,112937,1,2,0:0:0:0:
192,192,113122,1,2,0:0:0:0:
320,192,113122,1,4,0:0:0:0:
64,192,113678,1,4,0:0:0:0:
448,192,113678,1,0,0:0:0:70:LR_Kick Drum Fast.wav
192,192,113863,1,4,0:0:0:0:
320,192,113863,1,0,0:0:0:70:LR_Kick Drum Fast.wav
448,192,114418,1,0,0:0:0:70:LR_Kick Drum Fast.wav
192,192,114604,1,4,0:0:0:0:
64,192,114789,1,4,0:0:0:0:
320,192,114974,1,0,0:0:0:70:LR_Kick Drum Fast.wav
448,192,115159,1,0,0:0:0:70:LR_Kick Drum Fast.wav
192,192,115529,1,2,0:0:0:0:
320,192,115715,1,2,0:0:0:0:
64,192,115900,1,2,0:0:0:0:
448,192,115900,128,0,116455:0:0:0:70:LR_CymbalG.wav
64,192,116455,1,4,0:0:0:0:
320,192,116455,1,0,0:0:0:0:
192,192,116641,1,2,0:0:0:0:
64,192,116826,1,4,0:0:0:0:
448,192,116826,1,0,0:0:0:0:
320,192,117011,1,2,0:0:0:0:
64,192,117196,1,4,0:0:0:0:
448,192,117196,1,0,0:0:0:0:
192,192,117381,1,2,0:0:0:0:
64,192,117567,1,4,0:0:0:0:
448,192,117567,1,0,0:0:0:0:
64,192,117937,1,4,0:0:0:0:
448,192,117937,1,0,0:0:0:0:
320,192,118122,1,2,0:0:0:0:
64,192,118307,1,4,0:0:0:0:
448,192,118307,1,0,0:0:0:0:
192,192,118492,1,2,0:0:0:0:
64,192,118678,1,4,0:0:0:0:
448,192,118678,1,0,0:0:0:0:
320,192,118863,1,2,0:0:0:0:
64,192,119048,128,4,119233:0:0:0:0:
448,192,119418,128,4,119604:0:0:0:0:
192,192,119789,128,4,119974:0:0:0:0:
320,192,119974,128,4,120159:0:0:0:0:
448,192,120159,128,4,120344:0:0:0:0:
64,192,120529,128,4,120715:0:0:0:0:
192,192,120715,128,4,120900:0:0:0:0:
448,192,120900,128,4,121085:0:0:0:0:
320,192,121085,128,4,121270:0:0:0:0:
64,192,121455,1,0,0:0:0:70:laser.wav
64,192,121641,1,0,0:0:0:70:laser.wav
192,192,122011,1,2,0:0:0:0:
320,192,122011,1,0,0:0:0:70:LR_CymbalG.wav
448,192,122196,1,0,0:0:0:0:
192,192,122381,1,4,0:0:0:0:
448,192,122567,1,0,0:0:0:0:
192,192,122752,128,0,122937:0:0:0:0:
64,192,123122,1,4,0:0:0:0:
320,192,123307,128,2,123678:0:0:0:0:
64,192,123678,1,2,0:0:0:0:
448,192,123863,1,4,0:0:0:0:
192,192,124048,1,0,0:0:0:0:
448,192,124233,128,0,124604:0:0:0:0:
320,192,124604,1,4,0:0:0:0:
64,192,124974,1,2,0:0:0:0:
192,192,125159,1,0,0:0:0:0:
320,192,125344,1,4,0:0:0:0:
448,192,125529,1,0,0:0:0:0:
64,192,125715,1,0,0:0:0:0:
192,192,126085,1,4,0:0:0:0:
448,192,126270,128,2,126641:0:0:0:0:
64,192,126641,1,2,0:0:0:0:
320,192,126826,1,4,0:0:0:0:
448,192,127011,1,0,0:0:0:0:
64,192,127196,1,0,0:0:0:70:LR_CymbalG.wav
192,192,127196,1,0,0:0:0:0:
64,192,127567,1,4,0:0:0:0:
448,192,127752,1,2,0:0:0:0:
192,192,127937,1,2,0:0:0:0:
320,192,127937,128,0,128122:0:0:0:70:LR_CymbalG.wav
64,192,128307,1,4,0:0:0:0:
192,192,128492,1,0,0:0:0:0:
320,192,128678,1,0,0:0:0:0:
448,192,128863,1,2,0:0:0:0:
192,192,129048,1,4,0:0:0:0:
64,192,129233,1,2,0:0:0:0:
448,192,129604,1,2,0:0:0:0:
320,192,129789,1,4,0:0:0:0:
192,192,129974,1,0,0:0:0:0:
64,192,130159,1,0,0:0:0:0:
448,192,130529,1,4,0:0:0:0:
320,192,130715,1,2,0:0:0:0:
192,192,130900,1,2,0:0:0:0:
64,192,131270,1,0,0:0:0:70:LR_Snare Drum 3.wav
192,192,131455,1,2,0:0:0:0:
320,192,131641,1,0,0:0:0:70:LR_Snare Drum 3.wav
448,192,132011,1,0,0:0:0:70:LR_Snare Drum 3.wav
192,192,132196,128,2,132567:0:0:0:0:
320,192,132567,1,2,0:0:0:0:
448,192,132752,1,0,0:0:0:70:LR_Snare Drum 3.wav
192,192,132937,1,2,0:0:0:0:
64,192,133122,1,0,0:0:0:70:LR_Snare Drum 3.wav
320,192,133307,1,0,0:0:0:70:laser.wav
320,192,133492,1,0,0:0:0:70:laser.wav
64,192,133863,1,2,0:0:0:0:
192,192,133863,1,0,0:0:0:70:LR_CymbalG.wav
448,192,134048,1,0,0:0:0:0:
192,192,134233,1,4,0:0:0:0:
448,192,134418,1,0,0:0:0:0:
192,192,134604,128,0,134789:0:0:0:0:
64,192,134974,1,4,0:0:0:0:
320,192,135159,128,2,135529:0:0:0:0:
64,192,135529,1,2,0:0:0:0:
448,192,135715,1,4,0:0:0:0:
192,192,135900,1,0,0:0:0:0:
448,192,136085,128,0,136455:0:0:0:0:
320,192,136455,1,4,0:0:0:0:
64,192,136826,1,2,0:0:0:0:
192,192,137011,1,0,0:0:0:0:
320,192,137196,1,4,0:0:0:0:
448,192,137381,1,0,0:0:0:0:
64,192,137567,1,0,0:0:0:0:
192,192,137937,1,4,0:0:0:0:
320,192,138122,1,2,0:0:0:0:
448,192,138122,128,0,138492:0:0:0:70:LR_CymbalG.wav
64,192,138492,1,2,0:0:0:0:
192,192,138678,1,4,0:0:0:0:
320,192,138863,1,0,0:0:0:0:
448,192,139048,1,2,0:0:0:0:
64,192,139233,1,2,0:0:0:0:
192,192,139604,1,2,0:0:0:0:
320,192,139604,128,0,140344:0:0:0:70:LR_Clap Long.wav
64,192,140715,1,2,0:0:0:0:
192,192,140900,1,4,0:0:0:0:
320,192,141085,1,2,0:0:0:0:
64,192,141270,1,0,0:0:0:70:LR_CymbalG.wav
448,192,141270,1,0,0:0:0:0:
320,192,141455,1,2,0:0:0:0:
192,192,141641,1,4,0:0:0:0:
64,192,141826,1,0,0:0:0:70:LR_CymbalG.wav
448,192,141826,1,0,0:0:0:0:
192,192,142381,1,4,0:0:0:0:
448,192,142567,1,2,0:0:0:0:
64,192,142752,1,2,0:0:0:0:
320,192,142752,1,0,0:0:0:70:LR_CymbalG.wav
192,192,142937,1,2,0:0:0:0:
320,192,143122,1,4,0:0:0:0:
64,192,143307,1,2,0:0:0:0:
448,192,143307,1,0,0:0:0:70:LR_CymbalG.wav
192,192,143678,1,2,0:0:0:0:
320,192,143863,1,4,0:0:0:0:
64,192,144048,1,2,0:0:0:0:
448,192,144048,128,0,144418:0:0:0:70:LR_CymbalG.wav
192,192,144418,1,2,0:0:0:0:
320,192,144604,1,4,0:0:0:0:
192,192,144974,1,4,0:0:0:0:
320,192,145159,1,2,0:0:0:0:
448,192,145344,1,4,0:0:0:0:
64,192,145715,1,4,0:0:0:0:
192,192,145715,1,0,0:0:0:70:LR_Kick Drum Fast.wav
64,192,145900,1,4,0:0:0:0:
192,192,145900,1,0,0:0:0:70:LR_Kick Drum Fast.wav
64,192,146085,1,4,0:0:0:0:
192,192,146085,1,0,0:0:0:70:LR_Kick Drum Fast.wav
64,192,147196,1,0,0:0:0:0:
192,192,147381,1,0,0:0:0:0:
448,192,147567,1,0,0:0:0:0:
192,192,147752,1,0,0:0:0:0:
320,192,147937,1,0,0:0:0:0:
64,192,148122,1,0,0:0:0:0:
320,192,148492,128,0,148863:0:0:0:0:
192,192,148863,1,0,0:0:0:0:
448,192,149048,1,0,0:0:0:0:
192,192,149233,1,0,0:0:0:0:
320,192,149418,1,0,0:0:0:0:
64,192,149604,1,0,0:0:0:0:
64,192,149974,128,0,150344:0:0:0:0:
192,192,150344,1,0,0:0:0:0:
448,192,150529,1,0,0:0:0:0:
192,192,150715,1,0,0:0:0:0:
320,192,150900,1,0,0:0:0:0:
64,192,151085,1,0,0:0:0:0:
192,192,151270,1,0,0:0:0:0:
320,192,151455,1,0,0:0:0:0:
448,192,151641,1,0,0:0:0:0:
320,192,151826,1,0,0:0:0:0:
192,192,152011,1,0,0:0:0:0:
320,192,152196,1,0,0:0:0:0:
192,192,152567,1,0,0:0:0:0:
64,192,152937,128,0,153307:0:0:0:0:
192,192,153307,1,0,0:0:0:0:
448,192,153492,1,0,0:0:0:0:
192,192,153678,1,0,0:0:0:0:
320,192,153863,1,0,0:0:0:0:
64,192,154048,1,0,0:0:0:0:
320,192,154418,128,0,154789:0:0:0:0:
192,192,154789,1,0,0:0:0:0:
448,192,154974,1,0,0:0:0:0:
192,192,155159,1,0,0:0:0:0:
320,192,155344,1,0,0:0:0:0:
64,192,155529,1,0,0:0:0:0:
64,192,155900,128,0,156270:0:0:0:0:
192,192,156270,1,0,0:0:0:0:
448,192,156455,1,0,0:0:0:0:
192,192,156641,1,0,0:0:0:0:
320,192,156826,1,0,0:0:0:0:
64,192,157011,1,0,0:0:0:0:
192,192,157196,1,0,0:0:0:0:
448,192,157381,1,0,0:0:0:0:
64,192,157567,1,0,0:0:0:70:LR_Kick Drum Fast.wav
192,192,157567,1,0,0:0:0:70:LR_CymbalG.wav
320,192,157752,1,0,0:0:0:70:LR_Kick Drum Fast.wav
448,192,157752,1,0,0:0:0:0:
64,192,157937,1,0,0:0:0:70:LR_Snare Drum 3.wav
192,192,157937,1,0,0:0:0:0:
320,192,158122,1,0,0:0:0:70:LR_Kick Drum Fast.wav
448,192,158122,1,0,0:0:0:70:LR_CymbalG.wav
64,192,158492,1,2,0:0:0:0:
192,192,158678,1,0,0:0:0:70:LR_Snare Drum 3.wav
320,192,158863,1,2,0:0:0:0:
448,192,158863,128,0,159604:0:0:0:70:LR_CymbalG.wav
320,192,159604,1,0,0:0:0:0:
64,192,159789,1,0,0:0:0:0:
192,192,159974,1,2,0:0:0:0:
320,192,160159,1,4,0:0:0:0:
448,192,160344,128,2,161270:0:0:0:0:
64,192,161455,1,2,0:0:0:0:
320,192,161641,1,4,0:0:0:0:
192,192,161826,128,2,162196:0:0:0:0:
320,192,162196,1,2,0:0:0:0:
448,192,162381,1,4,0:0:0:0:
64,192,162567,1,0,0:0:0:0:
320,192,162752,1,0,0:0:0:0:
192,192,162937,1,2,0:0:0:0:
448,192,163122,1,4,0:0:0:0:
64,192,163307,1,2,0:0:0:0:
192,192,163307,1,0,0:0:0:0:
192,192,163678,1,2,0:0:0:0:
320,192,163678,1,0,0:0:0:0:
320,192,164048,1,2,0:0:0:0:
448,192,164048,1,0,0:0:0:0:
64,192,164418,1,2,0:0:0:0:
192,192,164418,1,0,0:0:0:70:LR_CymbalG.wav
320,192,164604,1,4,0:0:0:0:
192,192,164789,1,2,0:0:0:0:
448,192,164789,128,0,165159:0:0:0:70:LR_CymbalG.wav
64,192,165159,1,2,0:0:0:0:
320,192,165344,1,4,0:0:0:0:
192,192,165529,1,2,0:0:0:0:
448,192,165715,1,4,0:0:0:0:
64,192,165900,1,2,0:0:0:0:
320,192,166085,1,4,0:0:0:0:
192,192,166270,1,2,0:0:0:0:
448,192,166270,1,0,0:0:0:70:LR_CymbalG.wav
64,192,166455,1,4,0:0:0:0:
192,192,166641,1,0,0:0:0:0:
320,192,166826,1,4,0:0:0:0:
448,192,167011,128,2,167937:0:0:0:0:
64,192,167937,128,4,168122:0:0:0:0:
64,192,168307,128,4,168492:0:0:0:0:
64,192,168678,128,4,168863:0:0:0:0:
192,192,168863,128,4,169048:0:0:0:0:
320,192,169048,128,4,169233:0:0:0:0:
448,192,169418,128,4,169604:0:0:0:0:
192,192,169604,128,4,169789:0:0:0:0:
64,192,169789,128,4,169974:0:0:0:0:
320,192,169974,128,4,172381:0:0:0:0:
448,192,169974,128,0,172381:0:0:0:70:LR_Kick Drum Fast.wav
64,192,171826,1,0,0:0:0:70:laser.wav
64,192,172011,1,0,0:0:0:70:laser.wav
64,192,172381,1,0,0:0:0:70:LR_Kick Drum Fast.wav
192,192,172381,1,0,0:0:0:70:LR_CymbalG.wav
320,192,172567,1,0,0:0:0:70:LR_Kick Drum Fast.wav
448,192,172567,1,0,0:0:0:0:
64,192,172752,1,0,0:0:0:70:LR_Kick Drum Fast.wav
192,192,172752,1,0,0:0:0:0:
320,192,173307,1,0,0:0:0:70:LR_Kick Drum Fast.wav
448,192,173307,1,0,0:0:0:0:
64,192,173678,1,0,0:0:0:70:LR_Kick Drum Fast.wav
192,192,173678,1,0,0:0:0:0:
192,192,174048,1,0,0:0:0:70:LR_Kick Drum Fast.wav
320,192,174048,1,0,0:0:0:0:
64,192,174233,1,0,0:0:0:70:LR_Kick Drum Fast.wav
448,192,174233,1,0,0:0:0:0:
192,192,174789,1,0,0:0:0:70:LR_Kick Drum Fast.wav
320,192,174789,128,0,175159:0:0:0:0:
64,192,175344,1,0,0:0:0:70:LR_Kick Drum Fast.wav
192,192,175344,1,0,0:0:0:0:
320,192,175529,1,0,0:0:0:70:LR_Kick Drum Fast.wav
448,192,175529,1,0,0:0:0:0:
64,192,175715,1,0,0:0:0:70:LR_Kick Drum Fast.wav
192,192,175715,1,0,0:0:0:0:
192,192,176270,1,0,0:0:0:70:LR_Kick Drum Fast.wav
320,192,176270,1,0,0:0:0:0:
64,192,176641,1,0,0:0:0:70:LR_Kick Drum Fast.wav
448,192,176641,1,0,0:0:0:70:LR_CymbalG.wav
64,192,177011,1,0,0:0:0:70:LR_Kick Drum Fast.wav
448,192,177011,1,0,0:0:0:0:
192,192,177196,1,0,0:0:0:70:LR_Kick Drum Fast.wav
320,192,177196,1,0,0:0:0:0:
64,192,177567,1,0,0:0:0:70:LR_Kick Drum Fast.wav
192,192,177567,1,0,0:0:0:70:LR_CymbalG.wav
320,192,177752,1,0,0:0:0:70:LR_Kick Drum Fast.wav
448,192,177752,1,0,0:0:0:0:
320,192,177937,1,0,0:0:0:70:LR_Kick Drum Fast.wav
448,192,177937,1,0,0:0:0:0:
192,192,178122,1,0,0:0:0:0:
320,192,178307,128,2,178492:0:0:0:0:
64,192,178678,1,0,0:0:0:0:
192,192,178863,1,2,0:0:0:0:
320,192,179048,1,4,0:0:0:0:
448,192,179233,1,2,0:0:0:0:
192,192,179418,1,0,0:0:0:0:
64,192,179604,1,2,0:0:0:0:
448,192,179974,1,2,0:0:0:0:
320,192,180159,1,0,0:0:0:0:
192,192,180344,1,0,0:0:0:0:
64,192,180529,1,4,0:0:0:0:
448,192,180900,1,0,0:0:0:0:
320,192,181085,1,2,0:0:0:0:
192,192,181270,1,2,0:0:0:0:
64,192,181641,1,2,0:0:0:0:
192,192,181826,1,0,0:0:0:0:
320,192,182011,1,2,0:0:0:0:
448,192,182381,1,4,0:0:0:0:
64,192,182567,1,2,0:0:0:0:
192,192,182567,128,0,182937:0:0:0:70:LR_CymbalG.wav
320,192,182937,1,2,0:0:0:0:
448,192,183122,1,4,0:0:0:0:
192,192,183307,1,2,0:0:0:0:
64,192,183492,1,0,0:0:0:0:
320,192,183678,1,0,0:0:0:70:laser.wav
320,192,183863,1,0,0:0:0:70:laser.wav
64,192,184233,1,2,0:0:0:0:
192,192,184233,1,0,0:0:0:70:LR_CymbalG.wav
448,192,184418,1,0,0:0:0:0:
192,192,184604,1,4,0:0:0:0:
448,192,184789,1,0,0:0:0:0:
192,192,184974,128,0,185159:0:0:0:0:
64,192,185344,1,4,0:0:0:0:
320,192,185529,128,2,185900:0:0:0:0:
64,192,185900,1,2,0:0:0:0:
448,192,186085,1,4,0:0:0:0:
320,192,186270,1,0,0:0:0:0:
192,192,186455,128,0,186826:0:0:0:0:
448,192,186826,1,4,0:0:0:0:
64,192,187196,1,2,0:0:0:0:
192,192,187381,1,0,0:0:0:0:
320,192,187567,1,4,0:0:0:0:
448,192,187752,1,0,0:0:0:0:
64,192,187937,1,0,0:0:0:0:
192,192,188307,1,4,0:0:0:0:
320,192,188492,1,2,0:0:0:0:
448,192,188492,128,0,188863:0:0:0:70:LR_CymbalG.wav
64,192,188863,1,2,0:0:0:0:
192,192,189048,1,4,0:0:0:0:
320,192,189233,1,0,0:0:0:0:
448,192,189418,1,2,0:0:0:0:
64,192,189604,1,2,0:0:0:0:
192,192,189974,1,2,0:0:0:0:
320,192,189974,128,0,190715:0:0:0:70:LR_Clap Long.wav
64,192,191085,1,2,0:0:0:0:
192,192,191270,1,4,0:0:0:0:
320,192,191455,1,2,0:0:0:0:
64,192,191641,1,0,0:0:0:70:LR_CymbalG.wav
448,192,191641,1,0,0:0:0:0:
320,192,191826,1,2,0:0:0:0:
192,192,192011,1,4,0:0:0:0:
64,192,192196,1,0,0:0:0:70:LR_CymbalG.wav
448,192,192196,1,0,0:0:0:0:
320,192,192752,1,4,0:0:0:0:
448,192,192937,1,2,0:0:0:0:
64,192,193122,1,2,0:0:0:0:
192,192,193122,1,0,0:0:0:70:LR_CymbalG.wav
320,192,193307,1,2,0:0:0:0:
192,192,193492,1,4,0:0:0:0:
64,192,193678,1,2,0:0:0:0:
448,192,193678,1,0,0:0:0:70:LR_CymbalG.wav
192,192,194048,1,2,0:0:0:0:
320,192,194233,1,4,0:0:0:0:
64,192,194418,1,2,0:0:0:0:
448,192,194418,128,0,194789:0:0:0:70:LR_CymbalG.wav
192,192,194789,1,2,0:0:0:0:
320,192,194974,1,4,0:0:0:0:
192,192,195344,1,4,0:0:0:0:
320,192,195529,1,2,0:0:0:0:
448,192,195715,1,4,0:0:0:0:
64,192,196085,1,4,0:0:0:0:
192,192,196085,1,0,0:0:0:70:LR_Kick Drum Fast.wav
64,192,196270,1,4,0:0:0:0:
192,192,196270,1,0,0:0:0:70:LR_Kick Drum Fast.wav
64,192,196455,1,4,0:0:0:0:
192,192,196455,1,0,0:0:0:70:LR_Kick Drum Fast.wav
64,192,197567,1,2,0:0:0:0:
320,192,197567,1,0,0:0:0:70:LR_CymbalG.wav
192,192,197752,1,0,0:0:0:0:
448,192,197937,1,4,0:0:0:0:
192,192,198122,1,2,0:0:0:0:
320,192,198307,1,4,0:0:0:0:
64,192,198492,1,2,0:0:0:0:
320,192,198863,128,2,199233:0:0:0:0:
192,192,199233,1,2,0:0:0:0:
448,192,199418,1,4,0:0:0:0:
192,192,199604,1,2,0:0:0:0:
320,192,199789,1,4,0:0:0:0:
64,192,199974,1,2,0:0:0:0:
64,192,200344,128,2,200715:0:0:0:0:
192,192,200715,1,2,0:0:0:0:
448,192,200900,1,4,0:0:0:0:
192,192,201085,1,0,0:0:0:0:
320,192,201270,1,4,0:0:0:0:
64,192,201455,1,2,0:0:0:0:
192,192,201641,1,4,0:0:0:0:
320,192,201826,1,2,0:0:0:0:
64,192,202011,1,2,0:0:0:0:
448,192,202011,1,0,0:0:0:70:LR_CymbalG.wav
320,192,202196,1,2,0:0:0:0:
192,192,202381,1,0,0:0:0:70:LR_Snare Drum 3.wav
64,192,202567,1,2,0:0:0:0:
448,192,202567,1,0,0:0:0:70:LR_CymbalG.wav
320,192,202937,1,2,0:0:0:0:
64,192,203307,128,2,203678:0:0:0:0:
448,192,203307,1,0,0:0:0:70:LR_CymbalG.wav
192,192,203678,1,2,0:0:0:0:
448,192,203863,1,4,0:0:0:0:
192,192,204048,1,0,0:0:0:0:
320,192,204233,1,4,0:0:0:0:
64,192,204418,1,2,0:0:0:0:
320,192,204789,128,2,205159:0:0:0:0:
192,192,205159,1,2,0:0:0:0:
448,192,205344,1,4,0:0:0:0:
192,192,205529,1,2,0:0:0:0:
320,192,205715,1,4,0:0:0:0:
64,192,205900,1,2,0:0:0:0:
192,192,206085,1,4,0:0:0:0:
320,192,206270,1,2,0:0:0:0:
64,192,206455,1,0,0:0:0:70:LR_CymbalG.wav
448,192,206455,1,0,0:0:0:0:
320,192,206641,1,2,0:0:0:0:
192,192,206826,1,4,0:0:0:0:
64,192,207011,128,2,207381:0:0:0:0:
448,192,207011,1,0,0:0:0:70:LR_CymbalG.wav
320,192,207381,1,2,0:0:0:0:
192,192,207567,1,4,0:0:0:0:
320,192,207752,1,2,0:0:0:0:
448,192,207752,128,0,209418:0:0:0:70:LR_CymbalG.wav
64,192,208122,1,2,0:0:0:0:
64,192,208492,1,2,0:0:0:0:
64,192,208863,1,2,0:0:0:0:
64,192,209233,1,2,0:0:0:0:
192,192,209418,1,4,0:0:0:0:
320,192,209418,1,0,0:0:0:70:LR_Kick Drum Fast.wav
192,192,209604,1,4,0:0:0:0:
320,192,209604,1,0,0:0:0:70:LR_Kick Drum Fast.wav
64,192,209974,1,0,0:0:0:0:
192,192,210067,1,0,0:0:0:0:
320,192,210159,1,2,0:0:0:0:
64,192,210344,1,2,0:0:0:0:
320,192,210529,1,0,0:0:0:70:LR_Snare Drum 3.wav
448,192,210529,1,0,0:0:0:0:
64,192,210715,128,2,215344:0:0:0:0:
192,192,210715,128,0,215344:0:0:0:70:LR_CymbalG.wav
