osu file format v14

[General]
AudioFilename: audio.mp3
AudioLeadIn: 0
PreviewTime: 55141
Countdown: 0
SampleSet: Soft
StackLeniency: 0.7
Mode: 0
LetterboxInBreaks: 0
WidescreenStoryboard: 0

[Editor]
DistanceSpacing: 2
BeatDivisor: 4
GridSize: 16
TimelineZoom: 2.1

[Metadata]
Title:Ringo Ribbon
TitleUnicode:リンゴリボン
Artist:Nakagawa Kanon (CV: Touyama Nao), Suirenji Ruka (CV: Yamazaki Haruka)
ArtistUnicode:中川かのん (CV: 東山奈央), 水蓮寺ルカ (CV: 山崎はるか)
Creator:Sotarks
Version:Expert
Source:
Tags:神のみぞ知るセカイ Kami Nomi zo Shiru Sekai ハヤテのごとく! Hayate no Gotoku 中川かのん 水蓮寺ルカ short cut version female vocals japanese jpop j-pop anime akitoshi corinn -laura- reform kujinn intoon lami nikakis the combat butler the world god only knows pop
BeatmapID:1946377
BeatmapSetID:932213

[Difficulty]
HPDrainRate:5.2
CircleSize:3.8
OverallDifficulty:9
ApproachRate:9.2
SliderMultiplier:1.82
SliderTickRate:1

[Events]
//Background and Video events
0,0,"bg.jpg",0,0
//Break Periods
2,84404,90422
//Storyboard Layer 0 (Background)
//Storyboard Layer 1 (Fail)
//Storyboard Layer 2 (Pass)
//Storyboard Layer 3 (Foreground)
//Storyboard Sound Samples

[TimingPoints]
-341,340.909090909091,4,2,22,72,1,0
1022,-138.888888888889,4,2,22,72,0,0
2215,-108.695652173913,4,2,22,72,0,0
2897,-138.888888888889,4,2,22,72,0,0
4943,-108.695652173913,4,2,22,72,0,0
6477,-98.0392156862745,4,2,22,82,0,0
17386,-121.951219512195,4,2,22,72,0,0
20113,-108.695652173913,4,2,22,62,0,0
28295,-98.0392156862744,4,2,22,72,0,0
31022,-108.695652173913,4,2,22,62,0,0
39204,-98.0392156862745,4,2,22,72,0,0
41931,-121.951219512195,4,2,22,62,0,0
50113,-98.0392156862744,4,2,22,72,0,0
53011,-81.9672131147541,4,2,22,82,0,0
55227,-75.7575757575758,4,2,22,82,0,1
55568,-121.951219512195,4,2,22,82,0,0
55909,-89.2857142857143,4,2,22,92,0,1
65624,-89.2857142857143,4,2,22,82,0,0
66136,-75.7575757575758,4,2,22,92,0,1
66477,-121.951219512195,4,2,22,82,0,0
66818,-89.2857142857143,4,2,22,92,0,1
74999,-81.9672131147541,4,2,22,92,0,1
75340,-75.7575757575758,4,2,22,92,0,1
75681,-70.4225352112676,4,2,22,92,0,1
76022,-65.7894736842105,4,2,22,92,0,1
77045,-70.4225352112676,4,2,22,82,0,0
77386,-89.2857142857143,4,2,22,92,0,1
81477,-89.2857142857143,4,2,22,82,0,0
82159,-75.7575757575758,4,2,22,92,0,1
82840,-89.2857142857143,4,2,22,82,0,0
91022,-98.0392156862745,4,2,22,72,0,0
100397,-833.333333333333,4,2,22,82,0,0
100482,-833.333333333333,4,2,22,42,0,0
103295,-833.333333333333,4,2,22,22,0,0

[Colours]
Combo1 : 131,227,125
Combo2 : 255,21,21
Combo3 : 234,255,81
Combo4 : 211,98,255

[HitObjects]
228,58,1022,5,10,0:0:0:0:
259,292,1193,1,10,0:0:0:0:
341,154,1363,1,8,0:1:0:0:
181,231,1534,2,0,P|137:217|106:215,2,65.5200015996094,2|8|0,0:0|0:1|0:0,0:0:0:0:
331,349,2045,1,8,0:1:0:0:
394,60,2215,6,0,P|422:119|424:159,1,83.7199971895753,10|8,0:0|0:1,0:0:0:0:
181,231,2556,2,0,P|190:190|211:154,1,83.7199971895753,8|8,0:0|0:1,0:0:0:0:
379,214,2897,2,0,P|425:228|459:224,2,65.5200015996094,2|8|0,0:0|0:1|0:0,0:0:0:0:
311,134,3409,1,10,0:1:0:0:
311,134,3579,1,2,0:0:0:0:
208,325,3749,5,10,0:0:0:0:
140,84,3920,1,10,0:0:0:0:
87,284,4090,1,8,0:1:0:0:
241,209,4261,2,0,P|287:218|318:241,2,65.5200015996094,2|8|0,0:0|0:1|0:0,0:0:0:0:
98,251,4772,1,8,0:1:0:0:
258,64,4943,6,0,B|367:56|306:115|422:113,1,167.439994379151,14|10,0:0|1:3,0:0:0:0:
440,94,5369,1,8,1:3:0:0:
440,94,5454,1,10,1:3:0:0:
264,163,5624,1,6,1:3:0:0:
448,315,5795,1,10,0:0:0:0:
121,34,6136,1,12,0:3:0:0:
300,340,6477,6,0,P|321:252|359:211,1,139.230000849793,2|0,1:2|0:2,0:0:0:0:
387,201,6818,2,0,P|325:182|284:160,1,92.8200005665283,12|0,0:2|0:2,0:0:0:0:
114,259,7159,1,2,1:2:0:0:
114,259,7329,1,0,1:2:0:0:
302,68,7499,2,0,P|257:80|215:99,1,92.8200005665283,8|0,0:2|0:2,0:0:0:0:
58,32,7840,1,2,1:2:0:0:
58,32,8011,1,0,1:2:0:0:
214,198,8181,2,0,P|169:185|127:166,1,92.8200005665283,8|0,0:2|0:2,0:0:0:0:
17,306,8522,1,2,1:2:0:0:
17,306,8693,1,0,1:2:0:0:
127,69,8863,2,0,P|82:81|40:100,1,92.8200005665283,8|0,0:2|0:2,0:0:0:0:
255,311,9204,6,0,P|308:245|289:121,2,185.640001133057,2|8|0,1:2|0:2|1:2,0:0:0:0:
214,198,10056,1,0,1:2:0:0:
370,308,10227,1,8,0:2:0:0:
194,225,10397,1,2,0:2:0:0:
299,87,10568,1,2,1:2:0:0:
299,87,10738,1,0,1:2:0:0:
143,293,10909,1,8,0:2:0:0:
229,30,11079,2,0,P|253:109|274:216,1,185.640001133057,0|0,1:2|1:2,0:0:0:0:
57,339,11590,2,0,P|88:278|175:267,1,139.230000849793,10|0,0:2|0:2,0:0:0:0:
230,318,11931,6,0,P|311:298|396:296,1,139.230000849793,2|0,1:2|0:2,0:0:0:0:
388,326,12272,2,0,P|401:264|399:216,1,92.8200005665283,12|0,0:2|0:2,0:0:0:0:
296,84,12613,1,2,1:2:0:0:
296,84,12784,1,0,1:2:0:0:
498,253,12954,2,0,P|485:191|487:143,1,92.8200005665283,8|0,0:2|0:2,0:0:0:0:
303,262,13295,1,2,1:2:0:0:
303,262,13465,1,0,1:2:0:0:
386,31,13636,2,0,P|399:93|397:141,1,92.8200005665283,8|0,0:2|0:2,0:0:0:0:
458,281,13977,1,2,1:2:0:0:
458,281,14147,1,0,1:2:0:0:
296,84,14318,2,0,P|283:146|285:194,1,92.8200005665283,8|0,0:2|0:2,0:0:0:0:
112,330,14659,5,6,1:2:0:0:
189,120,14829,1,0,1:2:0:0:
285,347,14999,1,8,0:2:0:0:
83,169,15170,2,0,P|64:97|76:52,1,92.8200005665283,6|0,1:2|0:2,0:0:0:0:
242,240,15511,1,0,1:2:0:0:
57,194,15681,2,0,P|38:122|50:77,1,92.8200005665283,10|0,0:2|0:2,0:0:0:0:
279,38,16022,5,2,1:2:0:0:
154,267,16193,1,8,1:3:0:0:
359,115,16363,1,8,0:2:0:0:
426,323,16534,2,0,P|481:306|509:268,1,92.8200005665283,6|0,1:2|0:2,0:0:0:0:
361,139,16874,1,0,1:2:0:0:
428,347,17045,2,0,P|483:330|511:292,1,92.8200005665283,10|0,0:2|0:2,0:0:0:0:
268,185,17386,6,0,P|190:164|111:158,1,149.240002277222,14|8,1:0|1:0,0:0:0:0:
46,210,17897,1,0,0:0:0:0:
112,284,18068,2,0,P|169:265|203:261,1,74.6200011386109,8|0,1:0|0:0,0:0:0:0:
278,306,18409,2,0,P|335:325|369:329,1,74.6200011386109,8|0,1:0|0:0,0:0:0:0:
430,238,18749,2,0,P|352:220|322:137,2,149.240002277222,10|8|8,1:0|1:0|1:0,0:0:0:0:
408,149,19602,1,0,0:0:0:0:
325,226,19772,2,0,P|251:200|171:201,1,149.240002277222,8|0,1:0|1:0,0:0:0:0:
291,54,20284,5,2,1:2:0:0:
145,129,20454,2,0,P|96:107|46:99,1,83.7199971895753,10|0,0:2|0:2,0:0:0:0:
264,37,20795,2,0,P|313:15|363:7,1,83.7199971895753,2|0,1:2|1:2,0:0:0:0:
229,177,21136,1,10,0:2:0:0:
157,39,21306,1,2,0:2:0:0:
248,206,21477,6,0,P|238:265|238:308,1,83.7199971895753,2|0,1:2|1:2,0:0:0:0:
343,125,21818,1,10,0:2:0:0:
145,129,21988,2,0,P|153:170|155:211,1,83.7199971895753,2|0,0:2|1:2,0:0:0:0:
354,240,22329,2,0,P|356:198|364:157,1,83.7199971895753,2|8,1:2|0:2,0:0:0:0:
125,153,22670,2,0,P|133:194|135:235,1,83.7199971895753,2|0,0:2|1:2,0:0:0:0:
271,71,23011,5,2,1:2:0:0:
373,214,23181,1,10,0:2:0:0:
252,179,23352,1,2,0:2:0:0:
423,107,23522,1,2,1:2:0:0:
263,205,23693,1,2,1:2:0:0:
465,277,23863,1,10,0:2:0:0:
364,183,24034,1,2,0:2:0:0:
236,337,24204,6,0,P|186:358|139:355,1,83.7199971895753,2|0,1:2|1:2,0:0:0:0:
59,204,24545,1,10,0:2:0:0:
252,355,24715,2,0,P|202:376|155:373,1,83.7199971895753,2|0,1:2|0:2,0:0:0:0:
241,172,25056,1,2,1:2:0:0:
143,336,25227,1,8,0:2:0:0:
222,141,25397,1,10,0:2:0:0:
222,141,25482,1,8,0:2:0:0:
222,141,25568,6,0,B|327:129|282:184|386:187,2,167.439994379151,0|10|2,1:2|0:2|1:2,0:0:0:0:
375,92,26420,1,0,1:2:0:0:
236,235,26590,2,0,P|175:225|145:197,1,83.7199971895753,10|0,0:2|0:2,0:0:0:0:
359,68,26931,2,0,P|420:78|450:106,1,83.7199971895753,2|0,1:2|1:2,0:0:0:0:
273,300,27272,2,0,P|258:241|257:200,1,83.7199971895753,10|0,0:2|0:2,0:0:0:0:
144,95,27613,2,0,P|139:136|127:176,1,83.7199971895753,2|0,1:2|1:2,0:0:0:0:
252,316,27954,2,0,P|237:257|236:216,1,83.7199971895753,10|0,0:2|0:2,0:0:0:0:
340,39,28295,5,6,1:2:0:0:
396,268,28465,1,2,1:2:0:0:
242,67,28636,1,10,0:2:0:0:
159,314,28806,2,0,P|94:300|66:269,1,92.8200005665283,6|0,1:2|0:2,0:0:0:0:
211,101,29147,1,2,1:2:0:0:
266,347,29318,1,8,0:2:0:0:
356,72,29488,2,0,P|421:86|449:117,1,92.8200005665283,6|0,1:2|0:2,0:0:0:0:
363,294,29829,1,2,1:2:0:0:
159,33,29999,5,10,0:2:0:0:
248,304,30170,1,2,1:2:0:0:
336,111,30340,1,10,0:2:0:0:
141,318,30511,1,0,1:2:0:0:
237,151,30681,2,0,P|339:155|399:237,1,185.640001133057,10|0,0:2|1:2,0:0:0:0:
123,205,31193,5,2,1:2:0:0:
184,50,31363,2,0,P|200:120|207:148,1,83.7199971895753,10|0,0:2|0:2,0:0:0:0:
112,303,31704,1,2,1:2:0:0:
51,146,31874,1,0,1:2:0:0:
152,317,32045,1,10,0:2:0:0:
237,151,32215,1,2,0:2:0:0:
329,347,32386,6,0,P|378:325|401:290,1,83.7199971895753,2|0,1:2|1:2,0:0:0:0:
256,117,32727,1,10,0:2:0:0:
351,356,32897,2,0,P|400:334|425:297,1,83.7199971895753,2|0,0:2|1:2,0:0:0:0:
355,101,33238,1,2,1:2:0:0:
251,309,33409,1,8,0:2:0:0:
377,117,33579,2,0,P|389:178|399:214,1,83.7199971895753,2|0,0:2|1:2,0:0:0:0:
161,133,33920,5,2,1:2:0:0:
120,319,34090,2,0,P|71:353|31:355,1,83.7199971895753,10|0,0:2|0:2,0:0:0:0:
155,173,34431,1,2,1:2:0:0:
229,338,34602,1,2,1:2:0:0:
276,147,34772,1,10,0:2:0:0:
358,305,34943,1,2,0:2:0:0:
402,60,35113,6,0,P|360:27|302:27,1,83.7199971895753,2|0,1:2|1:2,0:0:0:0:
254,185,35454,1,10,0:2:0:0:
400,38,35624,2,0,P|358:5|295:4,1,83.7199971895753,2|0,1:2|0:2,0:0:0:0:
346,215,35965,1,2,1:2:0:0:
246,58,36136,1,8,0:2:0:0:
125,217,36306,1,10,0:2:0:0:
125,217,36391,1,8,0:0:0:0:
125,217,36477,6,0,P|77:147|0:131,2,167.439994379151,0|10|2,1:2|0:2|1:2,0:0:0:0:
98,50,37329,1,0,1:2:0:0:
215,181,37499,2,0,P|268:192|303:185,1,83.7199971895753,10|0,0:2|0:2,0:0:0:0:
323,27,37840,2,0,P|270:16|235:23,1,83.7199971895753,2|0,1:2|1:2,0:0:0:0:
412,120,38181,2,0,P|424:178|434:213,1,83.7199971895753,10|0,0:2|0:2,0:0:0:0:
200,94,38522,2,0,P|192:135|183:176,1,83.7199971895753,2|0,1:2|1:2,0:0:0:0:
396,142,38863,2,0,P|408:200|418:235,1,83.7199971895753,10|0,0:2|0:2,0:0:0:0:
281,43,39204,5,6,1:2:0:0:
327,324,39374,1,2,1:2:0:0:
201,94,39545,1,10,0:2:0:0:
143,351,39715,2,0,P|87:337|61:288,1,92.8200005665283,6|0,1:2|0:2,0:0:0:0:
188,63,40056,1,2,1:2:0:0:
253,286,40227,1,8,0:2:0:0:
410,50,40397,6,0,P|402:119|391:245,1,185.640001133057,6|2,1:2|1:2,0:0:0:0:
404,266,40823,1,0,1:0:0:0:
404,266,40909,1,10,0:2:0:0:
291,77,41079,1,2,1:2:0:0:
155,312,41249,1,10,0:2:0:0:
364,161,41420,1,0,1:2:0:0:
121,41,41590,2,0,P|62:65|39:195,1,185.640001133057,10|0,0:2|1:2,0:0:0:0:
203,129,42102,5,2,0:0:0:0:
203,129,42272,2,0,P|208:178|214:209,1,74.6200011386109,10|8,0:1|1:0,0:0:0:0:
310,266,42613,2,0,P|316:229|319:192,1,74.6200011386109,10|0,0:0|0:0,0:0:0:0:
303,91,42954,1,10,0:1:0:0:
303,91,43124,1,2,1:0:0:0:
193,220,43295,5,2,0:0:0:0:
360,164,43465,1,2,1:0:0:0:
203,129,43636,1,10,0:1:0:0:
382,192,43806,1,10,1:1:0:0:
185,253,43977,2,0,P|137:232|96:229,1,74.6200011386109,8|0,0:0|0:0,0:0:0:0:
270,337,44318,2,0,P|298:273|282:191,1,149.240002277222,8|0,0:1|1:0,0:0:0:0:
171,104,44829,5,2,0:0:0:0:
277,44,44999,1,10,0:1:0:0:
277,44,45170,1,10,1:1:0:0:
139,90,45340,1,10,0:0:0:0:
139,90,45511,1,2,0:0:0:0:
282,149,45681,1,10,0:1:0:0:
282,149,45852,1,2,1:0:0:0:
107,200,46022,5,2,0:0:0:0:
147,46,46193,1,2,1:0:0:0:
278,193,46363,1,10,0:1:0:0:
318,39,46534,1,10,1:1:0:0:
96,226,46704,2,0,P|45:212|24:188,1,74.6200011386109,8|0,0:0|0:0,0:0:0:0:
222,105,47045,2,0,P|240:180|249:280,1,149.240002277222,8|0,0:1|1:0,0:0:0:0:
373,348,47556,5,2,0:0:0:0:
373,348,47727,2,0,P|389:297|403:270,1,74.6200011386109,10|10,0:1|1:1,0:0:0:0:
332,157,48068,1,10,0:0:0:0:
332,157,48238,1,2,0:0:0:0:
423,238,48409,1,10,0:1:0:0:
423,238,48579,1,2,1:0:0:0:
236,191,48749,5,2,0:0:0:0:
418,114,48920,1,2,1:0:0:0:
203,182,49090,1,10,0:1:0:0:
407,223,49261,1,10,1:1:0:0:
223,70,49431,2,0,P|172:50|138:54,1,74.6200011386109,8|0,0:0|0:0,0:0:0:0:
186,269,49772,1,8,1:3:0:0:
191,305,49857,1,8,1:3:0:0:
196,342,49943,1,8,1:3:0:0:
323,104,50113,5,2,1:0:0:0:
287,352,50284,1,2,1:0:0:0:
223,70,50454,1,10,0:0:0:0:
371,278,50624,2,0,P|431:269|463:239,1,92.8200005665283,6|0,1:0|0:0,0:0:0:0:
315,67,50965,5,2,1:0:0:0:
196,342,51136,1,10,0:0:0:0:
130,73,51306,2,0,P|91:47|46:44,1,92.8200005665283,6|0,1:0|0:0,0:0:0:0:
175,254,51647,5,2,1:0:0:0:
239,15,51818,1,10,0:0:0:0:
371,278,51988,2,0,P|416:275|454:249,1,92.8200005665283,6|0,1:0|0:0,0:0:0:0:
216,108,52329,5,10,1:3:0:0:
216,108,52414,1,8,1:3:0:0:
216,108,52499,1,10,1:3:0:0:
362,301,52670,2,0,P|407:298|445:272,1,92.8200005665283,2|0,0:0|0:0,0:0:0:0:
424,74,53011,5,0,1:0:0:0:
424,74,53096,1,0,1:0:0:0:
424,74,53181,2,0,B|285:72|356:176|216:205,1,222.039990852234,6|0,1:0|0:0,0:0:0:0:
40,175,53693,5,0,1:0:0:0:
40,175,53778,1,0,1:0:0:0:
40,175,53863,2,0,P|91:138|145:130,1,111.019995426117,6|0,1:0|0:0,0:0:0:0:
386,289,54204,6,0,P|288:226|169:261,1,222.039990852234,6|8,1:0|0:0,0:0:0:0:
86,26,54715,2,0,P|175:87|282:69,1,222.039990852234,6|0,1:0|0:0,0:0:0:0:
512,36,55227,6,0,P|464:101|450:210,1,180.179999450134,14|0,0:3|0:0,0:0:0:0:
464,229,55568,6,0,P|397:204|354:209,1,111.930001707916,2|0,1:0|0:0,0:0:0:0:
263,304,55909,6,0,P|229:240|229:189,1,101.920001244141,12|0,0:2|0:2,0:0:0:0:
280,44,56249,1,2,1:2:0:0:
280,44,56420,1,0,1:2:0:0:
109,263,56590,2,0,P|143:199|143:148,1,101.920001244141,8|0,0:2|0:2,0:0:0:0:
92,3,56931,1,2,1:2:0:0:
92,3,57102,1,0,1:2:0:0:
297,178,57272,2,0,P|362:163|401:126,1,101.920001244141,8|0,0:2|0:2,0:0:0:0:
178,86,57613,1,2,1:2:0:0:
178,86,57784,1,0,1:2:0:0:
375,20,57954,2,0,P|440:35|493:170,1,203.840002488281,8|2,0:2|1:2,0:0:0:0:
279,286,58465,5,2,1:2:0:0:
392,123,58636,1,10,0:2:0:0:
309,300,58806,1,2,0:2:0:0:
168,113,58977,1,2,1:2:0:0:
367,163,59147,1,2,1:2:0:0:
146,147,59318,1,10,0:2:0:0:
312,33,59488,1,2,0:2:0:0:
175,284,59659,1,2,1:2:0:0:
103,47,59829,1,2,1:2:0:0:
337,180,59999,1,10,0:2:0:0:
54,200,60170,2,0,P|127:135|240:139,1,203.840002488281,2|0,1:2|1:2,0:0:0:0:
423,325,60681,2,0,P|350:328|310:246,1,152.880001866211,10|0,0:2|0:2,0:0:0:0:
374,196,61022,6,0,P|386:127|389:45,1,152.880001866211,2|0,1:2|0:2,0:0:0:0:
389,10,61363,2,0,P|340:41|284:47,1,101.920001244141,12|0,0:2|0:2,0:0:0:0:
120,20,61704,1,2,1:2:0:0:
120,20,61874,1,0,1:2:0:0:
343,173,62045,2,0,P|294:142|238:136,1,101.920001244141,8|0,0:2|0:2,0:0:0:0:
81,238,62386,1,2,1:2:0:0:
81,238,62556,1,0,1:2:0:0:
411,248,62727,2,0,P|362:279|306:285,1,101.920001244141,8|0,0:2|0:2,0:0:0:0:
147,147,63068,1,2,1:2:0:0:
147,147,63238,1,0,1:2:0:0:
339,361,63409,2,0,P|290:330|146:343,1,203.840002488281,8|2,0:2|1:2,0:0:0:0:
311,217,63920,5,2,1:2:0:0:
56,150,64090,1,14,0:2:0:0:
236,102,64261,1,2,1:2:0:0:
171,238,64431,1,2,1:2:0:0:
349,209,64602,1,2,0:2:0:0:
67,58,64772,2,0,P|136:28|168:25,1,101.920001244141,14|0,0:2|0:2,0:0:0:0:
286,293,65113,5,2,1:2:0:0:
338,57,65284,1,2,1:2:0:0:
369,337,65454,1,10,0:2:0:0:
257,8,65624,2,0,B|214:124|300:81|256:224,1,203.840002488281,6|4,1:2|1:2,0:0:0:0:
176,231,66051,5,4,1:3:0:0:
176,231,66136,2,0,P|215:174|318:200,1,180.179999450134,10|0,1:3|0:0,0:0:0:0:
384,267,66477,6,0,P|439:257|474:198,1,111.930001707916,2|0,1:0|0:0,0:0:0:0:
430,102,66818,6,0,P|349:81|314:84,1,101.920001244141,12|0,0:2|0:2,0:0:0:0:
257,254,67159,1,2,1:2:0:0:
257,254,67329,1,0,1:2:0:0:
81,75,67499,2,0,P|162:54|197:57,1,101.920001244141,8|0,0:2|0:2,0:0:0:0:
282,233,67840,1,2,1:2:0:0:
282,233,68011,1,0,1:2:0:0:
458,54,68181,2,0,P|377:33|342:36,1,101.920001244141,8|0,0:2|0:2,0:0:0:0:
248,207,68522,1,2,1:2:0:0:
248,207,68693,1,0,1:2:0:0:
72,28,68863,2,0,P|153:7|262:88,1,203.840002488281,8|2,0:2|1:2,0:0:0:0:
159,289,69374,5,2,1:2:0:0:
104,118,69545,1,10,0:2:0:0:
173,258,69715,1,2,0:2:0:0:
299,83,69886,1,2,1:2:0:0:
86,156,70056,1,2,1:2:0:0:
285,112,70227,1,10,0:2:0:0:
159,289,70397,1,2,0:2:0:0:
192,55,70568,1,2,1:2:0:0:
315,301,70738,1,2,1:2:0:0:
172,86,70909,1,10,0:2:0:0:
329,271,71079,2,0,P|335:209|448:140,1,203.840002488281,2|0,1:2|1:2,0:0:0:0:
302,196,71590,2,0,P|229:172|150:178,1,152.880001866211,10|0,0:2|0:2,0:0:0:0:
79,250,71931,6,0,P|69:169|39:90,1,152.880001866211,2|0,1:2|0:2,0:0:0:0:
18,72,72272,2,0,P|83:80|132:72,1,101.920001244141,12|0,0:2|0:2,0:0:0:0:
264,4,72613,1,2,1:2:0:0:
264,4,72784,1,0,1:2:0:0:
491,113,72954,2,0,P|426:121|377:113,1,101.920001244141,8|0,0:2|0:2,0:0:0:0:
245,45,73295,1,2,1:2:0:0:
245,45,73465,1,0,1:2:0:0:
22,152,73636,2,0,P|87:160|136:152,1,101.920001244141,8|0,0:2|0:2,0:0:0:0:
268,84,73977,1,2,1:2:0:0:
268,84,74147,1,0,1:2:0:0:
481,228,74318,2,0,P|374:233|272:190,1,203.840002488281,8|2,0:2|1:2,0:0:0:0:
178,345,74829,1,0,1:0:0:0:
112,57,74999,6,0,P|164:99|183:143,1,111.019995426117,14|0,0:0|0:0,0:0:0:0:
274,369,75340,2,0,P|299:320|361:284,1,120.119999633423,2|0,1:0|1:0,0:0:0:0:
441,106,75681,2,0,P|370:143|318:136,1,129.219993493256,10|0,0:0|0:0,0:0:0:0:
32,189,76022,6,0,P|184:200|264:312,1,276.639996623047,6|8,1:0|0:0,0:0:0:0:
462,28,76534,2,0,P|370:126|236:128,1,276.639996623047,6|4,1:0|1:3,0:0:0:0:
180,41,76960,1,4,1:3:0:0:
180,41,77045,2,0,P|222:131|240:260,1,193.829990239884,10|0,1:3|0:0,0:0:0:0:
199,297,77386,6,0,P|142:278|94:276,1,101.920001244141,6|2,1:0|0:0,0:0:0:0:
332,177,77727,1,10,0:0:0:0:
124,134,77897,1,2,1:0:0:0:
366,166,78068,1,10,0:0:0:0:
158,209,78238,1,2,1:0:0:0:
387,83,78409,2,0,P|434:65|485:61,1,101.920001244141,10|0,0:0|0:0,0:0:0:0:
277,296,78749,6,0,P|259:222|231:178,1,101.920001244141,2|0,1:0|0:0,0:0:0:0:
310,23,79090,1,10,0:0:0:0:
158,209,79261,1,2,1:0:0:0:
408,263,79431,1,10,0:0:0:0:
224,57,79602,1,2,1:0:0:0:
48,240,79772,2,0,P|66:166|94:122,1,101.920001244141,10|0,0:0|0:0,0:0:0:0:
258,331,80113,6,0,P|328:358|367:355,1,101.920001244141,0|0,1:0|1:0,0:0:0:0:
233,101,80454,1,10,0:0:0:0:
213,340,80624,1,0,1:0:0:0:
302,51,80795,1,10,0:0:0:0:
342,312,80965,1,0,1:0:0:0:
171,34,81136,1,10,0:0:0:0:
123,325,81306,1,0,1:0:0:0:
337,24,81477,2,0,P|415:5|442:16,1,101.920001244141,14|0,0:0|1:0,0:0:0:0:
280,253,81818,1,8,0:0:0:0:
280,253,82159,6,0,P|202:228|106:218,1,120.119999633423,6|0,1:0|0:0,0:0:0:0:
88,147,82414,2,0,B|157:140|131:105|229:104,1,120.119999633423,6|0,1:0|0:0,0:0:0:0:
289,72,82670,2,0,P|350:94|364:94,1,60.0599998167114,6|0,1:0|0:0,0:0:0:0:
93,44,82840,1,6,1:0:0:0:
256,192,82926,12,0,84204,1:0:0:0:
211,64,91022,6,0,P|229:128|234:179,1,92.8200005665283,2|0,1:2|1:0,0:0:0:0:
182,312,91363,1,8,0:0:0:0:
335,150,91534,2,0,P|317:214|312:265,1,92.8200005665283,0|0,1:0|1:0,0:0:0:0:
359,364,91874,1,0,1:0:0:0:
220,193,92045,1,8,0:0:0:0:
436,229,92215,2,0,P|461:151|411:55,1,185.640001133057,6|8,1:2|1:3,0:0:0:0:
328,283,92727,1,8,0:0:0:0:
234,83,92897,2,0,B|126:76|167:148|54:147,1,185.640001133057,4|0,1:0|1:0,0:0:0:0:
220,193,93409,2,0,P|283:166|333:165,1,92.8200005665283,8|0,0:0|0:0,0:0:0:0:
201,292,93749,5,10,0:1:0:0:
234,83,93920,1,0,1:0:0:0:
363,248,94090,1,8,0:1:0:0:
330,39,94261,1,2,1:0:0:0:
142,211,94431,1,8,0:1:0:0:
175,2,94602,1,0,1:0:0:0:
336,227,94772,1,8,0:1:0:0:
303,18,94943,1,2,1:0:0:0:
118,183,95113,5,8,0:1:0:0:
350,137,95284,1,0,1:0:0:0:
194,279,95454,1,8,0:1:0:0:
426,325,95624,1,2,1:0:0:0:
135,158,95795,1,8,0:1:0:0:
367,112,95965,1,2,1:0:0:0:
367,112,96051,1,0,1:0:0:0:
367,112,96136,2,0,P|326:90|280:88,1,92.8200005665283,10|2,0:1|1:0,0:0:0:0:
109,270,96477,5,10,0:1:0:0:
150,67,96647,1,0,1:0:0:0:
321,290,96818,1,8,0:1:0:0:
280,87,96988,1,2,1:0:0:0:
136,304,97159,1,8,0:1:0:0:
177,101,97329,1,0,1:0:0:0:
351,313,97499,1,8,0:1:0:0:
310,110,97670,1,2,1:0:0:0:
155,331,97840,1,8,0:1:0:0:
382,215,98011,1,2,1:0:0:0:
132,92,98181,1,10,0:1:0:0:
276,352,98352,1,2,1:0:0:0:
395,71,98522,2,0,P|362:26|309:14,1,92.8200005665283,10|0,0:1|0:0,0:0:0:0:
174,296,98863,1,8,0:0:0:0:
94,69,99034,6,0,P|127:24|180:12,1,92.8200005665283,2|0,1:0|0:0,0:0:0:0:
311,235,99374,1,2,1:0:0:0:
311,235,99460,1,2,1:0:0:0:
311,235,99545,1,10,0:1:0:0:
108,176,99715,1,2,1:0:0:0:
395,71,99886,1,10,0:1:0:0:
148,331,100056,1,10,0:3:0:0:
251,73,100227,1,6,1:3:0:0:
437,274,100397,6,0,B|207:226|394:130|159:101,1,349.44000853125,6|0,1:0|0:0,0:0:0:0:
