osu file format v14

[General]
AudioFilename: audio.mp3
AudioLeadIn: 0
PreviewTime: 55227
Countdown: 0
SampleSet: Soft
StackLeniency: 0.5
Mode: 0
LetterboxInBreaks: 0
WidescreenStoryboard: 1

[Editor]
Bookmarks: 6477,20113,31022,41931,50113,55227,66136,77386,82840,93749,105852
DistanceSpacing: 1
BeatDivisor: 2
GridSize: 32
TimelineZoom: 2.4

[Metadata]
Title:Ringo Ribbon (Cut Ver.)
TitleUnicode:リンゴリボン (Cut Ver.)
Artist:Nakagawa Kanon (CV: Touyama Nao), Suirenji Ruka (CV: Yamazaki Haruka)
ArtistUnicode:中川かのん (CV: 東山奈央), 水蓮寺ルカ (CV: 山崎はるか)
Creator:PikAqours
Version:Wanpachi's Normal
Source:
Tags:神のみぞ知るセカイ Kami Nomi zo Shiru Sekai ハヤテのごとく! Hayate no Gotoku 中川かのん 水蓮寺ルカ short cut version female vocals japanese jpop j-pop anime pop thesea wanpachi cycopton kuki1537 kuroame the combat butler the world god only knows
BeatmapID:2828799
BeatmapSetID:1361996

[Difficulty]
HPDrainRate:4
CircleSize:3
OverallDifficulty:4.5
ApproachRate:5
SliderMultiplier:1.1
SliderTickRate:1

[Events]
//Background and Video events
0,0,"bg.jpg",0,0
//Break Periods
//Storyboard Layer 0 (Background)
//Storyboard Layer 1 (Fail)
//Storyboard Layer 2 (Pass)
//Storyboard Layer 3 (Foreground)
//Storyboard Layer 4 (Overlay)
//Storyboard Sound Samples

[TimingPoints]
-341,340.909090909091,4,2,1,70,1,0
1022,-111.111111111111,4,2,1,70,0,0
6477,-100,4,2,1,80,0,0
17386,-111.111111111111,4,2,1,70,0,0
31022,-100,4,2,1,60,0,0
39204,-100,4,2,1,70,0,0
41931,-111.111111111111,4,2,1,60,0,0
50113,-100,4,2,1,70,0,0
53011,-100,4,2,1,80,0,0
55909,-90.9090909090909,4,2,1,90,0,0
65624,-90.9090909090909,4,2,1,80,0,0
66136,-90.9090909090909,4,2,1,90,0,0
66477,-90.9090909090909,4,2,1,80,0,0
66818,-90.9090909090909,4,2,1,90,0,0
77045,-90.9090909090909,4,2,1,80,0,0
77386,-90.9090909090909,4,2,1,90,0,0
81477,-90.9090909090909,4,2,1,80,0,0
82159,-90.9090909090909,4,2,1,90,0,0
82840,-100,4,2,1,80,0,0
91022,-100,4,2,1,70,0,0
100397,-100,4,2,1,80,0,0
100482,-100,4,2,1,40,0,0
103295,-100,4,2,1,20,0,0

[Colours]
Combo1 : 216,38,7
Combo2 : 128,64,64
Combo3 : 0,107,215

[HitObjects]
59,80,1022,6,0,L|107:71,1,49.4999984893799,14|10,1:2|0:2,0:0:0:0:
141,35,1363,2,0,P|181:64|230:65,1,98.9999969787599,10|8,0:1|0:1,0:2:0:0:
329,38,2045,1,10,0:1:0:0:
329,38,2215,2,0,L|312:135,1,98.9999969787599,10|10,0:2|0:2,0:2:0:0:
348,170,2727,2,0,P|387:141|436:140,2,98.9999969787599,10|8|10,0:1|0:1|0:1,0:0:0:0:
277,240,3749,6,0,L|285:288,1,49.4999984893799,10|10,1:2|0:2,0:0:0:0:
250,323,4090,2,0,P|201:321|161:293,1,98.9999969787599,10|8,0:1|0:1,0:2:0:0:
75,255,4772,1,10,0:1:0:0:
75,255,4943,2,0,P|103:215|104:166,1,98.9999969787599,10|2,0:2|1:2,0:2:0:0:
79,123,5454,2,0,L|87:74,1,49.4999984893799,10|2,0:2|1:2,0:0:0:0:
116,33,5795,1,10,0:2:0:0:
205,75,6136,2,0,P|244:46|293:45,1,98.9999969787599,4|2,3:0|1:2,0:0:0:0:
271,153,6818,6,0,L|259:209,1,55,12|0,0:2|0:2,0:2:0:0:
205,218,7159,2,0,L|228:331,1,110,2|8,1:2|0:2,0:0:0:0:
328,370,7840,2,0,P|377:321|425:317,1,110,2|8,1:2|0:2,0:0:0:0:
470,299,8352,1,0,0:2:0:0:
470,299,8522,2,0,L|414:186,1,110,2|8,1:2|0:2,0:0:0:0:
404,91,9204,6,0,L|530:68,2,110,2|8|0,1:2|0:2|1:2,0:2:0:0:
316,23,10227,2,0,L|250:31,1,55,8|2,0:2|0:2,0:0:0:0:
210,53,10568,2,0,P|158:34|87:41,1,110,2|8,1:2|0:2,0:2:0:0:
64,74,11079,1,0,1:2:0:0:
64,74,11249,1,0,0:0:0:0:
16,173,11590,1,10,0:2:0:0:
106,235,11931,6,0,L|115:356,1,110,2|8,1:2|0:2,0:2:0:0:
166,362,12443,1,0,0:2:0:0:
166,362,12613,2,0,P|232:317|235:269,1,110,2|8,1:2|0:2,0:0:0:0:
196,189,13295,2,0,P|177:138|196:87,1,110,2|8,1:2|0:2,0:0:0:0:
234,49,13806,1,0,0:2:0:0:
234,49,13977,2,0,L|346:72,1,110,2|8,1:2|0:2,0:0:0:0:
447,38,14659,6,0,L|460:160,1,110,6|8,1:2|0:2,0:0:0:0:
485,195,15170,2,0,P|483:249|453:294,1,110,6|0,1:2|1:2,0:2:0:0:
406,325,15681,1,14,0:2:0:0:
304,282,16022,2,0,L|295:220,2,55,6|0|8,1:2|1:2|0:2,0:0:0:0:
250,297,16534,2,0,P|183:302|142:343,1,110,6|0,1:2|1:2,0:2:0:0:
124,376,17045,1,14,0:2:0:0:
57,302,17386,6,0,L|76:176,2,98.9999969787599,10|8|8,1:1|1:1|1:1,0:1:0:0:
124,376,18409,1,8,1:1:0:0:
188,301,18749,2,0,P|242:294|284:313,1,98.9999969787599,8|8,1:1|1:1,0:1:0:0:
349,238,19431,2,0,L|342:179,2,49.4999984893799,8|2|8,1:1|0:1|1:1,0:1:0:0:
397,326,20113,6,0,P|445:318|483:287,1,98.9999969787599,4|10,1:1|0:2,0:0:0:0:
477,187,20795,2,0,L|421:178,2,49.4999984893799,2|2|10,1:2|1:2|0:2,0:2:0:0:
486,88,21477,2,0,P|435:64|396:29,1,98.9999969787599,2|10,1:2|0:2,0:2:0:0:
362,7,21988,1,2,0:2:0:0:
286,71,22329,1,2,1:2:0:0:
194,47,22670,1,2,0:2:0:0:
194,47,22840,6,0,P|148:32|87:61,1,98.9999969787599,0|10,1:2|0:2,0:0:0:0:
61,138,23522,2,0,L|8:134,2,49.4999984893799,2|2|10,1:2|1:2|0:2,0:0:0:0:
141,196,24204,2,0,L|134:300,1,98.9999969787599,2|10,1:2|0:2,0:2:0:0:
168,330,24715,1,2,0:2:0:0:
266,336,25056,1,2,1:2:0:0:
338,268,25397,1,2,1:2:0:0:
338,268,25568,5,0,1:2:0:0:
273,192,25909,2,0,L|292:70,1,98.9999969787599,10|2,0:2|1:2,0:2:0:0:
370,38,26590,1,10,0:2:0:0:
467,56,26931,1,2,1:2:0:0:
507,146,27272,2,0,L|491:243,1,98.9999969787599,10|2,0:2|1:2,0:2:0:0:
406,294,27954,1,10,0:2:0:0:
324,237,28295,6,0,L|314:176,2,49.4999984893799,6|2|10,1:2|1:2|0:2,0:0:0:0:
297,278,28806,2,0,P|244:304|191:288,1,98.9999969787599,6|2,1:2|1:2,0:2:0:0:
122,244,29488,2,0,L|110:126,1,98.9999969787599,6|2,1:2|1:2,0:2:0:0:
138,103,29999,2,0,L|144:44,1,49.4999984893799,10|2,0:2|1:2,0:0:0:0:
190,38,30340,1,8,0:2:0:0:
287,54,30681,1,8,0:2:0:0:
304,163,31022,6,0,L|292:279,1,110,4|10,1:2|0:2,0:0:0:0:
387,328,31704,2,0,L|393:386,2,55,2|2|10,1:2|1:2|0:2,0:0:0:0:
479,267,32386,2,0,P|497:204|475:151,1,110,2|10,1:2|0:2,0:2:0:0:
435,137,32897,1,2,0:2:0:0:
417,28,33238,1,2,1:2:0:0:
318,74,33579,1,2,0:2:0:0:
318,74,33749,6,0,P|263:108|213:100,1,110,0|10,1:2|0:2,0:0:0:0:
118,60,34431,2,0,L|124:-4,2,55,2|2|10,1:2|1:2|0:2,0:0:0:0:
24,118,35113,2,0,L|37:244,1,110,2|10,1:2|0:2,0:2:0:0:
88,240,35624,1,2,1:2:0:0:
193,210,35965,1,2,1:2:0:0:
167,108,36306,1,2,1:2:0:0:
167,108,36477,5,0,1:2:0:0:
254,40,36818,2,0,L|372:54,1,110,10|2,0:2|1:2,0:0:0:0:
434,136,37499,1,10,0:2:0:0:
444,245,37840,1,2,1:2:0:0:
358,314,38181,2,0,L|248:301,1,110,10|2,0:2|1:2,0:2:0:0:
168,225,38863,1,10,0:2:0:0:
115,321,39204,6,0,L|108:380,2,55,6|2|10,1:2|1:2|0:2,0:0:0:0:
63,300,39715,1,6,0:2:0:0:
33,194,40056,2,0,L|38:134,1,55,2|10,1:2|0:2,0:0:0:0:
83,108,40397,2,0,L|73:-12,1,110,6|0,1:2|1:2,0:2:0:0:
130,2,40909,2,0,L|190:7,1,55,8|0,0:2|1:2,0:0:0:0:
223,45,41249,1,8,0:2:0:0:
327,11,41590,1,10,0:2:0:0:
375,97,41931,6,0,P|380:158|350:199,1,98.9999969787599,4|10,1:2|0:1,0:0:0:0:
277,242,42613,1,10,0:2:0:0:
191,191,42954,1,10,0:1:0:0:
113,253,43295,2,0,L|138:372,1,98.9999969787599,2|10,0:2|0:1,0:2:0:0:
230,329,43977,2,0,L|240:280,2,49.4999984893799,8|0|8,0:2|0:2|0:1,0:2:0:0:
315,380,44659,6,0,P|372:351|443:350,1,98.9999969787599,0|10,1:2|0:1,0:0:0:0:
479,280,45340,1,10,0:2:0:0:
402,216,45681,1,10,0:1:0:0:
455,132,46022,2,0,L|443:16,1,98.9999969787599,2|10,0:2|0:1,0:0:0:0:
350,65,46704,6,0,L|344:114,2,49.4999984893799,8|0|8,0:2|0:2|0:1,0:2:0:0:
255,35,47386,2,0,P|224:80|230:132,1,98.9999969787599,4|10,1:2|0:1,0:0:0:0:
190,215,48068,1,10,0:2:0:0:
234,303,48409,1,10,0:1:0:0:
161,369,48749,2,0,L|54:355,1,98.9999969787599,2|10,0:2|0:1,0:2:0:0:
63,265,49431,1,8,0:2:0:0:
63,265,49602,1,0,1:2:0:0:
63,265,49772,1,8,0:3:0:0:
55,154,50113,6,0,L|0:146,2,55,6|2|10,1:2|0:2|0:2,0:0:0:0:
108,139,50624,2,0,P|145:86|139:34,1,110,6|2,1:2|0:2,0:2:0:0:
188,12,51136,1,10,0:2:0:0:
188,12,51306,1,6,1:2:0:0:
279,72,51647,2,0,L|351:92,1,55,2|10,0:2|0:2,0:0:0:0:
375,52,51988,2,0,P|446:27|498:41,1,110,6|2,1:2|1:2,0:2:0:0:
483,87,52499,1,2,1:2:0:0:
483,87,52670,1,2,0:2:0:0:
452,248,53181,6,0,L|327:262,1,110,4|0,1:2|0:2,0:2:0:0:
266,339,53863,1,6,1:2:0:0:
178,273,54204,2,0,P|167:214|205:160,1,110,2|8,1:2|0:2,0:2:0:0:
244,164,54715,2,0,L|257:45,1,110,0|0,1:2|0:2,0:2:0:0:
227,6,55227,1,14,3:2:0:0:
119,30,55568,6,0,P|73:79|22:79,1,110,2|12,1:2|0:2,0:2:0:0:
6,138,56079,1,0,0:2:0:0:
6,138,56249,2,0,L|30:266,1,121.000003692627,2|8,1:2|0:2,0:0:0:0:
119,337,56931,2,0,P|182:299|240:306,1,121.000003692627,2|8,1:2|0:2,0:0:0:0:
283,326,57443,1,0,1:2:0:0:
283,326,57613,1,2,0:2:0:0:
403,313,57954,1,8,0:2:0:0:
474,215,58295,5,2,1:2:0:0:
474,215,58465,2,0,P|485:138|442:90,1,121.000003692627,2|2,1:2|0:2,0:0:0:0:
411,72,58977,2,0,L|423:7,2,60.5000018463135,2|2|10,1:2|1:2|0:2,0:0:0:0:
299,119,59659,2,0,L|311:184,2,60.5000018463135,2|2|10,1:2|1:2|0:2,0:0:0:0:
252,80,60170,2,0,P|193:51|127:69,1,121.000003692627,2|0,1:2|1:2,0:2:0:0:
96,102,60681,1,10,0:2:0:0:
45,211,61022,6,0,L|78:333,1,121.000003692627,2|8,1:2|0:2,0:2:0:0:
134,360,61534,1,0,0:2:0:0:
134,360,61704,2,0,P|198:330|204:269,1,121.000003692627,2|8,1:2|0:2,0:0:0:0:
168,170,62386,2,0,P|160:104|191:41,1,121.000003692627,2|8,1:2|0:2,0:0:0:0:
236,31,62897,1,0,1:2:0:0:
236,31,63068,1,2,0:2:0:0:
357,28,63409,1,8,0:2:0:0:
447,118,63749,5,2,1:2:0:0:
447,118,63920,2,0,L|436:200,1,60.5000018463135,2|14,1:2|0:2,0:0:0:0:
429,240,64261,1,2,0:0:0:0:
429,240,64431,2,0,L|438:320,2,60.5000018463135,2|2|14,1:2|1:2|0:2,0:0:0:0:
331,312,65113,2,0,L|322:392,2,60.5000018463135,6|2|10,1:2|1:2|0:2,0:0:0:0:
287,270,65624,2,0,L|273:149,1,121.000003692627,6|0,1:2|1:2,0:2:0:0:
301,95,66136,1,14,0:2:0:0:
205,20,66477,6,0,P|156:66|86:53,1,121.000003692627,2|12,1:2|0:2,0:2:0:0:
45,58,66988,1,0,0:2:0:0:
45,58,67159,2,0,L|70:204,1,121.000003692627,2|8,1:2|0:2,0:0:0:0:
20,289,67840,2,0,P|86:301|118:343,1,121.000003692627,2|8,1:2|0:2,0:0:0:0:
167,376,68352,1,0,1:2:0:0:
167,376,68522,1,2,0:2:0:0:
286,357,68863,1,8,0:2:0:0:
373,273,69204,5,2,1:2:0:0:
373,273,69374,2,0,P|432:281|469:227,1,121.000003692627,2|2,1:2|0:2,0:0:0:0:
462,176,69886,2,0,L|389:158,2,60.5000018463135,2|2|10,1:2|1:2|0:2,0:0:0:0:
454,54,70568,2,0,L|527:36,2,60.5000018463135,2|2|10,1:2|1:2|0:2,0:0:0:0:
396,73,71079,2,0,P|327:35|270:42,1,121.000003692627,2|0,1:2|1:2,0:2:0:0:
244,80,71590,1,10,0:2:0:0:
291,191,71931,6,0,L|263:310,1,121.000003692627,2|8,1:2|0:2,0:2:0:0:
224,355,72443,1,0,0:2:0:0:
224,355,72613,2,0,P|174:327|86:349,1,121.000003692627,2|8,1:2|0:2,0:0:0:0:
38,236,73295,2,0,L|28:101,1,121.000003692627,2|8,1:2|0:2,0:0:0:0:
53,59,73806,1,0,1:2:0:0:
53,59,73977,1,2,0:2:0:0:
164,11,74318,1,8,0:2:0:0:
188,129,74659,6,0,L|252:125,1,60.5000018463135,2|0,1:2|1:2,0:0:0:0:
309,126,74999,1,14,0:2:0:0:
409,56,75340,1,2,1:2:0:0:
409,56,75511,1,0,1:2:0:0:
409,56,75681,1,14,0:2:0:0:
479,154,76022,2,0,P|502:213|460:269,1,121.000003692627,6|8,1:2|0:2,0:0:0:0:
440,309,76534,2,0,L|304:329,1,121.000003692627,6|0,1:2|1:2,0:2:0:0:
260,320,77045,1,12,0:2:0:0:
240,201,77386,6,0,P|263:142|221:86,1,121.000003692627,6|10,1:2|0:2,0:2:0:0:
155,21,78068,1,10,0:2:0:0:
155,21,78238,1,2,1:2:0:0:
155,21,78409,1,10,0:2:0:0:
49,80,78749,2,0,L|40:200,1,121.000003692627,10|10,0:2|0:2,0:2:0:0:
65,329,79431,1,10,0:2:0:0:
65,329,79602,1,2,1:2:0:0:
65,329,79772,1,10,0:2:0:0:
185,344,80113,5,8,0:2:0:0:
253,244,80454,2,0,L|243:93,2,121.000003692627,10|10|10,0:2|0:2|0:2,0:0:0:0:
316,347,81477,1,2,1:2:0:0:
394,254,81818,1,8,3:2:0:0:
358,138,82159,2,0,B|401:125|401:125|443:144,2,90.7500027694703,6|6|6,1:2|1:2|1:2,0:2:0:0:
303,134,82840,6,0,P|246:112|186:141,1,110,6|12,1:2|0:2,0:2:0:0:
180,180,83352,1,0,0:2:0:0:
180,180,83522,2,0,L|192:302,1,110,2|8,1:2|0:2,0:0:0:0:
115,370,84204,2,0,P|67:372|13:343,1,110,2|8,1:2|0:2,0:0:0:0:
25,292,84715,1,0,1:2:0:0:
25,292,84886,2,0,L|36:182,1,110,2|8,0:2|0:2,0:0:0:0:
139,144,85568,6,0,L|152:273,2,110,2|8|0,1:2|0:2|1:2,0:2:0:0:
236,93,86590,2,0,L|317:77,1,55,8|0,0:2|0:2,0:0:0:0:
339,108,86931,2,0,P|375:169|353:221,1,110,2|8,1:2|0:2,0:2:0:0:
336,251,87443,1,0,1:2:0:0:
336,251,87613,1,0,0:0:0:0:
253,323,87954,1,10,0:2:0:0:
205,223,88295,6,0,L|214:102,1,110,2|8,1:2|0:2,0:2:0:0:
220,62,88806,1,0,0:2:0:0:
220,62,88977,2,0,P|164:101|102:84,1,110,2|8,1:2|0:2,0:0:0:0:
22,137,89659,2,0,L|31:258,1,110,2|8,1:2|0:2,0:0:0:0:
64,290,90170,1,0,1:2:0:0:
64,290,90340,2,0,P|135:270|201:304,1,110,2|8,0:2|0:2,0:0:0:0:
260,339,91022,6,0,P|331:359|397:325,1,110,6|8,1:2|0:2,0:0:0:0:
450,277,91704,2,0,L|507:270,2,55,0|0|8,0:0|1:2|0:2,0:0:0:0:
410,237,92215,2,0,L|421:87,1,110,6|0,1:2|1:2,0:2:0:0:
374,92,92727,1,8,0:2:0:0:
277,66,93068,1,0,1:2:0:0:
277,66,93238,1,0,1:2:0:0:
277,66,93409,1,12,0:2:0:0:
180,119,93749,6,0,L|101:108,2,55,14|2|10,1:1|1:2|0:1,0:0:0:0:
217,159,94261,2,0,P|240:229|221:288,1,110,2|2,1:2|1:2,0:0:0:0:
172,354,94943,2,0,L|43:336,1,110,2|2,1:2|1:2,0:0:0:0:
26,297,95454,1,10,0:1:0:0:
26,297,95624,2,0,P|44:215|21:181,1,110,2|2,1:2|1:2,0:0:0:0:
4,148,96136,1,10,0:2:0:0:
89,79,96477,6,0,L|82:22,2,55,6|2|10,0:2|1:2|0:1,0:0:0:0:
135,108,96988,2,0,P|190:73|256:81,1,110,2|2,1:2|1:2,0:0:0:0:
337,109,97670,2,0,L|458:95,1,110,2|2,1:2|1:2,0:0:0:0:
485,135,98181,2,0,L|478:195,1,55,10|2,0:1|1:2,0:0:0:0:
474,244,98522,1,10,0:2:0:0:
414,338,98863,1,8,0:2:0:0:
414,338,99034,6,0,P|361:307|294:317,1,110,6|2,1:2|1:2,0:2:0:0:
266,336,99545,2,0,L|193:329,1,55,10|2,0:2|1:2,0:0:0:0:
172,291,99886,2,0,L|99:298,2,55,10|10|6,0:2|0:3|1:2,0:0:0:0:
211,251,100397,1,6,1:2:0:0:
256,192,100568,8,0,105852,0:0:0:0:
