osu file format v14

[General]
AudioFilename: audio.mp3
AudioLeadIn: 0
PreviewTime: 55227
Countdown: 0
SampleSet: Soft
StackLeniency: 0.7
Mode: 0
LetterboxInBreaks: 0
WidescreenStoryboard: 1

[Editor]
DistanceSpacing: 1.4
BeatDivisor: 4
GridSize: 32
TimelineZoom: 1.1

[Metadata]
Title:Ringo Ribbon (Cut Ver.)
TitleUnicode:リンゴリボン (Cut Ver.)
Artist:Nakagawa Kanon (CV: Touyama Nao), Suirenji Ruka (CV: Yamazaki Haruka)
ArtistUnicode:中川かのん (CV: 東山奈央), 水蓮寺ルカ (CV: 山崎はるか)
Creator:PikAqours
Version:Kuki's Hard
Source:
Tags:神のみぞ知るセカイ Kami Nomi zo Shiru Sekai ハヤテのごとく! Hayate no Gotoku 中川かのん 水蓮寺ルカ short cut version female vocals japanese jpop j-pop anime pop thesea wanpachi cycopton kuki1537 kuroame the combat butler the world god only knows
BeatmapID:2830410
BeatmapSetID:1361996

[Difficulty]
HPDrainRate:4
CircleSize:3.8
OverallDifficulty:7
ApproachRate:8
SliderMultiplier:1.5
SliderTickRate:1

[Events]
//Background and Video events
0,0,"bg.jpg",0,0
//Break Periods
2,84404,87545
//Storyboard Layer 0 (Background)
//Storyboard Layer 1 (Fail)
//Storyboard Layer 2 (Pass)
//Storyboard Layer 3 (Foreground)
//Storyboard Layer 4 (Overlay)
//Storyboard Sound Samples

[TimingPoints]
-341,340.909090909091,4,2,1,70,1,0
1022,-125,4,2,1,70,0,0
6477,-100,4,2,1,80,0,0
17386,-100,4,2,1,70,0,0
20113,-125,4,2,1,70,0,0
31022,-125,4,2,1,60,0,0
39204,-125,4,2,1,70,0,0
41931,-125,4,2,1,60,0,0
50113,-100,4,2,1,70,0,0
53011,-100,4,2,1,80,0,0
55227,-76.9230769230769,4,2,1,80,0,1
55909,-100,4,2,1,90,0,0
65624,-100,4,2,1,80,0,0
66136,-76.9230769230769,4,2,1,90,0,1
66477,-76.9230769230769,4,2,1,80,0,1
66818,-100,4,2,1,90,0,0
77045,-100,4,2,1,80,0,0
77386,-100,4,2,1,90,0,0
81477,-100,4,2,1,80,0,0
82159,-76.9230769230769,4,2,1,90,0,1
82840,-100,4,2,1,80,0,1
84204,-100,4,2,1,80,0,0
91022,-100,4,2,1,70,0,0
100397,-100,4,2,1,80,0,0
100482,-100,4,2,1,40,0,0
103295,-100,4,2,1,20,0,0

[Colours]
Combo1 : 216,38,7
Combo2 : 128,64,64
Combo3 : 0,107,215

[HitObjects]
155,66,1022,5,14,1:2:0:0:
155,66,1193,1,10,0:2:0:0:
251,172,1534,2,0,P|290:183|359:135,1,120,2|2,0:2|0:2,0:0:0:0:
435,25,2215,2,0,L|443:89,1,60,10|8,0:2|0:1,0:2:0:0:
512,131,2556,2,0,L|504:195,1,60,10|10,0:2|0:1,0:2:0:0:
461,262,2897,2,0,B|415:272|415:272|399:294|399:294|355:304,1,120,2|2,0:2|0:2,0:0:0:0:
290,350,3409,1,10,0:1:0:0:
224,308,3579,1,2,0:2:0:0:
144,344,3749,5,10,1:2:0:0:
144,344,3920,1,10,0:2:0:0:
160,200,4261,2,0,L|175:69,1,120,2|2,0:2|0:2,0:0:0:0:
43,17,4943,6,0,P|4:50|18:125,1,120,10|2,0:2|1:2,0:2:0:0:
28,132,5369,1,0,1:2:0:0:
28,132,5454,2,0,L|37:198,1,60,10|2,0:2|1:2,0:0:0:0:
9,277,5795,1,10,0:2:0:0:
123,364,6136,1,4,3:0:0:0:
246,279,6477,6,0,P|286:256|362:281,1,112.5,2|0,1:2|0:2,0:2:0:0:
390,252,6818,2,0,L|399:168,1,75,12|0,0:2|0:2,0:2:0:0:
362,94,7159,1,2,1:2:0:0:
362,94,7329,1,0,1:2:0:0:
422,27,7499,2,0,P|461:17|512:38,1,75,8|0,0:2|0:2,0:2:0:0:
397,177,7840,6,0,P|361:186|325:178,1,75,2|0,1:2|1:2,0:0:0:0:
264,111,8181,2,0,L|255:35,1,75,8|0,0:2|0:2,0:2:0:0:
193,162,8522,1,2,1:2:0:0:
193,162,8693,1,0,1:2:0:0:
111,120,8863,2,0,P|73:124|36:182,1,112.5,8|0,0:2|0:0,0:2:0:0:
14,223,9204,6,0,L|104:234,1,75,2|0,1:2|1:2,0:2:0:0:
143,303,9545,2,0,L|299:283,1,150,8|0,0:2|1:2,0:0:0:0:
340,208,10056,2,0,P|384:229|430:220,1,75,0|8,1:2|0:2,0:0:0:0:
487,184,10397,1,2,0:2:0:0:
449,85,10568,6,0,L|368:74,1,75,2|0,1:2|1:2,0:2:0:0:
296,29,10909,1,8,0:2:0:0:
218,74,11079,1,0,1:2:0:0:
131,48,11249,2,0,L|120:127,1,75,0|0,0:0|1:2,0:0:0:0:
70,197,11590,2,0,P|31:212|-13:203,1,75,10|0,0:2|0:2,0:2:0:0:
144,259,11931,6,0,P|181:294|284:270,1,150,2|8,1:2|0:2,0:2:0:0:
379,136,12613,1,2,1:2:0:0:
379,136,12784,1,0,1:2:0:0:
442,199,12954,2,0,L|434:274,1,75,8|0,0:2|0:2,0:2:0:0:
475,370,13295,6,0,P|431:381|390:369,1,75,2|0,1:2|1:2,0:0:0:0:
336,313,13636,2,0,P|292:302|251:314,1,75,8|0,0:2|0:2,0:2:0:0:
199,371,13977,1,2,1:2:0:0:
199,371,14147,1,0,1:2:0:0:
124,319,14318,2,0,L|134:243,1,75,8|0,0:2|0:2,0:2:0:0:
96,151,14659,5,6,1:2:0:0:
96,151,14829,1,0,1:2:0:0:
50,73,14999,1,8,0:2:0:0:
126,0,15170,2,0,B|174:35|174:35|272:16,1,150,6|0,1:2|1:2,0:2:0:0:
346,52,15681,2,0,L|335:135,1,75,14|0,0:2|0:2,0:2:0:0:
256,195,16022,5,6,1:2:0:0:
319,259,16193,1,0,1:2:0:0:
282,341,16363,1,8,0:2:0:0:
386,325,16534,2,0,P|434:313|466:320,1,75,6|0,1:2|0:2,0:2:0:0:
479,332,16789,1,8,0:0:0:0:
479,332,16874,1,0,1:2:0:0:
511,248,17045,2,0,L|501:173,1,75,14|0,0:2|0:2,0:2:0:0:
437,89,17386,5,10,1:1:0:0:
256,192,17471,12,8,19772,1:1:0:0:
389,67,20113,6,0,L|307:79,1,60,4|2,1:1|0:2,0:0:0:0:
271,137,20454,2,0,L|146:121,1,120,10|2,0:2|1:2,0:2:0:0:
94,59,20965,1,2,1:2:0:0:
23,102,21136,1,10,0:2:0:0:
23,102,21306,1,2,0:2:0:0:
64,188,21477,6,0,P|76:233|69:260,1,60,2|0,1:2|1:2,0:2:0:0:
34,321,21818,1,10,0:2:0:0:
34,321,21988,2,0,L|103:329,1,60,2|0,0:2|1:2,0:2:0:0:
157,382,22329,2,0,L|226:374,1,60,2|8,1:2|0:2,0:2:0:0:
291,314,22670,6,0,P|311:278|287:194,1,120,2|2,0:2|1:2,0:2:0:0:
240,148,23181,1,10,0:2:0:0:
240,148,23352,1,2,0:2:0:0:
279,74,23522,2,0,L|351:64,1,60,2|2,1:2|1:2,0:0:0:0:
403,12,23863,2,0,L|475:22,1,60,10|2,0:2|0:2,0:0:0:0:
507,105,24204,6,0,P|515:140|504:182,1,60,2|0,1:2|1:2,0:2:0:0:
467,236,24545,1,10,0:2:0:0:
467,236,24715,2,0,P|424:224|394:227,1,60,2|0,0:2|0:2,0:2:0:0:
354,288,25056,2,0,P|311:300|281:297,1,60,2|8,1:2|0:2,0:2:0:0:
236,357,25397,1,2,1:2:0:0:
236,357,25482,1,0,1:2:0:0:
236,357,25568,1,0,1:2:0:0:
103,301,25909,6,0,P|87:263|89:224,1,60,10|0,0:2|0:2,0:2:0:0:
151,192,26249,2,0,P|156:151|177:118,1,60,2|0,1:2|1:2,0:2:0:0:
111,69,26590,2,0,L|34:79,1,60,10|0,0:2|0:2,0:2:0:0:
173,6,26931,2,0,L|250:16,1,60,2|0,1:2|1:2,0:2:0:0:
294,70,27272,6,0,P|312:122|306:150,1,60,10|0,0:2|0:2,0:2:0:0:
366,189,27613,2,0,P|355:243|336:264,1,60,2|0,1:2|1:2,0:2:0:0:
295,307,27954,2,0,P|336:328|386:324,1,90,10|0,0:2|0:0,0:2:0:0:
418,341,28295,5,6,1:2:0:0:
489,297,28465,1,2,1:2:0:0:
454,220,28636,1,10,0:2:0:0:
506,140,28806,2,0,L|512:80,1,60,6|0,1:2|0:2,0:2:0:0:
413,16,29147,2,0,L|419:75,1,60,2|8,1:2|0:2,0:0:0:0:
373,175,29488,6,0,P|344:142|268:146,1,120,6|2,1:2|1:2,0:2:0:0:
207,197,29999,1,10,0:2:0:0:
260,261,30170,1,2,1:2:0:0:
199,335,30340,2,0,P|166:320|120:325,1,60,8|0,0:2|1:2,0:0:0:0:
58,365,30681,1,8,0:2:0:0:
9,229,31022,6,0,P|39:213|71:211,1,60,4|2,1:2|0:2,0:0:0:0:
125,152,31363,2,0,P|162:183|234:175,1,120,10|2,0:2|1:2,0:2:0:0:
309,149,31874,1,2,1:2:0:0:
368,215,32045,1,10,0:2:0:0:
368,215,32215,1,2,0:2:0:0:
454,171,32386,6,0,L|462:108,1,60,2|0,1:2|1:2,0:2:0:0:
432,37,32727,1,10,0:2:0:0:
432,37,32897,2,0,P|390:24|355:30,1,60,2|0,0:2|1:2,0:2:0:0:
300,65,33238,2,0,P|258:78|223:72,1,60,2|8,1:2|0:2,0:0:0:0:
152,41,33579,6,0,L|171:184,1,120,2|2,0:2|1:2,0:2:0:0:
133,237,34090,2,0,P|105:252|65:256,1,60,10|0,0:2|0:2,0:2:0:0:
198,300,34431,1,2,1:2:0:0:
198,300,34602,1,2,1:2:0:0:
276,271,34772,2,0,P|317:261|354:274,1,60,10|2,0:2|0:2,0:0:0:0:
402,331,35113,6,0,L|464:324,1,60,2|0,1:2|1:2,0:2:0:0:
510,257,35454,1,10,0:2:0:0:
510,257,35624,2,0,L|498:188,1,60,2|0,1:2|0:2,0:2:0:0:
429,150,35965,2,0,L|441:81,1,60,2|8,1:2|0:2,0:2:0:0:
500,33,36306,1,2,1:2:0:0:
500,33,36391,1,0,1:2:0:0:
500,33,36477,1,0,1:2:0:0:
355,33,36818,6,0,P|315:46|275:37,1,60,10|0,0:2|0:0,0:0:0:0:
238,104,37159,2,0,P|196:95|166:67,1,60,2|0,1:2|1:2,0:0:0:0:
105,119,37499,2,0,L|97:191,1,60,10|0,0:2|0:2,0:2:0:0:
28,245,37840,2,0,L|36:317,1,60,2|0,1:2|1:2,0:2:0:0:
95,362,38181,6,0,P|135:349|175:358,1,60,10|0,0:2|0:2,0:2:0:0:
212,291,38522,2,0,P|253:299|283:327,1,60,2|0,1:2|1:2,0:2:0:0:
349,290,38863,2,0,L|335:187,1,90,10|0,0:2|0:0,0:2:0:0:
307,170,39204,5,6,1:2:0:0:
334,90,39374,1,2,1:2:0:0:
285,21,39545,1,10,0:2:0:0:
392,24,39715,2,0,P|436:36|473:32,1,60,6|0,0:2|1:2,0:2:0:0:
511,101,40056,1,2,1:2:0:0:
511,101,40227,1,10,0:2:0:0:
475,190,40397,6,0,P|431:202|394:198,1,60,6|0,1:2|0:0,0:2:0:0:
355,257,40738,1,0,1:2:0:0:
355,257,40823,1,0,1:2:0:0:
355,257,40909,1,8,0:2:0:0:
286,304,41079,1,0,1:2:0:0:
223,248,41249,2,0,L|154:240,1,60,8|0,0:2|1:2,0:0:0:0:
81,290,41590,1,10,0:2:0:0:
13,162,41931,6,0,L|22:97,1,60,4|2,1:2|0:2,0:0:0:0:
73,36,42272,2,0,P|116:54|186:27,1,120,10|10,0:1|0:2,0:2:0:0:
264,67,42784,1,2,0:2:0:0:
264,67,42954,2,0,L|274:146,1,60,10|2,0:1|1:1,0:0:0:0:
233,215,43295,6,0,P|198:232|166:233,2,60,2|2|10,0:2|1:2|0:1,0:2:0:0:
311,258,43806,1,10,1:1:0:0:
311,258,43977,2,0,P|337:288|343:368,1,120,8|8,0:2|0:1,0:2:0:0:
488,373,44659,6,0,L|479:307,1,60,0|2,1:2|0:2,0:0:0:0:
428,254,44999,1,10,0:1:0:0:
428,254,45170,1,10,1:1:0:0:
484,191,45340,2,0,P|492:160|483:120,1,60,10|2,0:2|0:2,0:0:0:0:
426,74,45681,2,0,P|395:66|355:75,1,60,10|2,0:1|1:2,0:2:0:0:
299,137,46022,6,0,L|308:207,2,60,2|2|10,0:2|1:2|0:1,0:0:0:0:
241,81,46534,1,10,1:1:0:0:
241,81,46704,2,0,B|194:77|194:77|172:88|172:88|118:84,1,120,8|8,0:2|0:1,0:2:0:0:
3,4,47386,6,0,L|12:67,1,60,4|2,1:2|0:2,0:0:0:0:
53,142,47727,1,10,0:1:0:0:
53,142,47897,1,10,1:1:0:0:
103,209,48068,2,0,P|134:221|172:217,1,60,10|2,0:2|0:2,0:2:0:0:
57,283,48409,2,0,P|26:295|-12:291,1,60,10|2,0:1|1:2,0:0:0:0:
139,314,48749,6,0,L|147:375,2,60,2|2|10,0:2|1:2|0:1,0:2:0:0:
191,248,49261,1,10,1:1:0:0:
263,289,49431,2,0,P|311:275|370:309,1,120,8|8,0:2|0:3,0:2:0:0:
383,329,49857,1,8,0:3:0:0:
383,329,49943,1,4,0:3:0:0:
475,370,50113,6,0,L|484:294,1,75,6|2,1:2|0:2,0:0:0:0:
507,208,50454,1,10,0:2:0:0:
420,148,50624,2,0,B|381:132|343:155|357:161|316:179|269:160,1,150,6|2,1:2|0:2,0:2:0:0:
194,122,51136,1,10,0:2:0:0:
157,220,51306,6,0,P|107:258|19:234,1,150,6|2,1:2|0:2,0:2:0:0:
0,154,51818,1,10,0:2:0:0:
42,58,51988,2,0,L|193:43,1,150,6|2,1:2|1:2,0:2:0:0:
212,34,52414,1,0,1:2:0:0:
212,34,52499,1,2,1:2:0:0:
311,0,52670,6,0,B|319:63|319:63|310:84|310:84|319:157,1,150,2|0,0:2|1:2,0:2:0:0:
337,168,53096,1,0,1:2:0:0:
337,168,53181,2,0,P|389:189|474:151,1,150,4|0,1:2|0:2,0:2:0:0:
426,282,53693,1,0,1:2:0:0:
426,282,53778,1,0,1:2:0:0:
426,282,53863,2,0,L|352:292,1,75,6|0,1:2|0:2,0:2:0:0:
276,366,54204,6,0,B|236:327|236:327|254:233,1,150,2|8,1:2|0:2,0:2:0:0:
277,132,54715,1,0,1:2:0:0:
53,355,55227,6,0,L|35:205,1,146.249993305207,14|0,3:2|0:2,0:2:0:0:
60,179,55568,6,0,B|103:161|140:181|124:194|169:216|217:194,1,146.249993305207,2|0,1:2|0:2,0:2:0:0:
232,219,55909,6,0,L|221:299,1,75,12|0,0:2|0:2,0:2:0:0:
283,374,56249,1,2,1:2:0:0:
283,374,56420,1,0,1:2:0:0:
363,319,56590,2,0,P|402:309|447:319,1,75,8|0,0:2|0:2,0:2:0:0:
497,221,56931,5,2,1:2:0:0:
497,221,57102,1,0,1:2:0:0:
417,166,57272,2,0,P|378:156|333:166,1,75,8|0,0:2|1:2,0:2:0:0:
277,96,57613,1,2,0:2:0:0:
277,96,57784,1,0,1:2:0:0:
211,168,57954,2,0,L|221:248,1,75,8|0,0:2|0:2,0:2:0:0:
137,106,58295,6,0,P|100:122|61:122,1,75,2|2,1:2|1:2,0:0:0:0:
8,43,58636,2,0,P|45:27|84:27,1,75,10|2,0:2|0:2,0:0:0:0:
175,10,58977,1,2,1:2:0:0:
175,10,59147,1,2,1:2:0:0:
250,72,59318,1,10,0:2:0:0:
341,38,59488,1,2,0:2:0:0:
401,133,59659,6,0,L|478:142,2,75,2|2|10,1:2|1:2|0:2,0:0:0:0:
315,180,60170,2,0,B|295:205|264:214|264:214|292:304,1,150,2|0,1:2|1:2,0:2:0:0:
232,376,60681,2,0,P|194:359|139:361,1,75,10|0,0:2|0:2,0:2:0:0:
50,378,61022,6,0,L|69:224,1,150,2|8,1:2|0:2,0:2:0:0:
20,39,61704,1,2,1:2:0:0:
20,39,61874,1,0,1:2:0:0:
98,97,62045,2,0,P|144:107|181:98,1,75,8|0,0:2|0:2,0:2:0:0:
244,16,62386,6,0,B|286:-15|348:45|291:121,1,150,2|8,1:2|0:2,0:0:0:0:
244,184,62897,1,0,1:2:0:0:
333,252,63068,2,0,B|373:234|409:252|400:264|439:281|479:265,1,150,2|8,0:2|0:2,0:0:0:0:
468,363,63579,1,0,0:0:0:0:
361,332,63749,6,0,L|280:343,1,75,2|2,1:2|1:2,0:0:0:0:
196,378,64090,2,0,P|188:338|199:294,1,75,14|2,0:2|0:2,0:0:0:0:
254,227,64431,1,2,1:2:0:0:
187,155,64602,1,2,1:2:0:0:
268,101,64772,2,0,P|310:92|359:107,1,75,14|0,0:2|0:2,0:2:0:0:
212,13,65113,5,6,1:2:0:0:
128,63,65284,1,2,1:2:0:0:
38,24,65454,1,10,0:2:0:0:
91,147,65624,2,0,B|108:173|135:186|135:186|107:288,1,150,6|0,1:2|1:2,0:2:0:0:
28,343,66136,6,0,P|85:380|178:352,1,146.249993305207,14|0,0:2|0:0,0:2:0:0:
185,341,66477,6,0,P|242:304|335:332,1,146.249993305207,2|0,1:2|0:2,0:2:0:0:
349,301,66818,6,0,L|359:213,1,75,12|0,0:2|0:2,0:2:0:0:
431,162,67159,1,2,1:2:0:0:
431,162,67329,1,0,1:2:0:0:
367,88,67499,2,0,L|285:100,1,75,8|0,0:2|0:2,0:2:0:0:
254,207,67840,5,2,1:2:0:0:
254,207,68010,1,0,1:2:0:0:
190,281,68181,2,0,L|108:269,1,75,8|0,0:2|1:2,0:2:0:0:
53,200,68522,1,2,0:2:0:0:
53,200,68693,1,0,1:2:0:0:
6,285,68863,2,0,P|29:316|36:362,1,75,8|0,0:2|0:2,0:2:0:0:
115,270,69204,6,0,P|138:239|145:193,1,75,2|2,1:2|1:2,0:0:0:0:
101,116,69545,2,0,P|78:85|71:39,1,75,10|2,0:2|0:2,0:0:0:0:
151,0,69886,1,2,1:2:0:0:
151,0,70056,1,2,1:2:0:0:
211,76,70227,1,10,0:2:0:0:
296,30,70397,1,2,0:2:0:0:
281,141,70568,6,0,L|270:229,2,75,2|2|10,1:2|1:2|0:2,0:0:0:0:
368,97,71079,2,0,B|400:86|417:64|417:64|508:90,1,150,2|0,1:2|1:2,0:2:0:0:
512,185,71590,2,0,L|500:260,1,75,10|0,0:2|0:2,0:2:0:0:
425,343,71931,6,0,P|387:312|279:338,1,150,2|8,1:2|0:2,0:2:0:0:
115,241,72613,1,2,1:2:0:0:
68,327,72784,1,0,1:2:0:0:
13,246,72954,2,0,L|23:163,1,75,8|0,0:2|0:2,0:2:0:0:
0,60,73295,6,0,B|41:45|77:64|67:68|101:90|145:75,1,150,2|8,1:2|0:2,0:0:0:0:
222,15,73806,1,0,1:2:0:0:
279,112,73977,2,0,B|255:140|227:152|227:152|256:252,1,150,2|8,0:2|0:2,0:0:0:0:
284,324,74488,1,0,0:2:0:0:
340,189,74659,6,0,P|379:178|421:187,1,75,2|0,1:2|1:2,0:0:0:0:
492,238,74999,2,0,L|477:355,1,112.5,14|0,0:2|0:0,0:2:0:0:
464,366,75340,2,0,P|427:382|380:377,1,75,2|0,1:2|1:2,0:2:0:0:
311,326,75681,2,0,P|277:310|239:310,1,75,14|0,0:2|0:2,0:2:0:0:
151,380,76022,6,0,B|131:354|105:342|105:342|136:254,1,150,6|8,1:2|0:2,0:0:0:0:
175,167,76534,2,0,P|133:156|93:165,1,75,6|2,1:2|0:0,0:2:0:0:
24,215,76874,1,0,1:2:0:0:
24,215,76960,1,0,1:2:0:0:
24,215,77045,1,12,0:2:0:0:
59,23,77386,6,0,P|98:34|134:30,1,75,6|2,1:2|0:2,0:2:0:0:
217,0,77727,1,10,0:2:0:0:
282,60,77897,1,2,0:2:0:0:
240,140,78068,1,10,0:2:0:0:
151,123,78238,1,2,1:2:0:0:
86,185,78409,2,0,P|75:226|94:275,1,75,10|0,0:2|0:2,0:2:0:0:
143,350,78749,6,0,L|231:337,1,75,10|0,0:2|1:2,0:2:0:0:
305,356,79090,1,10,0:2:0:0:
398,371,79261,1,2,0:2:0:0:
440,287,79431,1,10,0:2:0:0:
374,221,79602,1,2,1:2:0:0:
290,263,79772,2,0,L|211:253,1,75,10|0,0:2|0:2,0:2:0:0:
103,255,80113,6,0,P|86:221|90:168,1,75,8|0,0:2|1:2,0:2:0:0:
47,86,80454,5,10,0:2:0:0:
140,39,80624,1,0,0:2:0:0:
190,131,80795,5,10,0:2:0:0:
283,84,80965,1,0,1:2:0:0:
333,176,81136,5,10,0:2:0:0:
434,137,81306,1,8,0:2:0:0:
434,137,81391,1,8,0:2:0:0:
434,137,81477,6,0,L|444:57,2,75,2|0|8,1:2|1:2|3:2,0:2:0:0:
309,287,82159,6,0,P|383:270|459:313,2,146.249993305207,6|6|6,1:2|1:2|1:2,0:2:0:0:
370,380,82840,5,6,1:2:0:0:
256,192,82926,12,2,84204,1:2:0:0:
445,58,88295,6,0,L|320:78,1,112.5,2|0,1:2|0:2,0:2:0:0:
313,56,88636,2,0,P|276:38|232:38,1,75,8|0,0:2|0:2,0:2:0:0:
175,96,88977,1,2,1:2:0:0:
175,96,89147,1,0,1:2:0:0:
230,166,89318,2,0,L|240:246,1,75,8|0,0:2|0:2,0:2:0:0:
279,337,89659,6,0,B|217:329|217:329|195:342|195:342|117:333,1,150,2|8,1:2|0:2,0:0:0:0:
48,364,90170,1,0,1:2:0:0:
10,282,90340,2,0,L|21:206,1,75,2|0,0:2|1:2,0:0:0:0:
86,146,90681,2,0,L|75:70,1,75,8|0,0:2|0:2,0:2:0:0:
156,4,91022,6,0,P|182:44|286:48,1,150,6|8,1:2|0:2,0:0:0:0:
353,4,91534,2,0,P|368:48|359:88,1,75,0|0,1:2|0:0,0:2:0:0:
299,138,91874,2,0,P|284:182|293:222,1,75,0|8,1:2|0:2,0:0:0:0:
370,274,92215,6,0,B|449:269|449:269|521:312,1,150,6|0,1:2|1:2,0:2:0:0:
425,369,92727,1,8,0:2:0:0:
329,351,92897,2,0,P|286:338|238:348,1,75,0|0,0:2|1:2,0:2:0:0:
239,358,93153,1,0,1:0:0:0:
239,358,93238,1,0,1:2:0:0:
136,380,93409,1,12,0:2:0:0:
28,244,93749,5,14,1:1:0:0:
28,244,93920,2,0,L|39:168,1,75,2|10,1:2|0:1,0:0:0:0:
87,93,94261,2,0,P|50:78|-1:85,1,75,2|10,1:2|0:1,0:0:0:0:
131,171,94602,2,0,P|168:171|202:157,1,75,2|10,1:2|0:1,0:0:0:0:
278,84,94943,6,0,L|269:9,1,75,2|8,1:2|0:1,0:0:0:0:
360,132,95284,2,0,L|351:207,1,75,2|10,1:2|0:1,0:0:0:0:
282,285,95624,6,0,B|334:315|334:315|435:294,1,150,2|2,1:2|1:2,0:0:0:0:
437,284,96051,1,0,1:2:0:0:
437,284,96136,1,10,0:2:0:0:
487,209,96306,1,2,1:2:0:0:
434,122,96477,5,6,0:2:0:0:
434,122,96647,2,0,L|356:132,1,75,2|10,1:2|0:1,0:0:0:0:
276,97,96988,2,0,P|260:54|265:17,1,75,2|10,1:2|0:1,0:0:0:0:
194,132,97329,2,0,P|195:169|180:203,1,75,2|10,1:2|0:1,0:0:0:0:
80,236,97670,6,0,P|122:226|181:301,1,150,2|2,1:2|1:2,0:0:0:0:
248,360,98181,1,10,0:1:0:0:
316,301,98352,1,2,1:2:0:0:
273,221,98522,1,10,0:2:0:0:
318,80,98863,1,8,0:2:0:0:
318,80,99034,6,0,P|350:52|451:75,1,150,6|2,1:2|1:2,0:2:0:0:
461,91,99460,1,0,1:2:0:0:
461,91,99545,2,0,L|450:168,1,75,10|2,0:2|1:2,0:0:0:0:
381,223,99886,1,10,0:2:0:0:
291,232,100056,1,10,0:3:0:0:
301,322,100227,1,6,1:2:0:0:
390,312,100397,5,6,1:2:0:0:
256,192,100482,12,0,105852,0:0:0:0:
