osu file format v14

[General]
AudioFilename: collage.mp3
AudioLeadIn: 0
PreviewTime: 55356
Countdown: 0
SampleSet: Soft
StackLeniency: 0.7
Mode: 0
LetterboxInBreaks: 0
WidescreenStoryboard: 0

[Editor]
Bookmarks: 11536,22491,33277,44064,95300
DistanceSpacing: 1
BeatDivisor: 4
GridSize: 16
TimelineZoom: 1.2

[Metadata]
Title:collage
TitleUnicode:collage
Artist:Nakae Mitsuki. Shimotsuki Haruka
ArtistUnicode:中恵光城・霜月はるか
Creator:TT Mouse
Version:Normal
Source:
Tags:Another Flower II M3-35
BeatmapID:737120
BeatmapSetID:333015

[Difficulty]
HPDrainRate:3
CircleSize:3.3
OverallDifficulty:3.5
ApproachRate:4
SliderMultiplier:0.9
SliderTickRate:1

[Events]
//Background and Video events
0,0,"BG.jpg",0,0
//Break Periods
//Storyboard Layer 0 (Background)
//Storyboard Layer 1 (Fail)
//Storyboard Layer 2 (Pass)
//Storyboard Layer 3 (Foreground)
//Storyboard Sound Samples

[TimingPoints]
-456,337.078651685393,4,2,1,80,1,0
10583,-100,4,2,1,10,0,0
11510,-100,4,2,1,80,0,0
22465,-100,4,1,1,70,0,0
33251,-100,4,1,1,70,0,0
44038,-100,4,2,1,80,0,0
55246,-90.9090909090909,4,2,1,80,0,0
56004,-90.9090909090909,4,2,1,90,0,1
74375,-90.9090909090909,4,2,1,90,0,0
77577,-90.9090909090909,4,2,1,90,0,1
83308,-100,4,2,1,80,0,0
84319,-100,4,2,1,80,0,0

[Colours]
Combo1 : 249,125,197
Combo2 : 252,232,180
Combo3 : 2,96,151
Combo4 : 78,207,231

[HitObjects]
256,192,6285,12,0,10667,0:2:0:0:
379,96,11510,6,0,P|344:162|366:231,1,135,4|8,0:0|0:0,0:0:0:0:
326,302,12352,2,0,L|348:342,2,45,8|8|0,0:1|0:1|0:0,0:0:0:0:
287,326,12858,2,0,P|214:333|149:296,1,135,0|8,0:0|0:0,0:0:0:0:
78,268,13701,2,0,L|31:284,2,45,8|8|8,0:1|0:1|0:0,0:0:0:0:
107,233,14206,6,0,P|117:171|73:111,1,135,0|8,0:0|0:0,0:0:0:0:
122,35,15049,2,0,L|78:26,2,45,8|8|0,0:1|0:1|0:0,0:0:0:0:
166,44,15555,2,0,L|269:24,2,90,4|8|0,0:0|0:1|0:0,0:0:0:0:
200,126,16566,1,8,0:1:0:0:
241,205,16903,6,0,P|312:218|361:180,1,135,4|8,0:0|0:0,0:0:0:0:
436,229,17746,2,0,L|497:219,2,45,8|8|0,0:1|0:1|0:0,0:0:0:0:
405,262,18251,2,0,B|386:301|399:343|399:343|361:321|334:326,1,135
261,341,19094,2,0,L|283:386,2,45,8|8|8,0:1|0:1|0:0,0:0:0:0:
240,300,19600,6,0,P|193:294|125:355,1,135,8|8,0:1|0:0,0:0:0:0:
66,280,20442,2,0,L|22:285,2,45,8|8|0,0:1|0:1|0:0,0:0:0:0:
90,242,20948,1,8,0:1:0:0:
136,165,21285,1,8,0:1:0:0:
187,90,21622,2,0,L|216:39,2,45,0|8|8,0:0|0:0|0:0,0:0:0:0:
307,28,22465,5,0,0:0:0:0:
360,292,23476,1,0,0:0:0:0:
108,102,24656,2,8,L|120:155,1,45,8|8,0:0|0:2,0:0:0:0:
142,232,25161,2,0,L|110:280,2,45,8|0|0,0:1|0:0|0:0,0:0:0:0:
186,222,25667,1,0,0:0:0:0:
196,356,26173,1,0,0:0:0:0:
472,125,27521,1,8,0:2:0:0:
429,204,27858,5,8,0:1:0:0:
231,19,28869,1,8,0:0:0:0:
367,352,30218,1,8,0:2:0:0:
294,298,30555,2,0,L|239:333,2,45,8|0|0,0:1|0:0|0:0,0:0:0:0:
332,275,31060,1,0,0:0:0:0:
196,270,31566,1,8,0:0:0:0:
117,11,32577,2,8,L|74:-6,2,45,8|8|8,0:2|0:0|0:2,0:2:0:0:
63,83,33251,6,0,P|119:101|161:89,1,90,12|8,0:1|0:1,0:0:0:0:
226,45,33926,1,8,0:1:0:0:
306,85,34263,1,8,0:1:0:0:
388,48,34600,2,0,P|394:104|368:146,1,90,8|8,0:1|0:1,0:0:0:0:
301,177,35274,1,8,0:1:0:0:
373,229,35611,1,8,0:1:0:0:
294,272,35948,6,0,P|253:261|196:274,1,90,8|8,0:1|0:1,0:0:0:0:
183,355,36622,2,0,P|135:329|117:281,1,90,8|8,0:1|0:1,0:0:0:0:
53,237,37296,2,0,P|91:211|151:215,1,90,8|8,0:1|0:1,0:0:0:0:
217,176,37970,1,8,0:1:0:0:
171,98,38308,1,8,0:1:0:0:
240,40,38645,6,0,P|291:37|338:48,1,90,8|8,0:1|0:1,0:0:0:0:
389,111,39319,1,8,0:1:0:0:
336,184,39656,1,8,0:1:0:0:
407,239,39993,2,0,P|416:292|396:340,1,90,8|8,0:1|0:1,0:0:0:0:
326,281,40667,1,8,0:1:0:0:
251,331,41004,1,8,0:1:0:0:
166,299,41341,6,0,P|159:247|181:210,1,90,8|8,0:1|0:1,0:0:0:0:
229,142,42015,2,0,P|183:102|151:90,1,90,8|8,0:1|0:1,0:0:0:0:
86,148,42690,2,0,L|94:211,1,45,8|8,0:3|0:0,0:0:0:0:
98,282,43195,2,0,L|106:331,1,45,8|8,0:1|0:3,0:0:0:0:
264,240,44038,6,0,P|324:266|346:341,2,135,12|8|8,0:1|0:0|0:1,0:0:0:0:
254,150,45386,2,0,L|317:163,1,45,8|8,0:1|0:0,0:0:0:0:
373,109,45892,2,0,L|429:118,2,45,8|0|0,0:1|0:0|0:0,0:0:0:0:
251,50,46735,6,0,P|173:78|151:137,1,135,8|0,0:3|0:3,0:0:0:0:
171,254,47746,1,8,0:1:0:0:
43,209,48251,1,8,0:0:0:0:
78,291,48588,2,0,L|60:348,2,45,8|8|8,0:1|0:0|0:0,0:0:0:0:
207,328,49431,6,0,P|246:278|230:199,2,135,4|8|8,0:0|0:0|0:1,0:0:0:0:
292,354,50779,2,0,L|393:346,1,90,8|8,0:1|0:0,0:0:0:0:
406,259,51454,2,0,L|460:241,2,45,8|0|8,0:1|0:0|0:0,0:0:0:0:
346,192,52128,6,0,P|340:121|374:62,2,135,8|8|8,0:3|0:0|0:3,0:0:0:0:
211,199,53645,1,8,0:0:0:0:
135,87,54150,2,0,P|87:76|58:46,1,90,8|8,0:0|0:0,0:0:0:0:
78,339,55499,2,0,L|102:290,1,49.5000015106202
183,347,56004,6,0,P|253:340|305:280,1,148.50000453186,4|8,0:3|0:0,0:0:0:0:
268,191,56847,2,0,L|216:194,2,49.5000015106202,8|8|0,0:1|0:1|0:0,0:0:0:0:
300,154,57352,2,0,P|366:169|408:240,1,148.50000453186,0|8,0:2|0:0,0:0:0:0:
468,155,58195,2,0,L|514:188,2,49.5000015106202,8|8|0,0:1|0:1|0:0,0:0:0:0:
456,106,58701,6,0,L|368:50,1,99.0000030212403,0|8,0:0|0:1,0:0:0:0:
331,25,59206,1,8,0:2:0:0:
233,39,59543,2,0,L|178:49,2,49.5000015106202,8|8|0,0:1|0:1|0:0,0:0:0:0:
245,86,60049,2,0,P|238:137|188:183,1,99.0000030212403,4|0,0:0|0:0,0:0:0:0:
111,194,60723,2,0,P|90:243|107:301,1,99.0000030212403
168,356,61397,6,0,P|237:362|314:315,1,148.50000453186,4|8,0:0|0:0,0:0:0:0:
350,236,62240,2,0,L|406:244,2,49.5000015106202,8|8|0,0:1|0:1|0:0,0:0:0:0:
313,202,62746,2,0,P|357:149|436:148,1,148.50000453186,0|8,0:0|0:0,0:0:0:0:
446,48,63588,1,8,0:1:0:0:
353,12,63926,1,8,0:0:0:0:
283,81,64263,6,0,P|235:60|209:23,1,99.0000030212403,0|8,0:0|0:0,0:0:0:0:
116,57,64937,2,0,P|116:109|77:163,1,99.0000030212403,8|8,0:1|0:0,0:0:0:0:
1,186,65611,1,0,0:0:0:0:
78,247,65948,1,0,0:0:0:0:
159,303,66285,2,0,L|155:365,1,49.5000015106202
254,347,66791,6,0,P|264:287|208:213,1,148.50000453186,4|8,0:3|0:0,0:0:0:0:
153,141,67633,2,0,L|86:144,2,49.5000015106202,8|8|0,0:1|0:1|0:0,0:0:0:0:
189,106,68139,2,0,P|257:126|328:95,1,148.50000453186,0|8,0:0|0:0,0:0:0:0:
398,29,68982,2,0,L|357:-5,2,49.5000015106202,8|8|0,0:1|0:1|0:0,0:0:0:0:
435,60,69487,6,0,L|450:214,1,148.50000453186,0|8,0:0|0:0,0:0:0:0:
392,289,70330,2,0,L|375:346,1,49.5000015106202,8|8,0:1|0:1,0:0:0:0:
292,383,70836,2,0,P|283:335|300:290,1,99.0000030212403,8|8,0:1|0:1,0:0:0:0:
262,197,71510,2,0,L|201:213,2,49.5000015106202
292,157,72015,1,0,0:0:0:0:
318,115,72184,6,0,P|263:60|189:65,1,148.50000453186,4|8,0:0|0:0,0:0:0:0:
124,129,73027,2,0,L|61:117,2,49.5000015106202,8|8|0,0:1|0:1|0:0,0:0:0:0:
160,161,73532,2,0,L|137:316,1,148.50000453186,0|8,0:0|0:2,0:0:0:0:
221,362,74375,1,0,0:0:0:0:
306,311,74712,1,8,0:2:0:0:
382,374,75049,6,0,P|405:328|399:280,1,99.0000030212403,0|8,0:0|0:2,0:0:0:0:
466,208,75723,2,0,P|461:159|483:116,1,99.0000030212403,0|8,0:0|0:2,0:0:0:0:
465,69,76229,2,0,L|350:55,1,99.0000030212403,4|8,0:0|0:1,0:0:0:0:
279,104,76903,1,8,0:1:0:0:
214,28,77240,1,8,0:1:0:0:
129,79,77577,6,0,P|122:129|141:184,1,99.0000030212403,4|0,0:0|0:0,0:0:0:0:
172,207,78083,1,8,0:2:0:0:
99,273,78420,2,0,L|113:332,2,49.5000015106202,0|0|8,0:0|0:0|0:2,0:0:0:0:
192,304,79094,1,0,0:0:0:0:
268,240,79431,1,8,0:2:0:0:
324,321,79768,2,0,L|313:387,2,49.5000015106202,0|0|8,0:0|0:0|0:2,0:0:0:0:
405,265,80442,6,0,L|412:152,1,99.0000030212403,0|8,0:0|0:0,0:0:0:0:
415,116,80948,2,0,P|466:91|514:98,2,99.0000030212403,4|0|0,0:0|0:0|0:0,0:0:0:0:
372,90,81791,1,0,0:0:0:0:
281,131,82128,2,0,L|166:112,1,99.0000030212403,8|0,0:0|0:0,0:0:0:0:
94,157,82802,1,8,0:0:0:0:
132,248,83139,2,0,L|121:309,1,49.5000015106202,4|8,0:0|0:1,0:0:0:0:
391,324,84319,6,0,P|324:334|275:280,1,135,4|8,0:2|0:0,0:0:0:0:
297,202,85161,2,0,L|285:153,2,45,8|8|0,0:1|0:1|0:0,0:0:0:0:
337,222,85667,2,0,B|373:199|373:199|389:147|389:147|430:114,1,135,0|8,0:0|0:0,0:0:0:0:
397,35,86510,2,0,L|400:-12,2,45,8|0|0,0:1|0:1|0:0,0:0:0:0:
360,60,87015,6,0,P|273:58|255:11,1,135,0|8,0:0|0:0,0:0:0:0:
174,63,87858,2,0,L|130:54,2,45,8|8|0,0:1|0:1|0:0,0:0:0:0:
178,107,88364,2,0,B|155:172|155:172|165:201,1,90,12|8,0:1|0:1,0:0:0:0:
82,234,89038,2,0,B|88:253|88:253|65:318,1,90,8|8,0:1|0:1,0:0:0:0:
147,356,89712,6,0,L|286:334,1,135,0|8,0:0|0:0,0:0:0:0:
346,273,90555,2,0,L|408:283,2,45,8|8|0,0:1|0:1|0:0,0:0:0:0:
305,253,91060,2,0,P|295:184|346:153,1,135,0|8,0:0|0:0,0:0:0:0:
354,63,91903,2,0,L|364:14,2,45,8|8|0,0:1|0:1|0:0,0:0:0:0:
310,75,92409,6,0,B|265:86|265:86|219:68|219:68|172:83,1,135,0|8,0:0|0:0,0:0:0:0:
104,125,93251,2,0,L|53:113,2,45,8|8|0,0:1|0:1|0:0,0:0:0:0:
123,165,93757,2,0,B|112:197|112:197|131:266,1,90,4|8,0:1|0:1,0:0:0:0:
200,302,94431,2,0,P|171:332|106:339,1,90,8|8,0:1|0:1,0:0:0:0:
256,375,95274,1,4,0:1:0:0:
